  0
SECTION
  2
HEADER
  9
$ACADVER
  1
AC1027
  9
$ACADMAINTVER
 70
   125
  9
$DWGCODEPAGE
  3
ANSI_1252
  9
$LASTSAVEDBY
  1
ufficio.tecnico
  9
$REQUIREDVERSIONS
160
                 0
  9
$INSBASE
 10
0.0
 20
0.0
 30
0.0
  9
$EXTMIN
 10
2401.060929702061
 20
1678.802011311527
 30
0.0
  9
$EXTMAX
 10
4037.154890147681
 20
4125.598315850125
 30
0.0
  9
$LIMMIN
 10
0.0
 20
0.0
  9
$LIMMAX
 10
420.0
 20
297.0
  9
$ORTHOMODE
 70
     0
  9
$REGENMODE
 70
     1
  9
$FILLMODE
 70
     1
  9
$QTEXTMODE
 70
     0
  9
$MIRRTEXT
 70
     0
  9
$LTSCALE
 40
1.0
  9
$ATTMODE
 70
     1
  9
$TEXTSIZE
 40
2.5
  9
$TRACEWID
 40
1.0
  9
$TEXTSTYLE
  7
Standard
  9
$CLAYER
  8
0
  9
$CELTYPE
  6
ByLayer
  9
$CECOLOR
 62
   256
  9
$CELTSCALE
 40
1.0
  9
$DISPSILH
 70
     0
  9
$DIMSCALE
 40
1.0
  9
$DIMASZ
 40
2.5
  9
$DIMEXO
 40
0.625
  9
$DIMDLI
 40
3.75
  9
$DIMRND
 40
0.0
  9
$DIMDLE
 40
0.0
  9
$DIMEXE
 40
1.25
  9
$DIMTP
 40
0.0
  9
$DIMTM
 40
0.0
  9
$DIMTXT
 40
2.5
  9
$DIMCEN
 40
2.5
  9
$DIMTSZ
 40
0.0
  9
$DIMTOL
 70
     0
  9
$DIMLIM
 70
     0
  9
$DIMTIH
 70
     0
  9
$DIMTOH
 70
     0
  9
$DIMSE1
 70
     0
  9
$DIMSE2
 70
     0
  9
$DIMTAD
 70
     1
  9
$DIMZIN
 70
     8
  9
$DIMBLK
  1

  9
$DIMASO
 70
     1
  9
$DIMSHO
 70
     1
  9
$DIMPOST
  1

  9
$DIMAPOST
  1

  9
$DIMALT
 70
     0
  9
$DIMALTD
 70
     3
  9
$DIMALTF
 40
0.03937007874016
  9
$DIMLFAC
 40
1.0
  9
$DIMTOFL
 70
     1
  9
$DIMTVP
 40
0.0
  9
$DIMTIX
 70
     0
  9
$DIMSOXD
 70
     0
  9
$DIMSAH
 70
     0
  9
$DIMBLK1
  1

  9
$DIMBLK2
  1

  9
$DIMSTYLE
  2
ISO-25
  9
$DIMCLRD
 70
     0
  9
$DIMCLRE
 70
     0
  9
$DIMCLRT
 70
     0
  9
$DIMTFAC
 40
1.0
  9
$DIMGAP
 40
0.625
  9
$DIMJUST
 70
     0
  9
$DIMSD1
 70
     0
  9
$DIMSD2
 70
     0
  9
$DIMTOLJ
 70
     0
  9
$DIMTZIN
 70
     8
  9
$DIMALTZ
 70
     0
  9
$DIMALTTZ
 70
     0
  9
$DIMUPT
 70
     0
  9
$DIMDEC
 70
     2
  9
$DIMTDEC
 70
     2
  9
$DIMALTU
 70
     2
  9
$DIMALTTD
 70
     3
  9
$DIMTXSTY
  7
Standard
  9
$DIMAUNIT
 70
     0
  9
$DIMADEC
 70
     0
  9
$DIMALTRND
 40
0.0
  9
$DIMAZIN
 70
     0
  9
$DIMDSEP
 70
    44
  9
$DIMATFIT
 70
     3
  9
$DIMFRAC
 70
     0
  9
$DIMLDRBLK
  1

  9
$DIMLUNIT
 70
     2
  9
$DIMLWD
 70
    -2
  9
$DIMLWE
 70
    -2
  9
$DIMTMOVE
 70
     0
  9
$DIMFXL
 40
1.0
  9
$DIMFXLON
 70
     0
  9
$DIMJOGANG
 40
0.7853981633974483
  9
$DIMTFILL
 70
     0
  9
$DIMTFILLCLR
 70
     0
  9
$DIMARCSYM
 70
     0
  9
$DIMLTYPE
  6

  9
$DIMLTEX1
  6

  9
$DIMLTEX2
  6

  9
$DIMTXTDIRECTION
 70
     0
  9
$LUNITS
 70
     2
  9
$LUPREC
 70
     4
  9
$SKETCHINC
 40
1.0
  9
$FILLETRAD
 40
0.0
  9
$AUNITS
 70
     0
  9
$AUPREC
 70
     0
  9
$MENU
  1
.
  9
$ELEVATION
 40
0.0
  9
$PELEVATION
 40
0.0
  9
$THICKNESS
 40
0.0
  9
$LIMCHECK
 70
     0
  9
$CHAMFERA
 40
0.0
  9
$CHAMFERB
 40
0.0
  9
$CHAMFERC
 40
0.0
  9
$CHAMFERD
 40
0.0
  9
$SKPOLY
 70
     0
  9
$TDCREATE
 40
2459810.437083334
  9
$TDUCREATE
 40
2459810.353750000
  9
$TDUPDATE
 40
2459810.438159722
  9
$TDUUPDATE
 40
2459810.354826389
  9
$TDINDWG
 40
0.0010763889
  9
$TDUSRTIMER
 40
0.0010763889
  9
$USRTIMER
 70
     1
  9
$ANGBASE
 50
0.0
  9
$ANGDIR
 70
     0
  9
$PDMODE
 70
     0
  9
$PDSIZE
 40
0.0
  9
$PLINEWID
 40
0.0
  9
$SPLFRAME
 70
     0
  9
$SPLINETYPE
 70
     6
  9
$SPLINESEGS
 70
     8
  9
$HANDSEED
  5
594
  9
$SURFTAB1
 70
     6
  9
$SURFTAB2
 70
     6
  9
$SURFTYPE
 70
     6
  9
$SURFU
 70
     6
  9
$SURFV
 70
     6
  9
$UCSBASE
  2

  9
$UCSNAME
  2

  9
$UCSORG
 10
0.0
 20
0.0
 30
0.0
  9
$UCSXDIR
 10
1.0
 20
0.0
 30
0.0
  9
$UCSYDIR
 10
0.0
 20
1.0
 30
0.0
  9
$UCSORTHOREF
  2

  9
$UCSORTHOVIEW
 70
     0
  9
$UCSORGTOP
 10
0.0
 20
0.0
 30
0.0
  9
$UCSORGBOTTOM
 10
0.0
 20
0.0
 30
0.0
  9
$UCSORGLEFT
 10
0.0
 20
0.0
 30
0.0
  9
$UCSORGRIGHT
 10
0.0
 20
0.0
 30
0.0
  9
$UCSORGFRONT
 10
0.0
 20
0.0
 30
0.0
  9
$UCSORGBACK
 10
0.0
 20
0.0
 30
0.0
  9
$PUCSBASE
  2

  9
$PUCSNAME
  2

  9
$PUCSORG
 10
0.0
 20
0.0
 30
0.0
  9
$PUCSXDIR
 10
1.0
 20
0.0
 30
0.0
  9
$PUCSYDIR
 10
0.0
 20
1.0
 30
0.0
  9
$PUCSORTHOREF
  2

  9
$PUCSORTHOVIEW
 70
     0
  9
$PUCSORGTOP
 10
0.0
 20
0.0
 30
0.0
  9
$PUCSORGBOTTOM
 10
0.0
 20
0.0
 30
0.0
  9
$PUCSORGLEFT
 10
0.0
 20
0.0
 30
0.0
  9
$PUCSORGRIGHT
 10
0.0
 20
0.0
 30
0.0
  9
$PUCSORGFRONT
 10
0.0
 20
0.0
 30
0.0
  9
$PUCSORGBACK
 10
0.0
 20
0.0
 30
0.0
  9
$USERI1
 70
     0
  9
$USERI2
 70
     0
  9
$USERI3
 70
     0
  9
$USERI4
 70
     0
  9
$USERI5
 70
     0
  9
$USERR1
 40
0.0
  9
$USERR2
 40
0.0
  9
$USERR3
 40
0.0
  9
$USERR4
 40
0.0
  9
$USERR5
 40
0.0
  9
$WORLDVIEW
 70
     1
  9
$SHADEDGE
 70
     3
  9
$SHADEDIF
 70
    70
  9
$TILEMODE
 70
     1
  9
$MAXACTVP
 70
    64
  9
$PINSBASE
 10
0.0
 20
0.0
 30
0.0
  9
$PLIMCHECK
 70
     0
  9
$PEXTMIN
 10
0.0
 20
0.0
 30
0.0
  9
$PEXTMAX
 10
0.0
 20
0.0
 30
0.0
  9
$PLIMMIN
 10
0.0
 20
0.0
  9
$PLIMMAX
 10
12.0
 20
9.0
  9
$UNITMODE
 70
     0
  9
$VISRETAIN
 70
     1
  9
$PLINEGEN
 70
     0
  9
$PSLTSCALE
 70
     1
  9
$TREEDEPTH
 70
  3020
  9
$CMLSTYLE
  2
Standard
  9
$CMLJUST
 70
     0
  9
$CMLSCALE
 40
20.0
  9
$PROXYGRAPHICS
 70
     1
  9
$MEASUREMENT
 70
     1
  9
$CELWEIGHT
370
    -1
  9
$ENDCAPS
280
     0
  9
$JOINSTYLE
280
     0
  9
$LWDISPLAY
290
     0
  9
$INSUNITS
 70
     4
  9
$HYPERLINKBASE
  1

  9
$STYLESHEET
  1

  9
$XEDIT
290
     1
  9
$CEPSNTYPE
380
     0
  9
$PSTYLEMODE
290
     1
  9
$FINGERPRINTGUID
  2
{31C5140F-39D9-4142-97F1-3632DBF765E7}
  9
$VERSIONGUID
  2
{778C488B-E084-4D42-862D-1A2FA15C61F2}
  9
$EXTNAMES
290
     1
  9
$PSVPSCALE
 40
0.0
  9
$OLESTARTUP
290
     0
  9
$SORTENTS
280
   127
  9
$INDEXCTL
280
     0
  9
$HIDETEXT
280
     1
  9
$XCLIPFRAME
280
     2
  9
$HALOGAP
280
     0
  9
$OBSCOLOR
 70
   257
  9
$OBSLTYPE
280
     0
  9
$INTERSECTIONDISPLAY
280
     0
  9
$INTERSECTIONCOLOR
 70
   257
  9
$DIMASSOC
280
     2
  9
$PROJECTNAME
  1

  9
$CAMERADISPLAY
290
     0
  9
$LENSLENGTH
 40
50.0
  9
$CAMERAHEIGHT
 40
0.0
  9
$STEPSPERSEC
 40
2.0
  9
$STEPSIZE
 40
6.0
  9
$3DDWFPREC
 40
2.0
  9
$PSOLWIDTH
 40
5.0
  9
$PSOLHEIGHT
 40
80.0
  9
$LOFTANG1
 40
1.570796326794896
  9
$LOFTANG2
 40
1.570796326794896
  9
$LOFTMAG1
 40
0.0
  9
$LOFTMAG2
 40
0.0
  9
$LOFTPARAM
 70
     7
  9
$LOFTNORMALS
280
     1
  9
$LATITUDE
 40
37.795
  9
$LONGITUDE
 40
-122.394
  9
$NORTHDIRECTION
 40
0.0
  9
$TIMEZONE
 70
 -8000
  9
$LIGHTGLYPHDISPLAY
280
     1
  9
$TILEMODELIGHTSYNCH
280
     1
  9
$CMATERIAL
347
EC
  9
$SOLIDHIST
280
     0
  9
$SHOWHIST
280
     1
  9
$DWFFRAME
280
     2
  9
$DGNFRAME
280
     0
  9
$REALWORLDSCALE
290
     1
  9
$INTERFERECOLOR
 62
     1
  9
$INTERFEREOBJVS
345
F9
  9
$INTERFEREVPVS
346
F6
  9
$CSHADOW
280
     0
  9
$SHADOWPLANELOCATION
 40
0.0
  0
ENDSEC
  0
SECTION
  2
CLASSES
  0
CLASS
  1
ACDBDICTIONARYWDFLT
  2
AcDbDictionaryWithDefault
  3
ObjectDBX Classes
 90
        0
 91
        1
280
     0
281
     0
  0
CLASS
  1
DICTIONARYVAR
  2
AcDbDictionaryVar
  3
ObjectDBX Classes
 90
        0
 91
       11
280
     0
281
     0
  0
CLASS
  1
TABLESTYLE
  2
AcDbTableStyle
  3
ObjectDBX Classes
 90
     4095
 91
        1
280
     0
281
     0
  0
CLASS
  1
MATERIAL
  2
AcDbMaterial
  3
ObjectDBX Classes
 90
     1153
 91
        3
280
     0
281
     0
  0
CLASS
  1
VISUALSTYLE
  2
AcDbVisualStyle
  3
ObjectDBX Classes
 90
     4095
 91
       24
280
     0
281
     0
  0
CLASS
  1
SCALE
  2
AcDbScale
  3
ObjectDBX Classes
 90
     1153
 91
       17
280
     0
281
     0
  0
CLASS
  1
MLEADERSTYLE
  2
AcDbMLeaderStyle
  3
ACDB_MLEADERSTYLE_CLASS
 90
     4095
 91
        2
280
     0
281
     0
  0
CLASS
  1
CELLSTYLEMAP
  2
AcDbCellStyleMap
  3
ObjectDBX Classes
 90
     1152
 91
        2
280
     0
281
     0
  0
CLASS
  1
EXACXREFPANELOBJECT
  2
ExAcXREFPanelObject
  3
EXAC_ESW
 90
     1025
 91
        0
280
     0
281
     0
  0
CLASS
  1
NPOCOLLECTION
  2
AcDbImpNonPersistentObjectsCollection
  3
ObjectDBX Classes
 90
     1153
 91
        0
280
     0
281
     0
  0
CLASS
  1
LAYER_INDEX
  2
AcDbLayerIndex
  3
ObjectDBX Classes
 90
        0
 91
        0
280
     0
281
     0
  0
CLASS
  1
SPATIAL_INDEX
  2
AcDbSpatialIndex
  3
ObjectDBX Classes
 90
        0
 91
        0
280
     0
281
     0
  0
CLASS
  1
IDBUFFER
  2
AcDbIdBuffer
  3
ObjectDBX Classes
 90
        0
 91
        0
280
     0
281
     0
  0
CLASS
  1
ACDBSECTIONVIEWSTYLE
  2
AcDbSectionViewStyle
  3
ObjectDBX Classes
 90
     1025
 91
        1
280
     0
281
     0
  0
CLASS
  1
ACDBDETAILVIEWSTYLE
  2
AcDbDetailViewStyle
  3
ObjectDBX Classes
 90
     1025
 91
        1
280
     0
281
     0
  0
CLASS
  1
DIMASSOC
  2
AcDbDimAssoc
  3
"AcDbDimAssoc|Product Desc:     AcDim ARX App For Dimension|Company:          Autodesk, Inc.|WEB Address:      www.autodesk.com"
 90
        0
 91
       16
280
     0
281
     0
  0
ENDSEC
  0
SECTION
  2
TABLES
  0
TABLE
  2
VPORT
  5
8
330
0
100
AcDbSymbolTable
 70
     1
1001
ACAD
1000
DbSaveVer
1071
      249
  0
VPORT
  5
EA
330
8
100
AcDbSymbolTableRecord
100
AcDbViewportTableRecord
  2
*Active
 70
     0
 10
0.0
 20
0.0
 11
1.0
 21
1.0
 12
6269.462872359397
 22
2763.87816340078
 13
0.0
 23
0.0
 14
10.0
 24
10.0
 15
10.0
 25
10.0
 16
0.0
 26
0.0
 36
1.0
 17
0.0
 27
0.0
 37
0.0
 40
6810.008538385325
 41
1.662952646239554
 42
50.0
 43
0.0
 44
0.0
 50
0.0
 51
0.0
 71
     0
 72
  1000
 73
     1
 74
     3
 75
     0
 76
     1
 77
     0
 78
     0
281
     0
 65
     1
110
0.0
120
0.0
130
0.0
111
1.0
121
0.0
131
0.0
112
0.0
122
1.0
132
0.0
 79
     0
146
0.0
348
F5
 60
     3
 61
     5
292
     1
282
     1
141
0.0
142
0.0
 63
   250
421
  3355443
1001
ACAD_NAV_VCDISPLAY
1070
     3
  0
ENDTAB
  0
TABLE
  2
LTYPE
  5
5
330
0
100
AcDbSymbolTable
 70
     1
  0
LTYPE
  5
14
330
5
100
AcDbSymbolTableRecord
100
AcDbLinetypeTableRecord
  2
ByBlock
 70
     0
  3

 72
    65
 73
     0
 40
0.0
  0
LTYPE
  5
15
330
5
100
AcDbSymbolTableRecord
100
AcDbLinetypeTableRecord
  2
ByLayer
 70
     0
  3

 72
    65
 73
     0
 40
0.0
  0
LTYPE
  5
16
330
5
100
AcDbSymbolTableRecord
100
AcDbLinetypeTableRecord
  2
Continuous
 70
     0
  3
Solid line
 72
    65
 73
     0
 40
0.0
  0
ENDTAB
  0
TABLE
  2
LAYER
  5
2
102
{ACAD_XDICTIONARY
360
1FF
102
}
330
0
100
AcDbSymbolTable
 70
     2
  0
LAYER
  5
10
102
{ACAD_XDICTIONARY
360
13C
102
}
330
2
100
AcDbSymbolTableRecord
100
AcDbLayerTableRecord
  2
0
 70
     0
 62
     7
  6
Continuous
370
    -3
390
F
347
EE
348
0
  0
LAYER
  5
2F8
330
2
100
AcDbSymbolTableRecord
100
AcDbLayerTableRecord
  2
Defpoints
 70
     0
 62
     7
  6
Continuous
290
     0
370
    -3
390
F
347
EE
348
0
  0
ENDTAB
  0
TABLE
  2
STYLE
  5
3
330
0
100
AcDbSymbolTable
 70
     3
  0
STYLE
  5
11
330
3
100
AcDbSymbolTableRecord
100
AcDbTextStyleTableRecord
  2
Standard
 70
     0
 40
0.0
 41
1.0
 50
0.0
 71
     0
 42
2.5
  3
arial.ttf
  4

1001
ACAD
1000
Arial
1071
       34
  0
STYLE
  5
132
330
3
100
AcDbSymbolTableRecord
100
AcDbTextStyleTableRecord
  2
Annotativa
 70
     0
 40
0.0
 41
1.0
 50
0.0
 71
     0
 42
2.5
  3
arial.ttf
  4

1001
AcadAnnotative
1000
AnnotativeData
1002
{
1070
     1
1070
     1
1002
}
1001
ACAD
1000
Arial
1071
       34
  0
STYLE
  5
2F9
330
3
100
AcDbSymbolTableRecord
100
AcDbTextStyleTableRecord
  2
times
 70
     0
 40
0.0
 41
1.0
 50
0.0
 71
     0
 42
4.0
  3
times.ttf
  4

1001
ACAD
1000
Times New Roman
1071
       18
  0
ENDTAB
  0
TABLE
  2
VIEW
  5
6
330
0
100
AcDbSymbolTable
 70
     0
  0
ENDTAB
  0
TABLE
  2
UCS
  5
7
330
0
100
AcDbSymbolTable
 70
     0
  0
ENDTAB
  0
TABLE
  2
APPID
  5
9
330
0
100
AcDbSymbolTable
 70
    12
  0
APPID
  5
12
330
9
100
AcDbSymbolTableRecord
100
AcDbRegAppTableRecord
  2
ACAD
 70
     0
  0
APPID
  5
9E
330
9
100
AcDbSymbolTableRecord
100
AcDbRegAppTableRecord
  2
ACAD_PSEXT
 70
     0
  0
APPID
  5
133
330
9
100
AcDbSymbolTableRecord
100
AcDbRegAppTableRecord
  2
AcadAnnoPO
 70
     0
  0
APPID
  5
134
330
9
100
AcDbSymbolTableRecord
100
AcDbRegAppTableRecord
  2
AcadAnnotative
 70
     0
  0
APPID
  5
135
330
9
100
AcDbSymbolTableRecord
100
AcDbRegAppTableRecord
  2
ACAD_DSTYLE_DIMJAG
 70
     0
  0
APPID
  5
136
330
9
100
AcDbSymbolTableRecord
100
AcDbRegAppTableRecord
  2
ACAD_DSTYLE_DIMTALN
 70
     0
  0
APPID
  5
165
330
9
100
AcDbSymbolTableRecord
100
AcDbRegAppTableRecord
  2
ACAD_MLEADERVER
 70
     0
  0
APPID
  5
217
330
9
100
AcDbSymbolTableRecord
100
AcDbRegAppTableRecord
  2
ACAD_NAV_VCDISPLAY
 70
     0
  0
APPID
  5
2FC
330
9
100
AcDbSymbolTableRecord
100
AcDbRegAppTableRecord
  2
ACAD_DSTYLE_DIMJOGGED_JOGANGLE_SYMBOL
 70
     0
  0
APPID
  5
2FD
330
9
100
AcDbSymbolTableRecord
100
AcDbRegAppTableRecord
  2
ACAD_DSTYLE_DIMBREAK
 70
     0
  0
APPID
  5
2FE
330
9
100
AcDbSymbolTableRecord
100
AcDbRegAppTableRecord
  2
ACAD_DSTYLE_DIMRADIAL_EXTENSION
 70
     0
  0
APPID
  5
2FF
330
9
100
AcDbSymbolTableRecord
100
AcDbRegAppTableRecord
  2
AcadStringInfo
 70
     0
  0
ENDTAB
  0
TABLE
  2
DIMSTYLE
  5
A
330
0
100
AcDbSymbolTable
 70
     5
100
AcDbDimStyleTable
 71
     2
340
27
340
137
  0
DIMSTYLE
105
1B0
330
A
100
AcDbSymbolTableRecord
100
AcDbDimStyleTableRecord
  2
Standard
 70
     0
340
11
  0
DIMSTYLE
105
137
330
A
100
AcDbSymbolTableRecord
100
AcDbDimStyleTableRecord
  2
Annotativa
 70
     0
 40
0.0
 41
2.5
 42
0.625
 43
3.75
 44
1.25
 73
     0
 74
     0
 77
     1
 78
     8
140
2.5
141
2.5
143
0.03937007874016
147
0.625
171
     3
172
     1
271
     2
272
     2
274
     3
278
    44
283
     0
284
     8
340
11
1001
AcadAnnotative
1000
AnnotativeData
1002
{
1070
     1
1070
     1
1002
}
1001
ACAD_DSTYLE_DIMJAG
1070
   388
1040
1.5
1001
ACAD_DSTYLE_DIMTALN
1070
   392
1070
     0
  0
DIMSTYLE
105
27
330
A
100
AcDbSymbolTableRecord
100
AcDbDimStyleTableRecord
  2
ISO-25
 70
     0
 41
2.5
 42
0.625
 43
3.75
 44
1.25
 73
     0
 74
     0
 77
     1
 78
     8
140
2.5
141
2.5
143
0.03937007874016
147
0.625
171
     3
172
     1
271
     2
272
     2
274
     3
278
    44
283
     0
284
     8
340
11
  0
DIMSTYLE
105
2FA
330
A
100
AcDbSymbolTableRecord
100
AcDbDimStyleTableRecord
  2
Annotative
 70
     0
 40
0.0
 41
2.5
 42
0.625
 43
3.75
 44
1.25
 73
     0
 74
     0
 77
     1
 78
     8
140
2.5
141
2.5
143
0.03937007874016
147
0.625
171
     3
172
     1
271
     2
272
     2
274
     3
278
    44
283
     0
284
     8
340
11
1001
AcadAnnotative
1000
AnnotativeData
1002
{
1070
     1
1070
     1
1002
}
1001
ACAD_DSTYLE_DIMJAG
1070
   388
1040
1.5
1001
ACAD_DSTYLE_DIMTALN
1070
   392
1070
     0
  0
DIMSTYLE
105
2FB
102
{ACAD_REACTORS
330
3F3
330
3F6
330
3F9
330
3FC
330
3FF
330
402
330
405
330
408
330
504
330
507
330
510
330
516
102
}
330
A
100
AcDbSymbolTableRecord
100
AcDbDimStyleTableRecord
  2
1
 70
     0
 41
3.0
 42
2.0
 43
4.0
 44
1.0
 49
1.25
 50
90.0
 75
     1
 76
     1
 78
     8
140
25.0
141
0.0
143
0.03937007874016
147
0.6
171
     3
176
   256
177
   256
178
   256
271
     2
272
     2
274
     3
283
     0
284
     8
340
2F9
345
15
346
15
347
15
371
     9
372
     9
1001
ACAD_DSTYLE_DIMBREAK
1070
   391
1040
3.75
1001
ACAD_DSTYLE_DIMJOGGED_JOGANGLE_SYMBOL
1070
   384
1040
1.570796326794896
1001
ACAD_DSTYLE_DIMJAG
1070
   388
1040
1.5
1001
ACAD_DSTYLE_DIMTALN
1070
   392
1070
     0
  0
ENDTAB
  0
TABLE
  2
BLOCK_RECORD
  5
1
330
0
100
AcDbSymbolTable
 70
    18
  0
BLOCK_RECORD
  5
1F
102
{ACAD_XDICTIONARY
360
1CE
102
}
330
1
100
AcDbSymbolTableRecord
100
AcDbBlockTableRecord
  2
*Model_Space
340
22
 70
     0
280
     1
281
     0
  0
BLOCK_RECORD
  5
D2
330
1
100
AcDbSymbolTableRecord
100
AcDbBlockTableRecord
  2
*Paper_Space
340
D3
 70
     0
280
     1
281
     0
  0
BLOCK_RECORD
  5
D6
330
1
100
AcDbSymbolTableRecord
100
AcDbBlockTableRecord
  2
*Paper_Space0
340
D7
 70
     0
280
     1
281
     0
  0
BLOCK_RECORD
  5
2A2
330
1
100
AcDbSymbolTableRecord
100
AcDbBlockTableRecord
  2
*D1
340
0
 70
     0
280
     1
281
     0
  0
BLOCK_RECORD
  5
2AD
330
1
100
AcDbSymbolTableRecord
100
AcDbBlockTableRecord
  2
*D2
340
0
 70
     0
280
     1
281
     0
  0
BLOCK_RECORD
  5
2B8
330
1
100
AcDbSymbolTableRecord
100
AcDbBlockTableRecord
  2
*D3
340
0
 70
     0
280
     1
281
     0
  0
BLOCK_RECORD
  5
2C3
330
1
100
AcDbSymbolTableRecord
100
AcDbBlockTableRecord
  2
*D4
340
0
 70
     0
280
     1
281
     0
  0
BLOCK_RECORD
  5
2CC
330
1
100
AcDbSymbolTableRecord
100
AcDbBlockTableRecord
  2
*D5
340
0
 70
     0
280
     1
281
     0
  0
BLOCK_RECORD
  5
2D7
330
1
100
AcDbSymbolTableRecord
100
AcDbBlockTableRecord
  2
*D6
340
0
 70
     0
280
     1
281
     0
  0
BLOCK_RECORD
  5
2E2
330
1
100
AcDbSymbolTableRecord
100
AcDbBlockTableRecord
  2
*D7
340
0
 70
     0
280
     1
281
     0
  0
BLOCK_RECORD
  5
2ED
330
1
100
AcDbSymbolTableRecord
100
AcDbBlockTableRecord
  2
*D8
340
0
 70
     0
280
     1
281
     0
  0
BLOCK_RECORD
  5
51C
330
1
100
AcDbSymbolTableRecord
100
AcDbBlockTableRecord
  2
*D10
340
0
 70
     0
280
     1
281
     0
  0
BLOCK_RECORD
  5
527
330
1
100
AcDbSymbolTableRecord
100
AcDbBlockTableRecord
  2
*D11
340
0
 70
     0
280
     1
281
     0
  0
BLOCK_RECORD
  5
532
330
1
100
AcDbSymbolTableRecord
100
AcDbBlockTableRecord
  2
*D12
340
0
 70
     0
280
     1
281
     0
  0
BLOCK_RECORD
  5
53D
330
1
100
AcDbSymbolTableRecord
100
AcDbBlockTableRecord
  2
*D13
340
0
 70
     0
280
     1
281
     0
  0
BLOCK_RECORD
  5
546
330
1
100
AcDbSymbolTableRecord
100
AcDbBlockTableRecord
  2
*D14
340
0
 70
     0
280
     1
281
     0
  0
BLOCK_RECORD
  5
551
330
1
100
AcDbSymbolTableRecord
100
AcDbBlockTableRecord
  2
*D15
340
0
 70
     0
280
     1
281
     0
  0
BLOCK_RECORD
  5
55C
330
1
100
AcDbSymbolTableRecord
100
AcDbBlockTableRecord
  2
*D16
340
0
 70
     0
280
     1
281
     0
  0
BLOCK_RECORD
  5
567
330
1
100
AcDbSymbolTableRecord
100
AcDbBlockTableRecord
  2
*D17
340
0
 70
     0
280
     1
281
     0
  0
ENDTAB
  0
ENDSEC
  0
SECTION
  2
BLOCKS
  0
BLOCK
  5
20
330
1F
100
AcDbEntity
  8
0
100
AcDbBlockBegin
  2
*Model_Space
 70
     0
 10
0.0
 20
0.0
 30
0.0
  3
*Model_Space
  1

  0
ENDBLK
  5
21
330
1F
100
AcDbEntity
  8
0
100
AcDbBlockEnd
  0
BLOCK
  5
D4
330
D2
100
AcDbEntity
 67
     1
  8
0
100
AcDbBlockBegin
  2
*Paper_Space
 70
     0
 10
0.0
 20
0.0
 30
0.0
  3
*Paper_Space
  1

  0
ENDBLK
  5
D5
330
D2
100
AcDbEntity
 67
     1
  8
0
100
AcDbBlockEnd
  0
BLOCK
  5
D8
330
D6
100
AcDbEntity
 67
     1
  8
0
100
AcDbBlockBegin
  2
*Paper_Space0
 70
     0
 10
0.0
 20
0.0
 30
0.0
  3
*Paper_Space0
  1

  0
ENDBLK
  5
D9
330
D6
100
AcDbEntity
 67
     1
  8
0
100
AcDbBlockEnd
  0
BLOCK
  5
2A3
330
2A2
100
AcDbEntity
  8
0
100
AcDbBlockBegin
  2
*D1
 70
     1
 10
0.0
 20
0.0
 30
0.0
  3
*D1
  1

  0
LINE
  5
2A4
330
2A2
100
AcDbEntity
  8
0
440
 16777216
370
     9
100
AcDbLine
 10
1575.664261308699
 20
3618.94140577023
 30
0.0
 11
1607.199445158735
 21
3618.94140577023
 31
0.0
  0
LINE
  5
2A5
330
2A2
100
AcDbEntity
  8
0
440
 16777216
370
     9
100
AcDbLine
 10
1689.664261308699
 20
3618.94140577023
 30
0.0
 11
1658.129077458663
 21
3618.94140577023
 31
0.0
  0
SOLID
  5
2A6
330
2A2
100
AcDbEntity
  8
0
440
 16777216
100
AcDbTrace
 10
1575.664261308699
 20
3619.44140577023
 30
0.0
 11
1575.664261308699
 21
3618.44140577023
 31
0.0
 12
1572.664261308698
 22
3618.94140577023
 32
0.0
 13
1572.664261308698
 23
3618.94140577023
 33
0.0
  0
SOLID
  5
2A7
330
2A2
100
AcDbEntity
  8
0
440
 16777216
100
AcDbTrace
 10
1689.664261308699
 20
3619.44140577023
 30
0.0
 11
1689.664261308699
 21
3618.44140577023
 31
0.0
 12
1692.664261308699
 22
3618.94140577023
 32
0.0
 13
1692.664261308699
 23
3618.94140577023
 33
0.0
  0
MTEXT
  5
2A8
330
2A2
100
AcDbEntity
  8
0
440
 16777216
100
AcDbMText
 10
1632.664261308699
 20
3618.94140577023
 30
0.0
 40
25.0
 41
0.0
 46
0.0
 71
     5
 72
     1
  1
120
  7
times
 73
     1
 44
1.0
  0
POINT
  5
2A9
330
2A2
100
AcDbEntity
  8
Defpoints
 62
     0
440
 16777216
100
AcDbPoint
 10
1572.664261308698
 20
3598.893904539127
 30
0.0
  0
POINT
  5
2AA
330
2A2
100
AcDbEntity
  8
Defpoints
 62
     0
440
 16777216
100
AcDbPoint
 10
1692.664261308699
 20
3598.893904539127
 30
0.0
  0
POINT
  5
2AB
330
2A2
100
AcDbEntity
  8
Defpoints
 62
     0
440
 16777216
100
AcDbPoint
 10
1692.664261308699
 20
3618.94140577023
 30
0.0
  0
ENDBLK
  5
2AC
330
2A2
100
AcDbEntity
  8
0
100
AcDbBlockEnd
  0
BLOCK
  5
2AE
330
2AD
100
AcDbEntity
  8
0
100
AcDbBlockBegin
  2
*D2
 70
     1
 10
0.0
 20
0.0
 30
0.0
  3
*D2
  1

  0
LINE
  5
2AF
330
2AD
100
AcDbEntity
  8
0
440
 16777216
370
     9
100
AcDbLine
 10
1552.433950143006
 20
3595.893904539127
 30
0.0
 11
1552.433950143006
 21
3591.493904539127
 31
0.0
  0
LINE
  5
2B0
330
2AD
100
AcDbEntity
  8
0
440
 16777216
370
     9
100
AcDbLine
 10
1552.433950143006
 20
3560.893904539128
 30
0.0
 11
1552.433950143006
 21
3565.293904539127
 31
0.0
  0
SOLID
  5
2B1
330
2AD
100
AcDbEntity
  8
0
440
 16777216
100
AcDbTrace
 10
1551.933950143006
 20
3595.893904539127
 30
0.0
 11
1552.933950143006
 21
3595.893904539127
 31
0.0
 12
1552.433950143006
 22
3598.893904539127
 32
0.0
 13
1552.433950143006
 23
3598.893904539127
 33
0.0
  0
SOLID
  5
2B2
330
2AD
100
AcDbEntity
  8
0
440
 16777216
100
AcDbTrace
 10
1551.933950143006
 20
3560.893904539128
 30
0.0
 11
1552.933950143006
 21
3560.893904539128
 31
0.0
 12
1552.433950143006
 22
3557.893904539128
 32
0.0
 13
1552.433950143006
 23
3557.893904539128
 33
0.0
  0
MTEXT
  5
2B3
330
2AD
100
AcDbEntity
  8
0
440
 16777216
100
AcDbMText
 10
1552.433950143005
 20
3578.393904539128
 30
0.0
 40
25.0
 41
0.0
 46
0.0
 71
     5
 72
     1
  1
41
  7
times
 73
     1
 44
1.0
  0
POINT
  5
2B4
330
2AD
100
AcDbEntity
  8
Defpoints
 62
     0
440
 16777216
100
AcDbPoint
 10
1578.114975576127
 20
3598.893904539127
 30
0.0
  0
POINT
  5
2B5
330
2AD
100
AcDbEntity
  8
Defpoints
 62
     0
440
 16777216
100
AcDbPoint
 10
1578.114975576127
 20
3557.893904539128
 30
0.0
  0
POINT
  5
2B6
330
2AD
100
AcDbEntity
  8
Defpoints
 62
     0
440
 16777216
100
AcDbPoint
 10
1552.433950143006
 20
3557.893904539128
 30
0.0
  0
ENDBLK
  5
2B7
330
2AD
100
AcDbEntity
  8
0
100
AcDbBlockEnd
  0
BLOCK
  5
2B9
330
2B8
100
AcDbEntity
  8
0
100
AcDbBlockBegin
  2
*D3
 70
     1
 10
0.0
 20
0.0
 30
0.0
  3
*D3
  1

  0
LINE
  5
2BA
330
2B8
100
AcDbEntity
  8
0
440
 16777216
370
     9
100
AcDbLine
 10
2102.872475189741
 20
1632.209213834669
 30
0.0
 11
2102.872475189741
 21
1555.145131364107
 31
0.0
  0
LINE
  5
2BB
330
2B8
100
AcDbEntity
  8
0
440
 16777216
370
     9
100
AcDbLine
 10
2102.872475189741
 20
1441.209213834669
 30
0.0
 11
2102.872475189741
 21
1528.440444990638
 31
0.0
  0
SOLID
  5
2BC
330
2B8
100
AcDbEntity
  8
0
440
 16777216
100
AcDbTrace
 10
2102.372475189741
 20
1632.209213834669
 30
0.0
 11
2103.372475189742
 21
1632.209213834669
 31
0.0
 12
2102.872475189741
 22
1635.209213834668
 32
0.0
 13
2102.872475189741
 23
1635.209213834668
 33
0.0
  0
SOLID
  5
2BD
330
2B8
100
AcDbEntity
  8
0
440
 16777216
100
AcDbTrace
 10
2102.372475189741
 20
1441.209213834669
 30
0.0
 11
2103.372475189742
 21
1441.209213834669
 31
0.0
 12
2102.872475189741
 22
1438.209213834668
 32
0.0
 13
2102.872475189741
 23
1438.209213834668
 33
0.0
  0
MTEXT
  5
2BE
330
2B8
100
AcDbEntity
  8
0
440
 16777216
100
AcDbMText
 10
2102.872475189741
 20
1541.792788177373
 30
0.0
 40
25.0
 41
0.0
 46
0.0
 71
     5
 72
     1
  1
197
  7
times
 73
     1
 44
1.0
  0
POINT
  5
2BF
330
2B8
100
AcDbEntity
  8
Defpoints
 62
     0
440
 16777216
100
AcDbPoint
 10
2064.283637624345
 20
1635.209213834668
 30
0.0
  0
POINT
  5
2C0
330
2B8
100
AcDbEntity
  8
Defpoints
 62
     0
440
 16777216
100
AcDbPoint
 10
2064.283637624384
 20
1438.209213834668
 30
0.0
  0
POINT
  5
2C1
330
2B8
100
AcDbEntity
  8
Defpoints
 62
     0
440
 16777216
100
AcDbPoint
 10
2102.872475189741
 20
1438.209213834668
 30
0.0
  0
ENDBLK
  5
2C2
330
2B8
100
AcDbEntity
  8
0
100
AcDbBlockEnd
  0
BLOCK
  5
2C4
330
2C3
100
AcDbEntity
  8
0
100
AcDbBlockBegin
  2
*D4
 70
     1
 10
0.0
 20
0.0
 30
0.0
  3
*D4
  1

  0
LINE
  5
2C5
330
2C3
100
AcDbEntity
  8
0
440
 16777216
370
     9
100
AcDbLine
 10
2038.659630642714
 20
1394.249559828707
 30
0.0
 11
2041.659630642716
 21
1394.249559828707
 31
0.0
  0
LINE
  5
2C6
330
2C3
100
AcDbEntity
  8
0
440
 16777216
370
     9
100
AcDbLine
 10
2041.659630642716
 20
1394.249559828707
 30
0.0
 11
2046.66697924687
 21
1397.13441334008
 31
0.0
  0
MTEXT
  5
2C7
330
2C3
100
AcDbEntity
  8
0
440
 16777216
100
AcDbMText
 10
2007.589190844588
 20
1394.249559828707
 30
0.0
 40
25.0
 41
0.0
 46
0.0
 71
     5
 72
     1
  1
∅40
  7
times
 73
     1
 44
1.0
  0
SOLID
  5
2C8
330
2C3
100
AcDbEntity
  8
0
440
 16777216
100
AcDbTrace
 10
2046.417377819444
 20
1397.567655913503
 30
0.0
 11
2046.916580674296
 21
1396.701170766656
 31
0.0
 12
2049.266434687412
 22
1398.632021904637
 32
0.0
 13
2049.266434687412
 23
1398.632021904637
 33
0.0
  0
POINT
  5
2C9
330
2C3
100
AcDbEntity
  8
Defpoints
 62
     0
440
 16777216
100
AcDbPoint
 10
2049.266434687412
 20
1398.632021904637
 30
0.0
  0
POINT
  5
2CA
330
2C3
100
AcDbEntity
  8
Defpoints
 62
     0
440
 16777216
100
AcDbPoint
 10
2083.925840561308
 20
1418.600136098737
 30
0.0
  0
ENDBLK
  5
2CB
330
2C3
100
AcDbEntity
  8
0
100
AcDbBlockEnd
  0
BLOCK
  5
2CD
330
2CC
100
AcDbEntity
  8
0
100
AcDbBlockBegin
  2
*D5
 70
     1
 10
0.0
 20
0.0
 30
0.0
  3
*D5
  1

  0
LINE
  5
2CE
330
2CC
100
AcDbEntity
  8
0
440
 16777216
370
     9
100
AcDbLine
 10
3063.218825428339
 20
3595.893904539127
 30
0.0
 11
3063.218825428339
 21
2473.974367009648
 31
0.0
  0
LINE
  5
2CF
330
2CC
100
AcDbEntity
  8
0
440
 16777216
370
     9
100
AcDbLine
 10
3063.218825428339
 20
1322.223544563966
 30
0.0
 11
3063.218825428339
 21
2444.143082093446
 31
0.0
  0
SOLID
  5
2D0
330
2CC
100
AcDbEntity
  8
0
440
 16777216
100
AcDbTrace
 10
3062.718825428339
 20
3595.893904539127
 30
0.0
 11
3063.718825428339
 21
3595.893904539127
 31
0.0
 12
3063.218825428339
 22
3598.893904539127
 32
0.0
 13
3063.218825428339
 23
3598.893904539127
 33
0.0
  0
SOLID
  5
2D1
330
2CC
100
AcDbEntity
  8
0
440
 16777216
100
AcDbTrace
 10
3062.718825428338
 20
1322.223544563966
 30
0.0
 11
3063.718825428339
 21
1322.223544563966
 31
0.0
 12
3063.218825428339
 22
1319.223544563966
 32
0.0
 13
3063.218825428339
 23
1319.223544563966
 33
0.0
  0
MTEXT
  5
2D2
330
2CC
100
AcDbEntity
  8
0
440
 16777216
100
AcDbMText
 10
3063.218825428338
 20
2459.058724551547
 30
0.0
 40
25.0
 41
0.0
 46
0.0
 71
     5
 72
     1
  1
6000{\fSimSun|b0|i0|c134|p2;（MAX）}
  7
times
 73
     1
 44
1.0
  0
POINT
  5
2D3
330
2CC
100
AcDbEntity
  8
Defpoints
 62
     0
440
 16777216
100
AcDbPoint
 10
1632.664261308699
 20
3598.893904539127
 30
0.0
  0
POINT
  5
2D4
330
2CC
100
AcDbEntity
  8
Defpoints
 62
     0
440
 16777216
100
AcDbPoint
 10
2466.596137624359
 20
1319.223544563967
 30
0.0
  0
POINT
  5
2D5
330
2CC
100
AcDbEntity
  8
Defpoints
 62
     0
440
 16777216
100
AcDbPoint
 10
3063.218825428339
 20
1319.223544563966
 30
0.0
  0
ENDBLK
  5
2D6
330
2CC
100
AcDbEntity
  8
0
100
AcDbBlockEnd
  0
BLOCK
  5
2D8
330
2D7
100
AcDbEntity
  8
0
100
AcDbBlockBegin
  2
*D6
 70
     1
 10
0.0
 20
0.0
 30
0.0
  3
*D6
  1

  0
LINE
  5
2D9
330
2D7
100
AcDbEntity
  8
0
440
 16777216
370
     9
100
AcDbLine
 10
1948.470001264445
 20
1632.209213834669
 30
0.0
 11
1948.470001264444
 21
1525.264989604912
 31
0.0
  0
LINE
  5
2DA
330
2D7
100
AcDbEntity
  8
0
440
 16777216
370
     9
100
AcDbLine
 10
1948.470001264444
 20
1391.616079001687
 30
0.0
 11
1948.470001264444
 21
1498.560303231444
 31
0.0
  0
SOLID
  5
2DB
330
2D7
100
AcDbEntity
  8
0
440
 16777216
100
AcDbTrace
 10
1947.970001264445
 20
1632.209213834669
 30
0.0
 11
1948.970001264445
 21
1632.209213834669
 31
0.0
 12
1948.470001264445
 22
1635.209213834668
 32
0.0
 13
1948.470001264445
 23
1635.209213834668
 33
0.0
  0
SOLID
  5
2DC
330
2D7
100
AcDbEntity
  8
0
440
 16777216
100
AcDbTrace
 10
1947.970001264445
 20
1391.616079001687
 30
0.0
 11
1948.970001264444
 21
1391.616079001687
 31
0.0
 12
1948.470001264444
 22
1388.616079001687
 32
0.0
 13
1948.470001264444
 23
1388.616079001687
 33
0.0
  0
MTEXT
  5
2DD
330
2D7
100
AcDbEntity
  8
0
440
 16777216
100
AcDbMText
 10
1948.470001264444
 20
1511.912646418178
 30
0.0
 40
25.0
 41
0.0
 46
0.0
 71
     5
 72
     1
  1
246.59
  7
times
 73
     1
 44
1.0
  0
POINT
  5
2DE
330
2D7
100
AcDbEntity
  8
Defpoints
 62
     0
440
 16777216
100
AcDbPoint
 10
2066.533637624345
 20
1635.209213834668
 30
0.0
  0
POINT
  5
2DF
330
2D7
100
AcDbEntity
  8
Defpoints
 62
     0
440
 16777216
100
AcDbPoint
 10
2066.59613762436
 20
1388.616079001687
 30
0.0
  0
POINT
  5
2E0
330
2D7
100
AcDbEntity
  8
Defpoints
 62
     0
440
 16777216
100
AcDbPoint
 10
1948.470001264444
 20
1388.616079001687
 30
0.0
  0
ENDBLK
  5
2E1
330
2D7
100
AcDbEntity
  8
0
100
AcDbBlockEnd
  0
BLOCK
  5
2E3
330
2E2
100
AcDbEntity
  8
0
100
AcDbBlockBegin
  2
*D7
 70
     1
 10
0.0
 20
0.0
 30
0.0
  3
*D7
  1

  0
LINE
  5
2E4
330
2E2
100
AcDbEntity
  8
0
440
 16777216
370
     9
100
AcDbLine
 10
1575.664261308698
 20
1213.240991642591
 30
0.0
 11
2144.918278900098
 21
1213.240991642591
 31
0.0
  0
LINE
  5
2E5
330
2E2
100
AcDbEntity
  8
0
440
 16777216
370
     9
100
AcDbLine
 10
2783.595079476358
 20
1213.240991642591
 30
0.0
 11
2214.341061884958
 21
1213.240991642591
 31
0.0
  0
SOLID
  5
2E6
330
2E2
100
AcDbEntity
  8
0
440
 16777216
100
AcDbTrace
 10
1575.664261308698
 20
1213.740991642591
 30
0.0
 11
1575.664261308698
 21
1212.740991642591
 31
0.0
 12
1572.664261308698
 22
1213.240991642591
 32
0.0
 13
1572.664261308698
 23
1213.240991642591
 33
0.0
  0
SOLID
  5
2E7
330
2E2
100
AcDbEntity
  8
0
440
 16777216
100
AcDbTrace
 10
2783.595079476358
 20
1213.740991642591
 30
0.0
 11
2783.595079476358
 21
1212.740991642591
 31
0.0
 12
2786.595079476358
 22
1213.240991642591
 32
0.0
 13
2786.595079476358
 23
1213.240991642591
 33
0.0
  0
MTEXT
  5
2E8
330
2E2
100
AcDbEntity
  8
0
440
 16777216
100
AcDbMText
 10
2179.629670392528
 20
1213.240991642591
 30
0.0
 40
25.0
 41
0.0
 46
0.0
 71
     5
 72
     1
  1
1214
  7
times
 73
     1
 44
1.0
  0
POINT
  5
2E9
330
2E2
100
AcDbEntity
  8
Defpoints
 62
     0
440
 16777216
100
AcDbPoint
 10
1572.664261308698
 20
3567.606443950625
 30
0.0
  0
POINT
  5
2EA
330
2E2
100
AcDbEntity
  8
Defpoints
 62
     0
440
 16777216
100
AcDbPoint
 10
2786.595079476358
 20
1537.587871420705
 30
0.0
  0
POINT
  5
2EB
330
2E2
100
AcDbEntity
  8
Defpoints
 62
     0
440
 16777216
100
AcDbPoint
 10
2786.595079476358
 20
1213.240991642591
 30
0.0
  0
ENDBLK
  5
2EC
330
2E2
100
AcDbEntity
  8
0
100
AcDbBlockEnd
  0
BLOCK
  5
2EE
330
2ED
100
AcDbEntity
  8
0
100
AcDbBlockBegin
  2
*D8
 70
     1
 10
0.0
 20
0.0
 30
0.0
  3
*D8
  1

  0
LINE
  5
2EF
330
2ED
100
AcDbEntity
  8
0
440
 16777216
370
     9
100
AcDbLine
 10
2065.437530953555
 20
3592.893904539128
 30
0.0
 11
2088.209917399121
 21
3592.893904539128
 31
0.0
  0
LINE
  5
2F0
330
2ED
100
AcDbEntity
  8
0
440
 16777216
370
     9
100
AcDbLine
 10
2145.437530953556
 20
3592.893904539128
 30
0.0
 11
2122.665144507989
 21
3592.893904539128
 31
0.0
  0
SOLID
  5
2F1
330
2ED
100
AcDbEntity
  8
0
440
 16777216
100
AcDbTrace
 10
2065.437530953555
 20
3593.393904539127
 30
0.0
 11
2065.437530953555
 21
3592.393904539127
 31
0.0
 12
2062.437530953555
 22
3592.893904539128
 32
0.0
 13
2062.437530953555
 23
3592.893904539128
 33
0.0
  0
SOLID
  5
2F2
330
2ED
100
AcDbEntity
  8
0
440
 16777216
100
AcDbTrace
 10
2145.437530953556
 20
3593.393904539127
 30
0.0
 11
2145.437530953556
 21
3592.393904539127
 31
0.0
 12
2148.437530953556
 22
3592.893904539128
 32
0.0
 13
2148.437530953556
 23
3592.893904539128
 33
0.0
  0
MTEXT
  5
2F3
330
2ED
100
AcDbEntity
  8
0
440
 16777216
100
AcDbMText
 10
2105.437530953556
 20
3592.893904539128
 30
0.0
 40
25.0
 41
0.0
 46
0.0
 71
     5
 72
     1
  1
86
  7
times
 73
     1
 44
1.0
  0
POINT
  5
2F4
330
2ED
100
AcDbEntity
  8
Defpoints
 62
     0
440
 16777216
100
AcDbPoint
 10
2062.437530953555
 20
3592.893904539128
 30
0.0
  0
POINT
  5
2F5
330
2ED
100
AcDbEntity
  8
Defpoints
 62
     0
440
 16777216
100
AcDbPoint
 10
2148.437530953556
 20
3592.893904539128
 30
0.0
  0
POINT
  5
2F6
330
2ED
100
AcDbEntity
  8
Defpoints
 62
     0
440
 16777216
100
AcDbPoint
 10
2148.437530953556
 20
3592.893904539128
 30
0.0
  0
ENDBLK
  5
2F7
330
2ED
100
AcDbEntity
  8
0
100
AcDbBlockEnd
  0
BLOCK
  5
51D
330
51C
100
AcDbEntity
  8
0
100
AcDbBlockBegin
  2
*D10
 70
     1
 10
0.0
 20
0.0
 30
0.0
  3
*D10
  1

  0
LINE
  5
51F
330
51C
100
AcDbEntity
  8
0
440
 16777216
370
     9
100
AcDbLine
 10
2440.783670572152
 20
4104.987284847961
 30
0.0
 11
2472.318854422188
 21
4104.987284847961
 31
0.0
  0
LINE
  5
520
330
51C
100
AcDbEntity
  8
0
440
 16777216
370
     9
100
AcDbLine
 10
2554.783670572152
 20
4104.987284847961
 30
0.0
 11
2523.248486722116
 21
4104.987284847961
 31
0.0
  0
SOLID
  5
521
330
51C
100
AcDbEntity
  8
0
440
 16777216
100
AcDbTrace
 10
2440.783670572152
 20
4105.487284847962
 30
0.0
 11
2440.783670572152
 21
4104.487284847961
 31
0.0
 12
2437.783670572152
 22
4104.987284847961
 32
0.0
 13
2437.783670572152
 23
4104.987284847961
 33
0.0
  0
SOLID
  5
522
330
51C
100
AcDbEntity
  8
0
440
 16777216
100
AcDbTrace
 10
2554.783670572152
 20
4105.487284847962
 30
0.0
 11
2554.783670572152
 21
4104.487284847961
 31
0.0
 12
2557.783670572152
 22
4104.987284847961
 32
0.0
 13
2557.783670572152
 23
4104.987284847961
 33
0.0
  0
MTEXT
  5
523
330
51C
100
AcDbEntity
  8
0
440
 16777216
100
AcDbMText
 10
2497.783670572153
 20
4104.987284847961
 30
0.0
 40
25.0
 41
0.0
 46
0.0
 71
     5
 72
     1
  1
120
  7
times
 73
     1
 44
1.0
  0
POINT
  5
524
330
51C
100
AcDbEntity
  8
Defpoints
 62
     0
440
 16777216
100
AcDbPoint
 10
2437.783670572152
 20
4084.939783616859
 30
0.0
  0
POINT
  5
525
330
51C
100
AcDbEntity
  8
Defpoints
 62
     0
440
 16777216
100
AcDbPoint
 10
2557.783670572152
 20
4084.939783616859
 30
0.0
  0
POINT
  5
526
330
51C
100
AcDbEntity
  8
Defpoints
 62
     0
440
 16777216
100
AcDbPoint
 10
2557.783670572152
 20
4104.987284847961
 30
0.0
  0
ENDBLK
  5
51E
330
51C
100
AcDbEntity
  8
0
100
AcDbBlockEnd
  0
BLOCK
  5
528
330
527
100
AcDbEntity
  8
0
100
AcDbBlockBegin
  2
*D11
 70
     1
 10
0.0
 20
0.0
 30
0.0
  3
*D11
  1

  0
LINE
  5
52A
330
527
100
AcDbEntity
  8
0
440
 16777216
370
     9
100
AcDbLine
 10
2417.55335940646
 20
4081.939783616861
 30
0.0
 11
2417.55335940646
 21
4077.53978361686
 31
0.0
  0
LINE
  5
52B
330
527
100
AcDbEntity
  8
0
440
 16777216
370
     9
100
AcDbLine
 10
2417.55335940646
 20
4046.939783616861
 30
0.0
 11
2417.55335940646
 21
4051.339783616861
 31
0.0
  0
SOLID
  5
52C
330
527
100
AcDbEntity
  8
0
440
 16777216
100
AcDbTrace
 10
2417.05335940646
 20
4081.939783616861
 30
0.0
 11
2418.05335940646
 21
4081.939783616861
 31
0.0
 12
2417.55335940646
 22
4084.939783616861
 32
0.0
 13
2417.55335940646
 23
4084.939783616861
 33
0.0
  0
SOLID
  5
52D
330
527
100
AcDbEntity
  8
0
440
 16777216
100
AcDbTrace
 10
2417.05335940646
 20
4046.939783616861
 30
0.0
 11
2418.05335940646
 21
4046.939783616861
 31
0.0
 12
2417.55335940646
 22
4043.939783616861
 32
0.0
 13
2417.55335940646
 23
4043.939783616861
 33
0.0
  0
MTEXT
  5
52E
330
527
100
AcDbEntity
  8
0
440
 16777216
100
AcDbMText
 10
2417.553359406461
 20
4064.439783616859
 30
0.0
 40
25.0
 41
0.0
 46
0.0
 71
     5
 72
     1
  1
41
  7
times
 73
     1
 44
1.0
  0
POINT
  5
52F
330
527
100
AcDbEntity
  8
Defpoints
 62
     0
440
 16777216
100
AcDbPoint
 10
2443.234384839581
 20
4084.939783616861
 30
0.0
  0
POINT
  5
530
330
527
100
AcDbEntity
  8
Defpoints
 62
     0
440
 16777216
100
AcDbPoint
 10
2443.234384839581
 20
4043.939783616861
 30
0.0
  0
POINT
  5
531
330
527
100
AcDbEntity
  8
Defpoints
 62
     0
440
 16777216
100
AcDbPoint
 10
2417.55335940646
 20
4043.939783616861
 30
0.0
  0
ENDBLK
  5
529
330
527
100
AcDbEntity
  8
0
100
AcDbBlockEnd
  0
BLOCK
  5
533
330
532
100
AcDbEntity
  8
0
100
AcDbBlockBegin
  2
*D12
 70
     1
 10
0.0
 20
0.0
 30
0.0
  3
*D12
  1

  0
LINE
  5
535
330
532
100
AcDbEntity
  8
0
440
 16777216
370
     9
100
AcDbLine
 10
2967.991884453194
 20
2118.255092912402
 30
0.0
 11
2967.991884453194
 21
2041.191010441841
 31
0.0
  0
LINE
  5
536
330
532
100
AcDbEntity
  8
0
440
 16777216
370
     9
100
AcDbLine
 10
2967.991884453194
 20
1927.255092912401
 30
0.0
 11
2967.991884453194
 21
2014.486324068372
 31
0.0
  0
SOLID
  5
537
330
532
100
AcDbEntity
  8
0
440
 16777216
100
AcDbTrace
 10
2967.491884453194
 20
2118.255092912402
 30
0.0
 11
2968.491884453194
 21
2118.255092912402
 31
0.0
 12
2967.991884453194
 22
2121.255092912402
 32
0.0
 13
2967.991884453194
 23
2121.255092912402
 33
0.0
  0
SOLID
  5
538
330
532
100
AcDbEntity
  8
0
440
 16777216
100
AcDbTrace
 10
2967.491884453194
 20
1927.255092912401
 30
0.0
 11
2968.491884453194
 21
1927.255092912401
 31
0.0
 12
2967.991884453194
 22
1924.255092912401
 32
0.0
 13
2967.991884453194
 23
1924.255092912401
 33
0.0
  0
MTEXT
  5
539
330
532
100
AcDbEntity
  8
0
440
 16777216
100
AcDbMText
 10
2967.991884453194
 20
2027.838667255105
 30
0.0
 40
25.0
 41
0.0
 46
0.0
 71
     5
 72
     1
  1
197
  7
times
 73
     1
 44
1.0
  0
POINT
  5
53A
330
532
100
AcDbEntity
  8
Defpoints
 62
     0
440
 16777216
100
AcDbPoint
 10
2929.403046887799
 20
2121.255092912402
 30
0.0
  0
POINT
  5
53B
330
532
100
AcDbEntity
  8
Defpoints
 62
     0
440
 16777216
100
AcDbPoint
 10
2929.403046887838
 20
1924.255092912401
 30
0.0
  0
POINT
  5
53C
330
532
100
AcDbEntity
  8
Defpoints
 62
     0
440
 16777216
100
AcDbPoint
 10
2967.991884453194
 20
1924.255092912401
 30
0.0
  0
ENDBLK
  5
534
330
532
100
AcDbEntity
  8
0
100
AcDbBlockEnd
  0
BLOCK
  5
53E
330
53D
100
AcDbEntity
  8
0
100
AcDbBlockBegin
  2
*D13
 70
     1
 10
0.0
 20
0.0
 30
0.0
  3
*D13
  1

  0
LINE
  5
572
330
53D
100
AcDbEntity
  8
0
440
 16777216
370
     9
100
AcDbLine
 10
2903.779039906167
 20
1880.295438906439
 30
0.0
 11
2906.779039906169
 21
1880.295438906438
 31
0.0
  0
LINE
  5
573
330
53D
100
AcDbEntity
  8
0
440
 16777216
370
     9
100
AcDbLine
 10
2906.779039906169
 20
1880.295438906438
 30
0.0
 11
2911.786388510323
 21
1883.180292417812
 31
0.0
  0
MTEXT
  5
574
330
53D
100
AcDbEntity
  8
0
440
 16777216
100
AcDbMText
 10
2872.708600108042
 20
1880.295438906438
 30
0.0
 40
25.0
 41
0.0
 46
0.0
 71
     5
 72
     1
  1
∅40
  7
times
 73
     1
 44
1.0
  0
SOLID
  5
575
330
53D
100
AcDbEntity
  8
0
440
 16777216
100
AcDbTrace
 10
2911.536787082897
 20
1883.613534991235
 30
0.0
 11
2912.035989937749
 21
1882.747049844388
 31
0.0
 12
2914.385843950865
 22
1884.677900982369
 32
0.0
 13
2914.385843950865
 23
1884.677900982369
 33
0.0
  0
POINT
  5
576
330
53D
100
AcDbEntity
  8
Defpoints
 62
     0
440
 16777216
100
AcDbPoint
 10
2914.385843950865
 20
1884.677900982369
 30
0.0
  0
POINT
  5
577
330
53D
100
AcDbEntity
  8
Defpoints
 62
     0
440
 16777216
100
AcDbPoint
 10
2949.045249824762
 20
1904.64601517647
 30
0.0
  0
ENDBLK
  5
53F
330
53D
100
AcDbEntity
  8
0
100
AcDbBlockEnd
  0
BLOCK
  5
547
330
546
100
AcDbEntity
  8
0
100
AcDbBlockBegin
  2
*D14
 70
     1
 10
0.0
 20
0.0
 30
0.0
  3
*D14
  1

  0
LINE
  5
549
330
546
100
AcDbEntity
  8
0
440
 16777216
370
     9
100
AcDbLine
 10
3928.338234691793
 20
4081.939783616861
 30
0.0
 11
3928.338234691793
 21
2960.020246087382
 31
0.0
  0
LINE
  5
54A
330
546
100
AcDbEntity
  8
0
440
 16777216
370
     9
100
AcDbLine
 10
3928.338234691793
 20
1808.2694236417
 30
0.0
 11
3928.338234691793
 21
2930.18896117118
 31
0.0
  0
SOLID
  5
54B
330
546
100
AcDbEntity
  8
0
440
 16777216
100
AcDbTrace
 10
3927.838234691793
 20
4081.939783616861
 30
0.0
 11
3928.838234691793
 21
4081.939783616861
 31
0.0
 12
3928.338234691793
 22
4084.939783616861
 32
0.0
 13
3928.338234691793
 23
4084.939783616861
 33
0.0
  0
SOLID
  5
54C
330
546
100
AcDbEntity
  8
0
440
 16777216
100
AcDbTrace
 10
3927.838234691794
 20
1808.2694236417
 30
0.0
 11
3928.838234691794
 21
1808.2694236417
 31
0.0
 12
3928.338234691793
 22
1805.2694236417
 32
0.0
 13
3928.338234691793
 23
1805.2694236417
 33
0.0
  0
MTEXT
  5
54D
330
546
100
AcDbEntity
  8
0
440
 16777216
100
AcDbMText
 10
3928.338234691793
 20
2945.104603629279
 30
0.0
 40
25.0
 41
0.0
 46
0.0
 71
     5
 72
     1
  1
6000{\fSimSun|b0|i0|c134|p2;（MAX）}
  7
times
 73
     1
 44
1.0
  0
POINT
  5
54E
330
546
100
AcDbEntity
  8
Defpoints
 62
     0
440
 16777216
100
AcDbPoint
 10
2497.783670572153
 20
4084.939783616861
 30
0.0
  0
POINT
  5
54F
330
546
100
AcDbEntity
  8
Defpoints
 62
     0
440
 16777216
100
AcDbPoint
 10
3331.715546887815
 20
1805.2694236417
 30
0.0
  0
POINT
  5
550
330
546
100
AcDbEntity
  8
Defpoints
 62
     0
440
 16777216
100
AcDbPoint
 10
3928.338234691793
 20
1805.2694236417
 30
0.0
  0
ENDBLK
  5
548
330
546
100
AcDbEntity
  8
0
100
AcDbBlockEnd
  0
BLOCK
  5
552
330
551
100
AcDbEntity
  8
0
100
AcDbBlockBegin
  2
*D15
 70
     1
 10
0.0
 20
0.0
 30
0.0
  3
*D15
  1

  0
LINE
  5
554
330
551
100
AcDbEntity
  8
0
440
 16777216
370
     9
100
AcDbLine
 10
2813.589410527898
 20
2118.255092912402
 30
0.0
 11
2813.589410527898
 21
2011.310868682646
 31
0.0
  0
LINE
  5
555
330
551
100
AcDbEntity
  8
0
440
 16777216
370
     9
100
AcDbLine
 10
2813.589410527898
 20
1877.66195807942
 30
0.0
 11
2813.589410527898
 21
1984.606182309178
 31
0.0
  0
SOLID
  5
556
330
551
100
AcDbEntity
  8
0
440
 16777216
100
AcDbTrace
 10
2813.089410527897
 20
2118.255092912402
 30
0.0
 11
2814.089410527898
 21
2118.255092912402
 31
0.0
 12
2813.589410527898
 22
2121.255092912402
 32
0.0
 13
2813.589410527898
 23
2121.255092912402
 33
0.0
  0
SOLID
  5
557
330
551
100
AcDbEntity
  8
0
440
 16777216
100
AcDbTrace
 10
2813.089410527897
 20
1877.66195807942
 30
0.0
 11
2814.089410527898
 21
1877.66195807942
 31
0.0
 12
2813.589410527898
 22
1874.66195807942
 32
0.0
 13
2813.589410527898
 23
1874.66195807942
 33
0.0
  0
MTEXT
  5
558
330
551
100
AcDbEntity
  8
0
440
 16777216
100
AcDbMText
 10
2813.589410527898
 20
1997.958525495911
 30
0.0
 40
25.0
 41
0.0
 46
0.0
 71
     5
 72
     1
  1
246.59
  7
times
 73
     1
 44
1.0
  0
POINT
  5
559
330
551
100
AcDbEntity
  8
Defpoints
 62
     0
440
 16777216
100
AcDbPoint
 10
2931.653046887799
 20
2121.255092912402
 30
0.0
  0
POINT
  5
55A
330
551
100
AcDbEntity
  8
Defpoints
 62
     0
440
 16777216
100
AcDbPoint
 10
2931.715546887814
 20
1874.66195807942
 30
0.0
  0
POINT
  5
55B
330
551
100
AcDbEntity
  8
Defpoints
 62
     0
440
 16777216
100
AcDbPoint
 10
2813.589410527898
 20
1874.66195807942
 30
0.0
  0
ENDBLK
  5
553
330
551
100
AcDbEntity
  8
0
100
AcDbBlockEnd
  0
BLOCK
  5
55D
330
55C
100
AcDbEntity
  8
0
100
AcDbBlockBegin
  2
*D16
 70
     1
 10
0.0
 20
0.0
 30
0.0
  3
*D16
  1

  0
LINE
  5
55F
330
55C
100
AcDbEntity
  8
0
440
 16777216
370
     9
100
AcDbLine
 10
2440.783670572152
 20
1699.286870720323
 30
0.0
 11
3010.037688163551
 21
1699.286870720323
 31
0.0
  0
LINE
  5
560
330
55C
100
AcDbEntity
  8
0
440
 16777216
370
     9
100
AcDbLine
 10
3648.714488739811
 20
1699.286870720323
 30
0.0
 11
3079.460471148411
 21
1699.286870720323
 31
0.0
  0
SOLID
  5
561
330
55C
100
AcDbEntity
  8
0
440
 16777216
100
AcDbTrace
 10
2440.783670572152
 20
1699.786870720323
 30
0.0
 11
2440.783670572152
 21
1698.786870720323
 31
0.0
 12
2437.783670572152
 22
1699.286870720323
 32
0.0
 13
2437.783670572152
 23
1699.286870720323
 33
0.0
  0
SOLID
  5
562
330
55C
100
AcDbEntity
  8
0
440
 16777216
100
AcDbTrace
 10
3648.714488739811
 20
1699.786870720323
 30
0.0
 11
3648.714488739811
 21
1698.786870720323
 31
0.0
 12
3651.714488739811
 22
1699.286870720323
 32
0.0
 13
3651.714488739811
 23
1699.286870720323
 33
0.0
  0
MTEXT
  5
563
330
55C
100
AcDbEntity
  8
0
440
 16777216
100
AcDbMText
 10
3044.749079655982
 20
1699.286870720323
 30
0.0
 40
25.0
 41
0.0
 46
0.0
 71
     5
 72
     1
  1
1214
  7
times
 73
     1
 44
1.0
  0
POINT
  5
564
330
55C
100
AcDbEntity
  8
Defpoints
 62
     0
440
 16777216
100
AcDbPoint
 10
2437.783670572152
 20
4053.652323028356
 30
0.0
  0
POINT
  5
565
330
55C
100
AcDbEntity
  8
Defpoints
 62
     0
440
 16777216
100
AcDbPoint
 10
3651.714488739811
 20
2023.633750498437
 30
0.0
  0
POINT
  5
566
330
55C
100
AcDbEntity
  8
Defpoints
 62
     0
440
 16777216
100
AcDbPoint
 10
3651.714488739811
 20
1699.286870720323
 30
0.0
  0
ENDBLK
  5
55E
330
55C
100
AcDbEntity
  8
0
100
AcDbBlockEnd
  0
BLOCK
  5
568
330
567
100
AcDbEntity
  8
0
100
AcDbBlockBegin
  2
*D17
 70
     1
 10
0.0
 20
0.0
 30
0.0
  3
*D17
  1

  0
LINE
  5
56A
330
567
100
AcDbEntity
  8
0
440
 16777216
370
     9
100
AcDbLine
 10
2930.556940217009
 20
4078.939783616859
 30
0.0
 11
2953.329326662575
 21
4078.939783616859
 31
0.0
  0
LINE
  5
56B
330
567
100
AcDbEntity
  8
0
440
 16777216
370
     9
100
AcDbLine
 10
3010.556940217009
 20
4078.939783616859
 30
0.0
 11
2987.784553771442
 21
4078.939783616859
 31
0.0
  0
SOLID
  5
56C
330
567
100
AcDbEntity
  8
0
440
 16777216
100
AcDbTrace
 10
2930.556940217009
 20
4079.439783616859
 30
0.0
 11
2930.556940217009
 21
4078.439783616859
 31
0.0
 12
2927.556940217009
 22
4078.939783616859
 32
0.0
 13
2927.556940217009
 23
4078.939783616859
 33
0.0
  0
SOLID
  5
56D
330
567
100
AcDbEntity
  8
0
440
 16777216
100
AcDbTrace
 10
3010.556940217009
 20
4079.439783616859
 30
0.0
 11
3010.556940217009
 21
4078.439783616859
 31
0.0
 12
3013.556940217009
 22
4078.939783616859
 32
0.0
 13
3013.556940217009
 23
4078.939783616859
 33
0.0
  0
MTEXT
  5
56E
330
567
100
AcDbEntity
  8
0
440
 16777216
100
AcDbMText
 10
2970.556940217008
 20
4078.939783616859
 30
0.0
 40
25.0
 41
0.0
 46
0.0
 71
     5
 72
     1
  1
86
  7
times
 73
     1
 44
1.0
  0
POINT
  5
56F
330
567
100
AcDbEntity
  8
Defpoints
 62
     0
440
 16777216
100
AcDbPoint
 10
2927.556940217009
 20
4078.939783616859
 30
0.0
  0
POINT
  5
570
330
567
100
AcDbEntity
  8
Defpoints
 62
     0
440
 16777216
100
AcDbPoint
 10
3013.556940217009
 20
4078.939783616859
 30
0.0
  0
POINT
  5
571
330
567
100
AcDbEntity
  8
Defpoints
 62
     0
440
 16777216
100
AcDbPoint
 10
3013.556940217009
 20
4078.939783616859
 30
0.0
  0
ENDBLK
  5
569
330
567
100
AcDbEntity
  8
0
100
AcDbBlockEnd
  0
ENDSEC
  0
SECTION
  2
ENTITIES
  0
LINE
  5
412
330
1F
100
AcDbEntity
  8
0
100
AcDbLine
 10
2913.556940217009
 20
4078.939783616859
 30
0.0
 11
2927.556940217009
 21
4078.939783616859
 31
0.0
  0
LWPOLYLINE
  5
413
330
1F
100
AcDbEntity
  8
0
100
AcDbPolyline
 90
        8
 70
     1
 43
0.0
 10
2927.556940217009
 20
4062.939783616859
 10
2927.556940217009
 20
4078.939783616859
 10
2927.556940217009
 20
4093.93978361686
 10
2913.556940217009
 20
4093.93978361686
 10
2913.556940217009
 20
4078.939783616859
 10
2913.556940217009
 20
4062.939783616859
 42
0.1606182284942073
 10
2917.204826824594
 20
4059.606612972666
 10
2923.909053609428
 20
4059.606612972669
 42
0.1606182284942262
  0
SPLINE
  5
414
330
1F
100
AcDbEntity
  8
0
100
AcDbSpline
210
0.0
220
0.0
230
1.0
 70
    24
 71
     3
 72
    10
 73
     6
 74
     0
 42
0.000000001
 43
0.0000000001
 40
0.0080968257317088
 40
0.0080968257317088
 40
0.0080968257317088
 40
0.0080968257317088
 40
0.9859734889127656
 40
0.9859734889127656
 40
0.9879491323891748
 40
0.9879491323891748
 40
0.9879491323891748
 40
0.9879491323891748
 10
2930.403046887798
 20
2121.255092912399
 30
0.0
 10
2930.403046887798
 20
3998.059867738646
 30
0.0
 10
2930.403046887798
 20
4031.752814300756
 30
0.0
 10
2930.403046887798
 20
4065.513832075309
 30
0.0
 10
2930.403046887798
 20
4065.581903287742
 30
0.0
 10
2930.403046887798
 20
4065.64997450018
 30
0.0
  0
SPLINE
  5
415
330
1F
100
AcDbEntity
  8
0
100
AcDbSpline
210
0.0
220
0.0
230
1.0
 70
    24
 71
     3
 72
    50
 73
    46
 74
     0
 42
0.000000001
 43
0.0000000001
 40
0.0172174769111954
 40
0.0172174769111954
 40
0.0172174769111954
 40
0.0172174769111954
 40
0.0251969024985285
 40
0.0251969024985285
 40
0.0512066083034612
 40
0.0512066083034612
 40
0.1032260199133266
 40
0.1032260199133266
 40
0.2072648431330574
 40
0.2072648431330574
 40
0.4153424895725189
 40
0.4153424895725189
 40
0.8314977824514418
 40
0.8314977824514418
 40
0.8349689771911304
 40
0.8349689771911304
 40
0.8419113666705076
 40
0.8419113666705076
 40
0.855796145629262
 40
0.855796145629262
 40
0.8835657035467709
 40
0.8835657035467709
 40
0.9391048193817889
 40
0.9391048193817889
 40
0.9405686154896621
 40
0.9405686154896621
 40
0.9434962077054088
 40
0.9434962077054088
 40
0.9493513921369022
 40
0.9493513921369022
 40
0.9610617609998886
 40
0.9610617609998886
 40
0.9844824987258617
 40
0.9844824987258617
 40
0.9847652532679759
 40
0.9847652532679759
 40
0.9853307623522043
 40
0.9853307623522043
 40
0.985544328830006
 40
0.985544328830006
 40
0.9859714617856091
 40
0.9859714617856091
 40
0.9868257276968154
 40
0.9868257276968154
 40
0.9879491323891748
 40
0.9879491323891748
 40
0.9879491323891748
 40
0.9879491323891748
 10
2932.903046887798
 20
2121.255092912385
 30
0.0
 10
2932.903046887798
 20
2128.393098339549
 30
0.0
 10
2932.903046887798
 20
2135.474574179565
 30
0.0
 10
2932.903046887798
 20
2165.399992327728
 30
0.0
 10
2932.903046887798
 20
2187.704320772917
 30
0.0
 10
2932.903046887798
 20
2252.878650378653
 30
0.0
 10
2932.903046887798
 20
3304.841341411286
 30
0.0
 10
2932.903046887798
 20
3421.667776831839
 30
0.0
 10
2932.903046887798
 20
3490.795265950043
 30
0.0
 10
2932.903046887798
 20
3675.003506199538
 30
0.0
 10
2932.903046887798
 20
3766.910030225723
 30
0.0
 10
2932.903046887798
 20
3974.702104934886
 30
0.0
 10
2932.903046887798
 20
4022.660158248492
 30
0.0
 10
2932.903046887798
 20
4046.295491854785
 30
0.0
 10
2932.903046887798
 20
4046.489300004973
 30
0.0
 10
2932.903046887798
 20
4047.06572195342
 30
0.0
 10
2932.903046887798
 20
4047.44333324957
 30
0.0
 10
2932.903046887798
 20
4048.557077083997
 30
0.0
 10
2932.903046887798
 20
4049.274119568263
 30
0.0
 10
2932.903046887798
 20
4051.3562464406
 30
0.0
 10
2932.903046887798
 20
4052.652330248204
 30
0.0
 10
2932.903046887798
 20
4056.323456433807
 30
0.0
 10
2932.903046887798
 20
4058.481373574616
 30
0.0
 10
2932.903046887798
 20
4060.560178252128
 30
0.0
 10
2932.903046887798
 20
4060.613468509092
 30
0.0
 10
2932.903046887798
 20
4060.773071792757
 30
0.0
 10
2932.903046887798
 20
4060.879117332237
 30
0.0
 10
2932.903046887798
 20
4061.196252989388
 30
0.0
 10
2932.903046887798
 20
4061.406342145778
 30
0.0
 10
2932.903046887798
 20
4062.033157670771
 30
0.0
 10
2932.903046887798
 20
4062.446432095193
 30
0.0
 10
2932.903046887798
 20
4063.676862799303
 30
0.0
 10
2932.903046887798
 20
4064.484626509826
 30
0.0
 10
2932.903046887798
 20
4065.301383625059
 30
0.0
 10
2932.903046887798
 20
4065.311126459238
 30
0.0
 10
2932.903046887798
 20
4065.340354696179
 30
0.0
 10
2932.903046887798
 20
4065.359839833354
 30
0.0
 10
2932.903046887798
 20
4065.386683341023
 30
0.0
 10
2932.903046887798
 20
4065.394041873021
 30
0.0
 10
2932.903046887798
 20
4065.416117415201
 30
0.0
 10
2932.903046887798
 20
4065.430834371565
 30
0.0
 10
2932.903046887798
 20
4065.47498523964
 30
0.0
 10
2932.903046887798
 20
4065.504419151681
 30
0.0
 10
2932.903046887798
 20
4065.572560209211
 30
0.0
 10
2932.903046887798
 20
4065.611267354698
 30
0.0
 10
2932.903046887798
 20
4065.64997450018
 30
0.0
  0
LINE
  5
416
330
1F
100
AcDbEntity
  8
0
100
AcDbLine
 10
3013.556940217009
 20
4078.939783616859
 30
0.0
 11
3027.556940217009
 21
4078.939783616859
 31
0.0
  0
LWPOLYLINE
  5
417
330
1F
100
AcDbEntity
  8
0
100
AcDbPolyline
 90
        8
 70
     1
 43
0.0
 10
3027.556940217009
 20
4062.939783616859
 10
3027.556940217009
 20
4078.939783616859
 10
3027.556940217009
 20
4093.93978361686
 10
3013.556940217009
 20
4093.93978361686
 10
3013.556940217009
 20
4078.939783616859
 10
3013.556940217009
 20
4062.939783616859
 42
0.1606182284942073
 10
3017.204826824594
 20
4059.606612972666
 10
3023.909053609428
 20
4059.606612972669
 42
0.1606182284942262
  0
SPLINE
  5
418
330
1F
100
AcDbEntity
  8
0
100
AcDbSpline
210
0.0
220
0.0
230
1.0
 70
    24
 71
     3
 72
     8
 73
     4
 74
     0
 42
0.000000001
 43
0.0000000001
 40
0.0086213552564067
 40
0.0086213552564067
 40
0.0086213552564067
 40
0.0086213552564067
 40
0.9879491452665119
 40
0.9879491452665119
 40
0.9879491452665119
 40
0.9879491452665119
 10
3032.903046887798
 20
2233.508799436814
 30
0.0
 10
3032.903046887798
 20
3997.859292305426
 30
0.0
 10
3032.903046887798
 20
4031.906393442123
 30
0.0
 10
3032.903046887798
 20
4065.649974500184
 30
0.0
  0
SPLINE
  5
419
330
1F
100
AcDbEntity
  8
0
100
AcDbSpline
210
0.0
220
0.0
230
1.0
 70
    24
 71
     3
 72
    10
 73
     6
 74
     0
 42
0.000000001
 43
0.0000000001
 40
0.0086029705033039
 40
0.0086029705033039
 40
0.0086029705033039
 40
0.0086029705033039
 40
0.9859734889127656
 40
0.9859734889127656
 40
0.9879491323891748
 40
0.9879491323891748
 40
0.9879491323891748
 40
0.9879491323891748
 10
3030.403046887798
 20
2233.50879943681
 30
0.0
 10
3030.403046887798
 20
3998.094746388242
 30
0.0
 10
3030.403046887798
 20
4031.770253625555
 30
0.0
 10
3030.403046887798
 20
4065.513832075309
 30
0.0
 10
3030.403046887798
 20
4065.581903287742
 30
0.0
 10
3030.403046887798
 20
4065.64997450018
 30
0.0
  0
LINE
  5
41A
330
1F
100
AcDbEntity
  8
0
100
AcDbLine
 10
3113.556940217009
 20
4078.939783616859
 30
0.0
 11
3127.556940217008
 21
4078.939783616859
 31
0.0
  0
LWPOLYLINE
  5
41B
330
1F
100
AcDbEntity
  8
0
100
AcDbPolyline
 90
        8
 70
     1
 43
0.0
 10
3127.556940217008
 20
4062.939783616859
 10
3127.556940217008
 20
4078.939783616859
 10
3127.556940217008
 20
4093.93978361686
 10
3113.556940217009
 20
4093.93978361686
 10
3113.556940217009
 20
4078.939783616859
 10
3113.556940217009
 20
4062.939783616859
 42
0.1606182284942073
 10
3117.204826824594
 20
4059.606612972666
 10
3123.909053609427
 20
4059.606612972669
 42
0.1606182284942262
  0
SPLINE
  5
41C
330
1F
100
AcDbEntity
  8
0
100
AcDbSpline
210
0.0
220
0.0
230
1.0
 70
    24
 71
     3
 72
     8
 73
     4
 74
     0
 42
0.000000001
 43
0.0000000001
 40
0.009090346051812
 40
0.009090346051812
 40
0.009090346051812
 40
0.009090346051812
 40
0.9879491372831175
 40
0.9879491372831175
 40
0.9879491372831175
 40
0.9879491372831175
 10
3132.903046887795
 20
2326.333985660347
 30
0.0
 10
3132.903046887796
 20
3998.080679952759
 30
0.0
 10
3132.903046887798
 20
4031.922947063873
 30
0.0
 10
3132.903046887798
 20
4065.64997450018
 30
0.0
  0
SPLINE
  5
41D
330
1F
100
AcDbEntity
  8
0
100
AcDbSpline
210
0.0
220
0.0
230
1.0
 70
    24
 71
     3
 72
    10
 73
     6
 74
     0
 42
0.000000001
 43
0.0000000001
 40
0.0090719114631917
 40
0.0090719114631917
 40
0.0090719114631917
 40
0.0090719114631917
 40
0.9859734889127656
 40
0.9859734889127656
 40
0.9879491323891748
 40
0.9879491323891748
 40
0.9879491323891748
 40
0.9879491323891748
 10
3130.403046887798
 20
2326.333985660347
 30
0.0
 10
3130.403046887798
 20
3998.127061307491
 30
0.0
 10
3130.403046887798
 20
4031.786411085178
 30
0.0
 10
3130.403046887798
 20
4065.513832075309
 30
0.0
 10
3130.403046887798
 20
4065.581903287742
 30
0.0
 10
3130.403046887798
 20
4065.64997450018
 30
0.0
  0
LINE
  5
41E
330
1F
100
AcDbEntity
  8
0
100
AcDbLine
 10
3213.556940217009
 20
4078.939783616859
 30
0.0
 11
3227.556940217009
 21
4078.939783616859
 31
0.0
  0
LWPOLYLINE
  5
41F
330
1F
100
AcDbEntity
  8
0
100
AcDbPolyline
 90
        8
 70
     1
 43
0.0
 10
3227.556940217009
 20
4062.939783616859
 10
3227.556940217009
 20
4078.939783616859
 10
3227.556940217009
 20
4093.93978361686
 10
3213.556940217009
 20
4093.93978361686
 10
3213.556940217009
 20
4078.939783616859
 10
3213.556940217009
 20
4062.939783616859
 42
0.1606182284942073
 10
3217.204826824594
 20
4059.606612972666
 10
3223.909053609427
 20
4059.606612972669
 42
0.1606182284942262
  0
SPLINE
  5
420
330
1F
100
AcDbEntity
  8
0
100
AcDbSpline
210
0.0
220
0.0
230
1.0
 70
    24
 71
     3
 72
     8
 73
     4
 74
     0
 42
0.000000001
 43
0.0000000001
 40
0.0083597765719387
 40
0.0083597765719387
 40
0.0083597765719387
 40
0.0083597765719387
 40
0.9879491501081727
 40
0.9879491501081727
 40
0.9879491501081727
 40
0.9879491501081727
 10
3232.903046887798
 20
2177.211713302355
 30
0.0
 10
3232.903046887798
 20
3997.726443355152
 30
0.0
 10
3232.903046887798
 20
4031.897141307943
 30
0.0
 10
3232.903046887798
 20
4065.64997450018
 30
0.0
  0
SPLINE
  5
421
330
1F
100
AcDbEntity
  8
0
100
AcDbSpline
210
0.0
220
0.0
230
1.0
 70
    24
 71
     3
 72
    10
 73
     6
 74
     0
 42
0.000000001
 43
0.0000000001
 40
0.0083414619346782
 40
0.0083414619346782
 40
0.0083414619346782
 40
0.0083414619346782
 40
0.9859734889127656
 40
0.9859734889127656
 40
0.9879491323891748
 40
0.9879491323891748
 40
0.9879491323891748
 40
0.9879491323891748
 10
3230.403046887802
 20
2177.211713302355
 30
0.0
 10
3230.4030468878
 20
3998.076725722525
 30
0.0
 10
3230.403046887798
 20
4031.7612432927
 30
0.0
 10
3230.403046887798
 20
4065.513832075309
 30
0.0
 10
3230.403046887798
 20
4065.581903287742
 30
0.0
 10
3230.403046887798
 20
4065.64997450018
 30
0.0
  0
LINE
  5
422
330
1F
100
AcDbEntity
  8
0
100
AcDbLine
 10
3313.556940217008
 20
4078.939783616859
 30
0.0
 11
3327.556940217009
 21
4078.939783616859
 31
0.0
  0
LWPOLYLINE
  5
423
330
1F
100
AcDbEntity
  8
0
100
AcDbPolyline
 90
        8
 70
     1
 43
0.0
 10
3327.556940217009
 20
4062.939783616859
 10
3327.556940217009
 20
4078.939783616859
 10
3327.556940217009
 20
4093.93978361686
 10
3313.556940217008
 20
4093.93978361686
 10
3313.556940217008
 20
4078.939783616859
 10
3313.556940217008
 20
4062.939783616859
 42
0.1606182284942073
 10
3317.204826824594
 20
4059.606612972666
 10
3323.909053609428
 20
4059.606612972669
 42
0.1606182284942262
  0
SPLINE
  5
424
330
1F
100
AcDbEntity
  8
0
100
AcDbSpline
210
0.0
220
0.0
230
1.0
 70
    24
 71
     3
 72
     8
 73
     4
 74
     0
 42
0.000000001
 43
0.0000000001
 40
0.0078307590775963
 40
0.0078307590775963
 40
0.0078307590775963
 40
0.0078307590775963
 40
0.9879491608882839
 40
0.9879491608882839
 40
0.9879491608882839
 40
0.9879491608882839
 10
3332.903046887798
 20
2051.862558474664
 30
0.0
 10
3332.903046887798
 20
3997.433962717894
 30
0.0
 10
3332.903046887798
 20
4031.878380517455
 30
0.0
 10
3332.903046887798
 20
4065.64997450018
 30
0.0
  0
SPLINE
  5
425
330
1F
100
AcDbEntity
  8
0
100
AcDbSpline
210
0.0
220
0.0
230
1.0
 70
    24
 71
     3
 72
    10
 73
     6
 74
     0
 42
0.000000001
 43
0.0000000001
 40
0.0078126789565945
 40
0.0078126789565945
 40
0.0078126789565945
 40
0.0078126789565945
 40
0.9859734889127656
 40
0.9859734889127656
 40
0.9879491323891748
 40
0.9879491323891748
 40
0.9879491323891748
 40
0.9879491323891748
 10
3330.403046887798
 20
2051.862558474664
 30
0.0
 10
3330.403046887798
 20
3998.04028706458
 30
0.0
 10
3330.403046887798
 20
4031.743023963723
 30
0.0
 10
3330.403046887798
 20
4065.513832075309
 30
0.0
 10
3330.403046887798
 20
4065.581903287742
 30
0.0
 10
3330.403046887798
 20
4065.64997450018
 30
0.0
  0
LINE
  5
426
330
1F
100
AcDbEntity
  8
0
100
AcDbLine
 10
3413.556940217008
 20
4078.939783616859
 30
0.0
 11
3427.556940217009
 21
4078.939783616859
 31
0.0
  0
LWPOLYLINE
  5
427
330
1F
100
AcDbEntity
  8
0
100
AcDbPolyline
 90
        8
 70
     1
 43
0.0
 10
3427.556940217009
 20
4062.939783616859
 10
3427.556940217009
 20
4078.939783616859
 10
3427.556940217009
 20
4093.93978361686
 10
3413.556940217008
 20
4093.93978361686
 10
3413.556940217008
 20
4078.939783616859
 10
3413.556940217008
 20
4062.939783616859
 42
0.1606182284942073
 10
3417.204826824594
 20
4059.606612972666
 10
3423.909053609428
 20
4059.606612972669
 42
0.1606182284942262
  0
SPLINE
  5
428
330
1F
100
AcDbEntity
  8
0
100
AcDbSpline
210
0.0
220
0.0
230
1.0
 70
    24
 71
     3
 72
     8
 73
     4
 74
     0
 42
0.000000001
 43
0.0000000001
 40
0.0083989073205971
 40
0.0083989073205971
 40
0.0083989073205971
 40
0.0083989073205971
 40
0.9879491493647044
 40
0.9879491493647044
 40
0.9879491493647044
 40
0.9879491493647044
 10
3432.903046887798
 20
2185.856482165366
 30
0.0
 10
3432.903046887798
 20
3997.746778790517
 30
0.0
 10
3432.903046887798
 20
4031.898526332532
 30
0.0
 10
3432.903046887798
 20
4065.64997450018
 30
0.0
  0
SPLINE
  5
429
330
1F
100
AcDbEntity
  8
0
100
AcDbSpline
210
0.0
220
0.0
230
1.0
 70
    24
 71
     3
 72
    10
 73
     6
 74
     0
 42
0.000000001
 43
0.0000000001
 40
0.0083805802656648
 40
0.0083805802656648
 40
0.0083805802656648
 40
0.0083805802656648
 40
0.9859734889127656
 40
0.9859734889127656
 40
0.9879491323891748
 40
0.9879491323891748
 40
0.9879491323891748
 40
0.9879491323891748
 10
3430.403046887799
 20
2185.856482165369
 30
0.0
 10
3430.403046887799
 20
3998.079421383211
 30
0.0
 10
3430.403046887799
 20
4031.762591123037
 30
0.0
 10
3430.403046887799
 20
4065.513832075309
 30
0.0
 10
3430.403046887799
 20
4065.581903287742
 30
0.0
 10
3430.403046887799
 20
4065.64997450018
 30
0.0
  0
LINE
  5
42A
330
1F
100
AcDbEntity
  8
0
100
AcDbLine
 10
3513.556940217009
 20
4078.939783616859
 30
0.0
 11
3527.556940217009
 21
4078.939783616859
 31
0.0
  0
LWPOLYLINE
  5
42B
330
1F
100
AcDbEntity
  8
0
100
AcDbPolyline
 90
        8
 70
     1
 43
0.0
 10
3527.556940217009
 20
4062.939783616859
 10
3527.556940217009
 20
4078.939783616859
 10
3527.556940217009
 20
4093.93978361686
 10
3513.556940217009
 20
4093.93978361686
 10
3513.556940217009
 20
4078.939783616859
 10
3513.556940217009
 20
4062.939783616859
 42
0.1606182284942073
 10
3517.204826824594
 20
4059.606612972666
 10
3523.909053609428
 20
4059.606612972669
 42
0.1606182284942262
  0
SPLINE
  5
42C
330
1F
100
AcDbEntity
  8
0
100
AcDbSpline
210
0.0
220
0.0
230
1.0
 70
    24
 71
     3
 72
     8
 73
     4
 74
     0
 42
0.000000001
 43
0.0000000001
 40
0.0079980883636114
 40
0.0079980883636114
 40
0.0079980883636114
 40
0.0079980883636114
 40
0.9879491573243688
 40
0.9879491573243688
 40
0.9879491573243688
 40
0.9879491573243688
 10
3532.903046887798
 20
2093.30355109626
 30
0.0
 10
3532.903046887798
 20
3997.530188279767
 30
0.0
 10
3532.903046887798
 20
4031.884322274358
 30
0.0
 10
3532.903046887798
 20
4065.64997450018
 30
0.0
  0
SPLINE
  5
42D
330
1F
100
AcDbEntity
  8
0
100
AcDbSpline
210
0.0
220
0.0
230
1.0
 70
    24
 71
     3
 72
    10
 73
     6
 74
     0
 42
0.000000001
 43
0.0000000001
 40
0.0079799206419267
 40
0.0079799206419267
 40
0.0079799206419267
 40
0.0079799206419267
 40
0.9859734889127656
 40
0.9859734889127656
 40
0.9879491323891748
 40
0.9879491323891748
 40
0.9879491323891748
 40
0.9879491323891748
 10
3530.403046887798
 20
2093.303551096264
 30
0.0
 10
3530.403046887798
 20
3998.051811759624
 30
0.0
 10
3530.403046887798
 20
4031.748786311245
 30
0.0
 10
3530.403046887798
 20
4065.513832075309
 30
0.0
 10
3530.403046887798
 20
4065.581903287742
 30
0.0
 10
3530.403046887798
 20
4065.64997450018
 30
0.0
  0
LINE
  5
42E
330
1F
100
AcDbEntity
  8
0
100
AcDbLine
 10
3613.556940217009
 20
4078.939783616859
 30
0.0
 11
3627.556940217008
 21
4078.939783616859
 31
0.0
  0
LWPOLYLINE
  5
42F
330
1F
100
AcDbEntity
  8
0
100
AcDbPolyline
 90
        8
 70
     1
 43
0.0
 10
3627.556940217008
 20
4062.939783616859
 10
3627.556940217008
 20
4078.939783616859
 10
3627.556940217008
 20
4093.93978361686
 10
3613.556940217009
 20
4093.93978361686
 10
3613.556940217009
 20
4078.939783616859
 10
3613.556940217009
 20
4062.939783616859
 42
0.1606182284942073
 10
3617.204826824594
 20
4059.606612972666
 10
3623.909053609427
 20
4059.606612972669
 42
0.1606182284942262
  0
SPLINE
  5
430
330
1F
100
AcDbEntity
  8
0
100
AcDbSpline
210
0.0
220
0.0
230
1.0
 70
    24
 71
     3
 72
     8
 73
     4
 74
     0
 42
0.000000001
 43
0.0000000001
 40
0.008703220261793
 40
0.008703220261793
 40
0.008703220261793
 40
0.008703220261793
 40
0.9879491438109909
 40
0.9879491438109909
 40
0.9879491438109909
 40
0.9879491438109909
 10
3632.903046887798
 20
2250.432615252424
 30
0.0
 10
3632.903046887798
 20
3997.8994294356
 30
0.0
 10
3632.903046887798
 20
4031.909286058634
 30
0.0
 10
3632.903046887798
 20
4065.649974500184
 30
0.0
  0
SPLINE
  5
431
330
1F
100
AcDbEntity
  8
0
100
AcDbSpline
210
0.0
220
0.0
230
1.0
 70
    24
 71
     3
 72
    10
 73
     6
 74
     0
 42
0.000000001
 43
0.0000000001
 40
0.0086848197932106
 40
0.0086848197932106
 40
0.0086848197932106
 40
0.0086848197932106
 40
0.9859734889127656
 40
0.9859734889127656
 40
0.9879491323891748
 40
0.9879491323891748
 40
0.9879491323891748
 40
0.9879491323891748
 10
3630.403046887798
 20
2250.432615252424
 30
0.0
 10
3630.403046887798
 20
3998.100386657318
 30
0.0
 10
3630.403046887798
 20
4031.773073760092
 30
0.0
 10
3630.403046887798
 20
4065.513832075309
 30
0.0
 10
3630.403046887798
 20
4065.581903287742
 30
0.0
 10
3630.403046887798
 20
4065.64997450018
 30
0.0
  0
LINE
  5
432
330
1F
100
AcDbEntity
  8
0
100
AcDbLine
 10
2927.556940217009
 20
4067.941247010441
 30
0.0
 11
2927.556940217009
 21
4070.441932313818
 31
0.0
  0
ARC
  5
433
330
1F
100
AcDbEntity
  8
0
100
AcDbCircle
 10
2927.556940217009
 20
4065.64997450018
 30
0.0
 40
5.346106670789595
100
AcDbArc
 50
0.0
 51
90.0
  0
ARC
  5
434
330
1F
100
AcDbEntity
  8
0
100
AcDbCircle
 10
2927.556940217009
 20
4065.64997450018
 30
0.0
 40
2.846106670789595
100
AcDbArc
 50
0.0
 51
90.0
  0
ARC
  5
435
330
1F
100
AcDbEntity
  8
0
100
AcDbCircle
 10
3027.556940217009
 20
4065.64997450018
 30
0.0
 40
5.346106670789595
100
AcDbArc
 50
0.0
 51
90.0
  0
ARC
  5
436
330
1F
100
AcDbEntity
  8
0
100
AcDbCircle
 10
3027.556940217009
 20
4065.64997450018
 30
0.0
 40
2.846106670789595
100
AcDbArc
 50
0.0
 51
90.0
  0
ARC
  5
437
330
1F
100
AcDbEntity
  8
0
100
AcDbCircle
 10
3127.556940217008
 20
4065.64997450018
 30
0.0
 40
5.346106670789595
100
AcDbArc
 50
0.0
 51
90.0
  0
ARC
  5
438
330
1F
100
AcDbEntity
  8
0
100
AcDbCircle
 10
3127.556940217008
 20
4065.64997450018
 30
0.0
 40
2.846106670789595
100
AcDbArc
 50
0.0
 51
90.0
  0
ARC
  5
439
330
1F
100
AcDbEntity
  8
0
100
AcDbCircle
 10
3227.556940217009
 20
4065.64997450018
 30
0.0
 40
5.346106670789595
100
AcDbArc
 50
0.0
 51
90.0
  0
ARC
  5
43A
330
1F
100
AcDbEntity
  8
0
100
AcDbCircle
 10
3227.556940217009
 20
4065.64997450018
 30
0.0
 40
2.846106670789595
100
AcDbArc
 50
0.0
 51
90.0
  0
ARC
  5
43B
330
1F
100
AcDbEntity
  8
0
100
AcDbCircle
 10
3327.556940217009
 20
4065.64997450018
 30
0.0
 40
5.346106670789595
100
AcDbArc
 50
0.0
 51
90.0
  0
ARC
  5
43C
330
1F
100
AcDbEntity
  8
0
100
AcDbCircle
 10
3327.556940217009
 20
4065.64997450018
 30
0.0
 40
2.846106670789595
100
AcDbArc
 50
0.0
 51
90.0
  0
ARC
  5
43D
330
1F
100
AcDbEntity
  8
0
100
AcDbCircle
 10
3427.556940217009
 20
4065.64997450018
 30
0.0
 40
5.346106670789595
100
AcDbArc
 50
0.0
 51
90.0
  0
ARC
  5
43E
330
1F
100
AcDbEntity
  8
0
100
AcDbCircle
 10
3427.556940217009
 20
4065.64997450018
 30
0.0
 40
2.846106670789595
100
AcDbArc
 50
0.0
 51
90.0
  0
ARC
  5
43F
330
1F
100
AcDbEntity
  8
0
100
AcDbCircle
 10
3527.556940217009
 20
4065.64997450018
 30
0.0
 40
5.346106670789595
100
AcDbArc
 50
0.0
 51
90.0
  0
ARC
  5
440
330
1F
100
AcDbEntity
  8
0
100
AcDbCircle
 10
3527.556940217009
 20
4065.64997450018
 30
0.0
 40
2.846106670789595
100
AcDbArc
 50
0.0
 51
90.0
  0
ARC
  5
441
330
1F
100
AcDbEntity
  8
0
100
AcDbCircle
 10
3627.556940217008
 20
4065.64997450018
 30
0.0
 40
5.346106670789595
100
AcDbArc
 50
0.0
 51
90.0
  0
ARC
  5
442
330
1F
100
AcDbEntity
  8
0
100
AcDbCircle
 10
3627.556940217008
 20
4065.64997450018
 30
0.0
 40
2.846106670789595
100
AcDbArc
 50
0.0
 51
90.0
  0
SPLINE
  5
443
330
1F
100
AcDbEntity
  8
0
100
AcDbSpline
210
0.0
220
0.0
230
1.0
 70
     8
 71
     3
 72
    56
 73
    52
 74
     0
 42
0.000000001
 43
0.0000000001
 40
0.3978897776708451
 40
0.3978897776708451
 40
0.3978897776708451
 40
0.3978897776708451
 40
24.80347580523478
 40
24.80347580523478
 40
74.41042741570433
 40
74.41042741570433
 40
90.74874241849476
 40
90.74874241849476
 40
123.4253724240756
 40
123.4253724240756
 40
156.1020024296564
 40
156.1020024296564
 40
232.0283782259887
 40
232.0283782259887
 40
252.27086746062
 40
252.27086746062
 40
292.7558459298826
 40
292.7558459298826
 40
333.2408243991452
 40
333.2408243991452
 40
363.990334851863
 40
363.990334851863
 40
374.2740515186381
 40
374.2740515186381
 40
382.6015286288349
 40
382.6015286288349
 40
389.6188323739161
 40
389.6188323739161
 40
396.6361361189972
 40
396.6361361189972
 40
410.6707436091595
 40
410.6707436091595
 40
435.3526577407303
 40
435.3526577407303
 40
460.0345718723011
 40
460.0345718723011
 40
468.3140519813671
 40
468.3140519813671
 40
475.4665014531411
 40
475.4665014531411
 40
480.9823080775585
 40
480.9823080775585
 40
486.4981147019758
 40
486.4981147019758
 40
497.5297279508105
 40
497.5297279508105
 40
500.8550698514319
 40
500.8550698514319
 40
504.1804117520533
 40
504.1804117520533
 40
504.7109188097009
 40
504.7109188097009
 40
504.7109188097009
 40
504.7109188097009
 10
2534.092680934079
 20
4043.939783616859
 30
0.0
 10
2536.451804485913
 20
4036.369312165172
 30
0.0
 10
2539.15472153602
 20
4028.803962229352
 30
0.0
 10
2548.508771292728
 20
4006.317201235777
 30
0.0
 10
2556.35557950302
 20
3991.868047018901
 30
0.0
 10
2569.292897547518
 20
3975.097567049778
 30
0.0
 10
2572.70259102237
 20
3971.141305922758
 30
0.0
 10
2583.577822192937
 20
3959.996038669933
 30
0.0
 10
2591.713856500565
 20
3953.542448025632
 30
0.0
 10
2609.455235384522
 20
3942.461458797001
 30
0.0
 10
2619.058147635558
 20
3937.834381513405
 30
0.0
 10
2652.865741747356
 20
3925.292920638442
 30
0.0
 10
2679.575893872035
 20
3921.136716377473
 30
0.0
 10
2714.645398565816
 20
3920.747340109688
 30
0.0
 10
2722.096488312954
 20
3920.938749718838
 30
0.0
 10
2744.538068005278
 20
3922.288547575766
 30
0.0
 10
2759.642261301867
 20
3924.191960042312
 30
0.0
 10
2788.350526086278
 20
3930.72246711064
 30
0.0
 10
2801.952305535929
 20
3935.352840667905
 30
0.0
 10
2822.994169778928
 20
3946.517916213938
 30
0.0
 10
2831.128628252224
 20
3952.325144707082
 30
0.0
 10
2840.22140801191
 20
3961.596124186452
 30
0.0
 10
2842.352760834633
 20
3964.047273121471
 30
0.0
 10
2845.918917898661
 20
3968.725942485713
 30
0.0
 10
2847.409108631221
 20
3970.90731509288
 30
0.0
 10
2849.947580133129
 20
3975.095676155497
 30
0.0
 10
2851.025371518554
 20
3977.077324035067
 30
0.0
 10
2853.035408566096
 20
3981.173040892203
 30
0.0
 10
2853.969215612492
 20
3983.284251207313
 30
0.0
 10
2856.603809313355
 20
3989.768988582439
 30
0.0
 10
2858.137512620845
 20
3994.293628544788
 30
0.0
 10
2862.106405700736
 20
4007.039049877124
 30
0.0
 10
2864.341291655915
 20
4015.458710003508
 30
0.0
 10
2869.660063084072
 20
4031.74359072418
 30
0.0
 10
2872.743731507887
 20
4039.612368165721
 30
0.0
 10
2878.433208929447
 20
4048.982022903356
 30
0.0
 10
2879.995025667849
 20
4051.23920748511
 30
0.0
 10
2883.206086273455
 20
4055.222194567114
 30
0.0
 10
2884.814515221705
 20
4056.978457977669
 30
0.0
 10
2887.906750510324
 20
4059.901489300389
 30
0.0
 10
2889.337428351542
 20
4061.112564213761
 30
0.0
 10
2892.36251899809
 20
4063.385822003399
 30
0.0
 10
2893.953694406047
 20
4064.446485454186
 30
0.0
 10
2898.915644819748
 20
4067.342166666402
 30
0.0
 10
2902.474987312936
 20
4068.891653322758
 30
0.0
 10
2907.270314114253
 20
4070.199463288636
 30
0.0
 10
2908.39444019822
 20
4070.451587058093
 30
0.0
 10
2910.644990881897
 20
4070.852958231307
 30
0.0
 10
2911.771843097556
 20
4071.005238141182
 30
0.0
 10
2913.077560749084
 20
4071.143188324497
 30
0.0
 10
2913.257189067984
 20
4071.161319798703
 30
0.0
 10
2913.436789965352
 20
4071.17866337851
 30
0.0
  0
SPLINE
  5
444
330
1F
100
AcDbEntity
  8
0
100
AcDbSpline
210
0.0
220
0.0
230
1.0
 70
     8
 71
     3
 72
    66
 73
    62
 74
     0
 42
0.000000001
 43
0.0000000001
 40
-0.3944489820714634
 40
-0.3944489820714634
 40
-0.3944489820714634
 40
-0.3944489820714634
 40
-0.0035032775965506
 40
-0.0035032775965506
 40
-0.0035032775965506
 40
0.0
 40
0.0
 40
0.0
 40
24.87839968065121
 40
24.87839968065121
 40
74.63519904195364
 40
74.63519904195364
 40
90.67607982189526
 40
90.67607982189526
 40
116.0062960954371
 40
116.0062960954371
 40
141.3365123689789
 40
141.3365123689789
 40
213.8391953850007
 40
213.8391953850007
 40
231.9898379538107
 40
231.9898379538107
 40
248.0016398967634
 40
248.0016398967634
 40
260.5962895740443
 40
260.5962895740443
 40
273.1909392513253
 40
273.1909392513253
 40
298.3802386058871
 40
298.3802386058871
 40
334.2159756434033
 40
334.2159756434033
 40
370.0517126809196
 40
370.0517126809196
 40
379.4334485598816
 40
379.4334485598816
 40
386.5057109595266
 40
386.5057109595266
 40
393.5779733591715
 40
393.5779733591715
 40
407.7224981584613
 40
407.7224981584613
 40
432.4416247718338
 40
432.4416247718338
 40
457.1607513852062
 40
457.1607513852062
 40
468.9960969008484
 40
468.9960969008484
 40
476.0221937271983
 40
476.0221937271983
 40
481.2971041028849
 40
481.2971041028849
 40
486.5720144785715
 40
486.5720144785715
 40
497.1218352299447
 40
497.1218352299447
 40
500.4753912731551
 40
500.4753912731551
 40
503.8289473163654
 40
503.8289473163654
 40
504.7109188097009
 40
504.7109188097009
 40
504.7109188097009
 40
504.7109188097009
 10
2531.474937302211
 20
4043.939783616859
 30
0.0
 10
2531.512874974739
 20
4043.817455546503
 30
0.0
 10
2531.550812647271
 20
4043.695127476147
 30
0.0
 10
2531.5887503198
 20
4043.57279940579
 30
0.0
 10
2531.58909028056
 20
4043.571703219838
 30
0.0
 10
2531.589430241319
 20
4043.570607033891
 30
0.0
 10
2531.589770209242
 20
4043.569510847884
 30
0.0
 10
2534.004040177749
 20
4035.784985403219
 30
0.0
 10
2536.779682202351
 20
4027.997598363299
 30
0.0
 10
2546.319671465562
 20
4005.084109301026
 30
0.0
 10
2554.296297083577
 20
3990.40523271571
 30
0.0
 10
2567.449449848958
 20
3973.407272000028
 30
0.0
 10
2570.860902269037
 20
3969.453167978487
 30
0.0
 10
2580.218245336452
 20
3959.85287101631
 30
0.0
 10
2586.491317091486
 20
3954.572516910297
 30
0.0
 10
2599.960349784638
 20
3945.164045697037
 30
0.0
 10
2607.156608576782
 20
3941.033332588716
 30
0.0
 10
2636.425476672043
 20
3927.174629785934
 30
0.0
 10
2661.240887142934
 20
3921.346514868498
 30
0.0
 10
2693.898578719221
 20
3918.701691341083
 30
0.0
 10
2700.519201848603
 20
3918.404975878976
 30
0.0
 10
2713.081087760879
 20
3918.263724902392
 30
0.0
 10
2719.010473161755
 20
3918.370027602729
 30
0.0
 10
2729.6435529602
 20
3918.854557317884
 30
0.0
 10
2734.340118704976
 20
3919.16829706207
 30
0.0
 10
2743.735334581631
 20
3920.001407301943
 30
0.0
 10
2748.431364293455
 20
3920.522873934706
 30
0.0
 10
2762.435241507757
 20
3922.436475140627
 30
0.0
 10
2771.658878174353
 20
3924.177673738226
 30
0.0
 10
2793.219533106841
 20
3929.749403122058
 30
0.0
 10
2805.225699897307
 20
3934.151275952509
 30
0.0
 10
2826.69867325829
 20
3945.770970108964
 30
0.0
 10
2836.16772014584
 20
3952.991952810803
 30
0.0
 10
2845.699951235739
 20
3964.230057633193
 30
0.0
 10
2847.546235710598
 20
3966.677032262886
 30
0.0
 10
2850.532785036439
 20
3971.178204254726
 30
0.0
 10
2851.735146801443
 20
3973.181660104185
 30
0.0
 10
2853.965908403477
 20
3977.32394591933
 30
0.0
 10
2854.994768323536
 20
3979.458830819274
 30
0.0
 10
2857.875428987697
 20
3986.013283894723
 30
0.0
 10
2859.521595368872
 20
3990.582587506889
 30
0.0
 10
2863.676584707494
 20
4003.391306573683
 30
0.0
 10
2865.911763115398
 20
4011.821885699819
 30
0.0
 10
2871.012232901115
 20
4028.102403870982
 30
0.0
 10
2873.877957720753
 20
4035.949639038312
 30
0.0
 10
2879.602555620932
 20
4046.274472773194
 30
0.0
 10
2881.685697670383
 20
4049.41932423549
 30
0.0
 10
2885.491744832395
 20
4054.024792466401
 30
0.0
 10
2887.017099708076
 20
4055.650663661663
 30
0.0
 10
2889.905413840447
 20
4058.320741147445
 30
0.0
 10
2891.216677828773
 20
4059.410329619806
 30
0.0
 10
2893.980370281331
 20
4061.459098741057
 30
0.0
 10
2895.42964929246
 20
4062.416397378978
 30
0.0
 10
2899.933131586871
 20
4065.03489044601
 30
0.0
 10
2903.142870791454
 20
4066.442035697875
 30
0.0
 10
2907.481727839368
 20
4067.675749473258
 30
0.0
 10
2908.534473702949
 20
4067.924602324679
 30
0.0
 10
2910.659994009938
 20
4068.325082910606
 30
0.0
 10
2911.734507257993
 20
4068.479363185603
 30
0.0
 10
2913.104477430511
 20
4068.632859579853
 30
0.0
 10
2913.390450237928
 20
4068.662558961253
 30
0.0
 10
2913.677090468663
 20
4068.690239044093
 30
0.0
  0
SPLINE
  5
445
330
1F
100
AcDbEntity
  8
0
100
AcDbSpline
210
0.0
220
0.0
230
1.0
 70
     8
 71
     3
 72
    80
 73
    76
 74
     0
 42
0.000000001
 43
0.0000000001
 40
-0.3599286363773981
 40
-0.3599286363773981
 40
-0.3599286363773981
 40
-0.3599286363773981
 40
-0.0001384431885134
 40
-0.0001384431885134
 40
-0.0001384431885134
 40
0.0
 40
0.0
 40
0.0
 40
32.23474343200761
 40
32.23474343200761
 40
50.29593021811496
 40
50.29593021811496
 40
68.35711700422232
 40
68.35711700422232
 40
104.479490576437
 40
104.479490576437
 40
122.1198675522244
 40
122.1198675522244
 40
142.1397420300666
 40
142.1397420300666
 40
153.9817435040336
 40
153.9817435040336
 40
165.8237449780006
 40
165.8237449780006
 40
189.5077479259346
 40
189.5077479259346
 40
257.8454324048912
 40
257.8454324048912
 40
276.3764478215332
 40
276.3764478215332
 40
313.4384786548172
 40
313.4384786548172
 40
387.5625403213851
 40
387.5625403213851
 40
413.4169200092647
 40
413.4169200092647
 40
430.4951783517695
 40
430.4951783517695
 40
444.5618789191567
 40
444.5618789191567
 40
459.4911738342717
 40
459.4911738342717
 40
474.4204687493867
 40
474.4204687493867
 40
504.2790585796165
 40
504.2790585796165
 40
515.3912332240305
 40
515.3912332240305
 40
537.6155825128586
 40
537.6155825128586
 40
545.6674034829975
 40
545.6674034829975
 40
553.7192244531365
 40
553.7192244531365
 40
569.8228663934141
 40
569.8228663934141
 40
595.7454576709765
 40
595.7454576709765
 40
601.3683630762804
 40
601.3683630762804
 40
612.6141738868885
 40
612.6141738868885
 40
616.4262640815096
 40
616.4262640815096
 40
620.579719753467
 40
620.579719753467
 40
624.7331754254246
 40
624.7331754254246
 40
628.8866310973822
 40
628.8866310973822
 40
630.5484550020195
 40
630.5484550020195
 40
632.2102789066568
 40
632.2102789066568
 40
632.759474850182
 40
632.759474850182
 40
632.759474850182
 40
632.759474850182
 10
2521.483129370633
 20
4043.939783616859
 30
0.0
 10
2521.516156090861
 20
4043.824799856449
 30
0.0
 10
2521.549182811089
 20
4043.709816096032
 30
0.0
 10
2521.582209531317
 20
4043.594832335622
 30
0.0
 10
2521.582222239624
 20
4043.594788091172
 30
0.0
 10
2521.582234947932
 20
4043.594743846724
 30
0.0
 10
2521.58224765624
 20
4043.594699602278
 30
0.0
 10
2524.541216133494
 20
4033.292940071829
 30
0.0
 10
2527.506163885633
 20
4022.967962535474
 30
0.0
 10
2533.075542832304
 20
4007.053506556231
 30
0.0
 10
2535.267718089818
 20
4001.376438038239
 30
0.0
 10
2540.23376724075
 20
3990.162689840521
 30
0.0
 10
2542.994405513496
 20
3984.631614627537
 30
0.0
 10
2552.065182339392
 20
3968.414787897449
 30
0.0
 10
2559.164042087538
 20
3958.105228194038
 30
0.0
 10
2571.123186759776
 20
3944.102059892952
 30
0.0
 10
2575.270499549843
 20
3939.722338185433
 30
0.0
 10
2584.572988306577
 20
3930.931044521529
 30
0.0
 10
2589.788671720901
 20
3926.594844783047
 30
0.0
 10
2598.489101709086
 20
3920.340293540323
 30
0.0
 10
2601.811370871453
 20
3918.158263404688
 30
0.0
 10
2608.619787410081
 20
3914.105570860595
 30
0.0
 10
2612.104554725317
 20
3912.23225949576
 30
0.0
 10
2622.771346658262
 20
3907.043346830515
 30
0.0
 10
2630.165747382181
 20
3904.158785072139
 30
0.0
 10
2659.699293190362
 20
3894.890228135375
 30
0.0
 10
2683.350728746539
 20
3892.159125927804
 30
0.0
 10
2713.328290191622
 20
3891.671107938093
 30
0.0
 10
2719.718215886028
 20
3891.739798814013
 30
0.0
 10
2738.766851037655
 20
3892.357506178714
 30
0.0
 10
2751.314722616447
 20
3893.319508273317
 30
0.0
 10
2788.505213686907
 20
3897.916792328588
 30
0.0
 10
2812.694798389145
 20
3903.26357582911
 30
0.0
 10
2844.506452345407
 20
3913.768861843839
 30
0.0
 10
2852.659385802662
 20
3916.782569473393
 30
0.0
 10
2866.075614750457
 20
3922.291359205718
 30
0.0
 10
2871.380380732139
 20
3924.615237933036
 30
0.0
 10
2880.995929451771
 20
3929.098380746017
 30
0.0
 10
2885.317036473579
 20
3931.214410773739
 30
0.0
 10
2894.179336361415
 20
3935.766433559113
 30
0.0
 10
2898.724603198659
 20
3938.21254541254
 30
0.0
 10
2907.708486909847
 20
3943.335815322387
 30
0.0
 10
2912.144225312351
 20
3946.013183911835
 30
0.0
 10
2925.146461083599
 20
3954.434271211716
 30
0.0
 10
2933.408310389106
 20
3960.56678770542
 30
0.0
 10
2943.685422887694
 20
3969.849194853831
 30
0.0
 10
2946.36581255492
 20
3972.454394117546
 30
0.0
 10
2954.028668047461
 20
3980.550537938902
 30
0.0
 10
2958.63305867557
 20
3986.322280669921
 30
0.0
 10
2964.006808356965
 20
3994.75727135379
 30
0.0
 10
2965.344095945061
 20
3997.057265580685
 30
0.0
 10
2967.867673713164
 20
4001.737014518383
 30
0.0
 10
2969.056711403456
 20
4004.117459035756
 30
0.0
 10
2972.482865592631
 20
4011.339503287376
 30
0.0
 10
2974.579319890521
 20
4016.261743438938
 30
0.0
 10
2980.090959613509
 20
4029.108977350102
 30
0.0
 10
2983.531824000957
 20
4037.033819025781
 30
0.0
 10
2988.773528142793
 20
4046.146978784544
 30
0.0
 10
2989.748547201392
 20
4047.75094805017
 30
0.0
 10
2992.820800079296
 20
4052.488816555023
 30
0.0
 10
2995.065109334392
 20
4055.548578013492
 30
0.0
 10
2998.423610835501
 20
4059.469374377566
 30
0.0
 10
2999.304200923294
 20
4060.446867234181
 30
0.0
 10
3001.213281633642
 20
4062.455221665697
 30
0.0
 10
3002.243322570837
 20
4063.487491324702
 30
0.0
 10
3004.3559334232
 20
4065.342444578908
 30
0.0
 10
3005.441381624383
 20
4066.165308134002
 30
0.0
 10
3007.658720029633
 20
4067.445810196079
 30
0.0
 10
3008.786996002097
 20
4067.90303479567
 30
0.0
 10
3010.410160815486
 20
4068.211299852684
 30
0.0
 10
3010.874273056405
 20
4068.258727072842
 30
0.0
 10
3011.872197821846
 20
4068.289896324585
 30
0.0
 10
3012.399317395882
 20
4068.275303156317
 30
0.0
 10
3013.127783549132
 20
4068.24336469851
 30
0.0
 10
3013.310964866303
 20
4068.234450877421
 30
0.0
 10
3013.496152290795
 20
4068.225434482029
 30
0.0
  0
SPLINE
  5
446
330
1F
100
AcDbEntity
  8
0
100
AcDbSpline
210
0.0
220
0.0
230
1.0
 70
     8
 71
     3
 72
    70
 73
    66
 74
     0
 42
0.000000001
 43
0.0000000001
 40
0.359937897869945
 40
0.359937897869945
 40
0.359937897869945
 40
0.359937897869945
 40
31.88247444111033
 40
31.88247444111033
 40
49.33711778862793
 40
49.33711778862793
 40
66.79176113614554
 40
66.79176113614554
 40
101.7010478311807
 40
101.7010478311807
 40
119.6472376013273
 40
119.6472376013273
 40
141.838825112175
 40
141.838825112175
 40
153.9514860758649
 40
153.9514860758649
 40
166.0641470395549
 40
166.0641470395549
 40
190.2894689669347
 40
190.2894689669347
 40
258.7957158562772
 40
258.7957158562772
 40
281.0948602298339
 40
281.0948602298339
 40
303.3940046033907
 40
303.3940046033907
 40
347.9922933505043
 40
347.9922933505043
 40
437.1888708447313
 40
437.1888708447313
 40
451.6999947253325
 40
451.6999947253325
 40
466.2111186059337
 40
466.2111186059337
 40
495.233366367136
 40
495.233366367136
 40
507.2277630854258
 40
507.2277630854258
 40
531.2165565220054
 40
531.2165565220054
 40
539.0294743707136
 40
539.0294743707136
 40
554.65531006813
 40
554.65531006813
 40
570.2811457655466
 40
570.2811457655466
 40
596.1216502973424
 40
596.1216502973424
 40
602.0862283317348
 40
602.0862283317348
 40
614.0153844005194
 40
614.0153844005194
 40
617.4753212217081
 40
617.4753212217081
 40
620.9352580428967
 40
620.9352580428967
 40
625.1130213753051
 40
625.1130213753051
 40
629.2907847077136
 40
629.2907847077136
 40
630.4427556937217
 40
630.4427556937217
 40
631.59472667973
 40
631.59472667973
 40
632.759474850182
 40
632.759474850182
 40
632.759474850182
 40
632.759474850182
 10
2524.084212905157
 20
4043.939783616859
 30
0.0
 10
2526.977746041136
 20
4033.86615966334
 30
0.0
 10
2529.871863380461
 20
4023.816277543725
 30
0.0
 10
2535.228484218599
 20
4008.449055600641
 30
0.0
 10
2537.307306579792
 20
4003.02189964898
 30
0.0
 10
2541.989654867109
 20
3992.306470240701
 30
0.0
 10
2544.587892421152
 20
3987.015545467361
 30
0.0
 10
2553.112700746787
 20
3971.479761190442
 30
0.0
 10
2559.769492877139
 20
3961.572065300456
 30
0.0
 10
2571.154024772551
 20
3947.800555918913
 30
0.0
 10
2575.247305299922
 20
3943.339245520501
 30
0.0
 10
2584.877604342267
 20
3933.950529158816
 30
0.0
 10
2590.527064388459
 20
3929.162565942878
 30
0.0
 10
2599.717917933195
 20
3922.525782630966
 30
0.0
 10
2603.050958256826
 20
3920.330818277415
 30
0.0
 10
2609.886420850141
 20
3916.259963899347
 30
0.0
 10
2613.388944580436
 20
3914.380518669275
 30
0.0
 10
2624.122194376082
 20
3909.181073853512
 30
0.0
 10
2631.578722857828
 20
3906.299947497575
 30
0.0
 10
2660.974913809511
 20
3897.217802006477
 30
0.0
 10
2684.476955423708
 20
3894.577786374599
 30
0.0
 10
2715.591895270061
 20
3894.156992499119
 30
0.0
 10
2723.228349687284
 20
3894.297073025873
 30
0.0
 10
2738.375005258415
 20
3894.957733346748
 30
0.0
 10
2745.892632332068
 20
3895.48695315116
 30
0.0
 10
2768.279096249725
 20
3897.684073490871
 30
0.0
 10
2782.981496284302
 20
3899.961411917381
 30
0.0
 10
2826.429255926104
 20
3909.334160636948
 30
0.0
 10
2854.515288742788
 20
3918.969800177913
 30
0.0
 10
2886.169639341449
 20
3934.436553185393
 30
0.0
 10
2890.578421456384
 20
3936.697684908295
 30
0.0
 10
2899.339240416258
 20
3941.416813785379
 30
0.0
 10
2903.685037121917
 20
3943.876018129837
 30
0.0
 10
2916.493078434714
 20
3951.587902696667
 30
0.0
 10
2924.725786425334
 20
3957.175046739323
 30
0.0
 10
2935.456938944334
 20
3965.83156671277
 30
0.0
 10
2938.485801489525
 20
3968.454820611265
 30
0.0
 10
2947.174757460968
 20
3976.619282605728
 30
0.0
 10
2952.436889623376
 20
3982.454989346969
 30
0.0
 10
2958.46649694027
 20
3990.780830544596
 30
0.0
 10
2959.872145629009
 20
3992.873483447884
 30
0.0
 10
2963.8433736423
 20
3999.29875129535
 30
0.0
 10
2966.161909652227
 20
4003.798696410222
 30
0.0
 10
2970.501349748706
 20
4013.054733732666
 30
0.0
 10
2972.521629657907
 20
4017.808632406881
 30
0.0
 10
2977.968819577947
 20
4030.499367174781
 30
0.0
 10
2981.450906337178
 20
4038.486554814722
 30
0.0
 10
2986.882977961494
 20
4047.859677563117
 30
0.0
 10
2987.951379616937
 20
4049.597555890012
 30
0.0
 10
2991.336978564429
 20
4054.734071736771
 30
0.0
 10
2993.834735340818
 20
4058.055706688826
 30
0.0
 10
2997.473564745823
 20
4062.146440315236
 30
0.0
 10
2998.317313127813
 20
4063.05241772087
 30
0.0
 10
3000.069668597028
 20
4064.841322326329
 30
0.0
 10
3000.98367363359
 20
4065.725757051155
 30
0.0
 10
3003.105745573549
 20
4067.543804212882
 30
0.0
 10
3004.335642815027
 20
4068.450757162888
 30
0.0
 10
3006.980968726506
 20
4069.892665611908
 30
0.0
 10
3008.400471092221
 20
4070.427513327539
 30
0.0
 10
3010.335818289591
 20
4070.715756206997
 30
0.0
 10
3010.76280925073
 20
4070.752674339202
 30
0.0
 10
3011.597973044588
 20
4070.78543108071
 30
0.0
 10
3012.009690280223
 20
4070.783071243526
 30
0.0
 10
3012.82324732396
 20
4070.76126013458
 30
0.0
 10
3013.224978130385
 20
4070.741598786187
 30
0.0
 10
3013.617728143222
 20
4070.722476594632
 30
0.0
  0
SPLINE
  5
447
330
1F
100
AcDbEntity
  8
0
100
AcDbSpline
210
0.0
220
0.0
230
1.0
 70
     8
 71
     3
 72
   102
 73
    98
 74
     0
 42
0.000000001
 43
0.0000000001
 40
-0.2068352150738224
 40
-0.2068352150738224
 40
-0.2068352150738224
 40
-0.2068352150738224
 40
-0.0000866610841937
 40
-0.0000866610841937
 40
-0.0000866610841937
 40
0.0
 40
0.0
 40
0.0
 40
50.06394472610918
 40
50.06394472610918
 40
72.49121273843937
 40
72.49121273843937
 40
88.82718571763243
 40
88.82718571763243
 40
98.9858016310703
 40
98.9858016310703
 40
109.1444175445081
 40
109.1444175445081
 40
129.4616493713839
 40
129.4616493713839
 40
170.0961130251354
 40
170.0961130251354
 40
252.1889186179398
 40
252.1889186179398
 40
266.6918655223679
 40
266.6918655223679
 40
281.194812426796
 40
281.194812426796
 40
310.2007062356522
 40
310.2007062356522
 40
368.2124938533644
 40
368.2124938533644
 40
391.581962367853
 40
391.581962367853
 40
438.32089939683
 40
438.32089939683
 40
454.1520828384103
 40
454.1520828384103
 40
469.9832662799907
 40
469.9832662799907
 40
501.6456331631515
 40
501.6456331631515
 40
564.9703669294731
 40
564.9703669294731
 40
582.1003360258413
 40
582.1003360258413
 40
597.6525441598795
 40
597.6525441598795
 40
613.2047522939177
 40
613.2047522939177
 40
644.3091685619942
 40
644.3091685619942
 40
725.9915335072994
 40
725.9915335072994
 40
736.119916354043
 40
736.119916354043
 40
744.1804205821281
 40
744.1804205821281
 40
760.3014290382985
 40
760.3014290382985
 40
776.4224374944688
 40
776.4224374944688
 40
780.4225150463564
 40
780.4225150463564
 40
788.4226701501317
 40
788.4226701501317
 40
796.4228252539069
 40
796.4228252539069
 40
799.363172491026
 40
799.363172491026
 40
801.3224789425258
 40
801.3224789425258
 40
802.8978547468863
 40
802.8978547468863
 40
804.0524268492969
 40
804.0524268492969
 40
805.2069989517077
 40
805.2069989517077
 40
807.1353674127962
 40
807.1353674127962
 40
808.660342405116
 40
808.660342405116
 40
809.9191069329689
 40
809.9191069329689
 40
810.6583358895324
 40
810.6583358895324
 40
811.3975648460959
 40
811.3975648460959
 40
812.774709371239
 40
812.774709371239
 40
813.3805168705912
 40
813.3805168705912
 40
813.3805168705912
 40
813.6123843107725
 40
813.6123843107725
 40
813.6123843107725
 40
814.1624840597064
 40
814.1624840597064
 40
814.1624840597064
 40
814.1624840597064
 10
2511.515570025994
 20
4043.939783616859
 30
0.0
 10
2511.527545916282
 20
4043.869664659689
 30
0.0
 10
2511.539521806571
 20
4043.799545702518
 30
0.0
 10
2511.55149769686
 20
4043.729426745349
 30
0.0
 10
2511.551502716694
 20
4043.729397354165
 30
0.0
 10
2511.551507736528
 20
4043.729367962981
 30
0.0
 10
2511.551512756364
 20
4043.729338571798
 30
0.0
 10
2514.451462048838
 20
4026.750106843877
 30
0.0
 10
2517.355614140023
 20
4009.734918703919
 30
0.0
 10
2523.63080089081
 20
3986.18057172579
 30
0.0
 10
2525.859463225688
 20
3979.043357593781
 30
0.0
 10
2530.432416295139
 20
3967.089999154051
 30
0.0
 10
2532.580942485064
 20
3962.169952534734
 30
0.0
 10
2536.506115781261
 20
3954.426836895071
 30
0.0
 10
2538.118773005525
 20
3951.514663750359
 30
0.0
 10
2541.561950708331
 20
3945.817265873529
 30
0.0
 10
2543.390245414358
 20
3943.030573916471
 30
0.0
 10
2549.173898035185
 20
3934.85482476391
 30
0.0
 10
2553.427982008959
 20
3929.650128172479
 30
0.0
 10
2567.215685970755
 20
3914.758091156496
 30
0.0
 10
2577.774283920459
 20
3905.79270748692
 30
0.0
 10
2612.448269221902
 20
3881.489539397235
 30
0.0
 10
2639.404027349131
 20
3868.979510646679
 30
0.0
 10
2671.286588915079
 20
3858.271137595892
 30
0.0
 10
2676.074959356814
 20
3856.770321445774
 30
0.0
 10
2685.639076316523
 20
3853.975331635041
 30
0.0
 10
2690.417331731741
 20
3852.680798716459
 30
0.0
 10
2704.746293214878
 20
3849.091081358876
 30
0.0
 10
2714.291188282904
 20
3847.08978726973
 30
0.0
 10
2742.947610314718
 20
3842.1410674134
 30
0.0
 10
2762.080708049923
 20
3840.248850357692
 30
0.0
 10
2789.132253956331
 20
3839.116015219277
 30
0.0
 10
2796.924806653509
 20
3838.966722765146
 30
0.0
 10
2820.399887989382
 20
3838.983643917737
 30
0.0
 10
2836.179803043038
 20
3839.614629879687
 30
0.0
 10
2857.565472211904
 20
3841.063470453208
 30
0.0
 10
2863.001932235421
 20
3841.478151122718
 30
0.0
 10
2873.903847709212
 20
3842.429253321252
 30
0.0
 10
2879.367212084156
 20
3842.967303476564
 30
0.0
 10
2895.738887601499
 20
3844.824201729569
 30
0.0
 10
2906.628774004325
 20
3846.38573473913
 30
0.0
 10
2938.780382175222
 20
3852.485022677696
 30
0.0
 10
2959.526040379039
 20
3858.436292583023
 30
0.0
 10
2983.491607538924
 20
3869.913714764663
 30
0.0
 10
2988.456263062176
 20
3872.583075082041
 30
0.0
 10
2997.618824685188
 20
3878.151698211111
 30
0.0
 10
3001.845234737474
 20
3881.009354141637
 30
0.0
 10
3009.993394323853
 20
3887.160469787256
 30
0.0
 10
3013.917350739809
 20
3890.448019697282
 30
0.0
 10
3025.249199601037
 20
3900.880760375856
 30
0.0
 10
3032.217034099936
 20
3908.595879987532
 30
0.0
 10
3055.460613177646
 20
3938.697159673344
 30
0.0
 10
3068.450860272534
 20
3964.537422726915
 30
0.0
 10
3079.314421674216
 20
3994.643007325392
 30
0.0
 10
3080.461703738329
 20
3997.97874996879
 30
0.0
 10
3082.431863548579
 20
4003.984762844682
 30
0.0
 10
3083.273150374092
 20
4006.651853182864
 30
0.0
 10
3085.703047764634
 20
4014.66071405004
 30
0.0
 10
3087.176364795408
 20
4020.000790085762
 30
0.0
 10
3090.419470946298
 20
4030.314368405596
 30
0.0
 10
3092.191315054063
 20
4035.289173599363
 30
0.0
 10
3094.951270016281
 20
4041.053199696603
 30
0.0
 10
3095.526949348919
 20
4042.177192744634
 30
0.0
 10
3097.348024416068
 20
4045.476036090787
 30
0.0
 10
3098.705843760946
 20
4047.596456398695
 30
0.0
 10
3101.51912858438
 20
4051.92579094392
 30
0.0
 10
3102.973147586451
 20
4054.132841734505
 30
0.0
 10
3104.877605472656
 20
4057.369629995186
 30
0.0
 10
3105.381066517307
 20
4058.261127729931
 30
0.0
 10
3106.196647923161
 20
4059.792217506745
 30
0.0
 10
3106.516560484289
 20
4060.416613357391
 30
0.0
 10
3107.079420944644
 20
4061.567957666497
 30
0.0
 10
3107.325166076576
 20
4062.090025605956
 30
0.0
 10
3107.740626266358
 20
4063.01165828285
 30
0.0
 10
3107.913446293283
 20
4063.407531460563
 30
0.0
 10
3108.250589214739
 20
4064.206991357388
 30
0.0
 10
3108.411891623361
 20
4064.601879617266
 30
0.0
 10
3108.842482032184
 20
4065.616000815508
 30
0.0
 10
3109.113155469547
 20
4066.208072521518
 30
0.0
 10
3109.631086152937
 20
4067.099064078719
 30
0.0
 10
3109.870414204102
 20
4067.431667429953
 30
0.0
 10
3110.32286201265
 20
4067.903357178425
 30
0.0
 10
3110.531184114681
 20
4068.066767051825
 30
0.0
 10
3110.88795261012
 20
4068.262337043577
 30
0.0
 10
3111.02490785136
 20
4068.320646412112
 30
0.0
 10
3111.337811397455
 20
4068.416482887298
 30
0.0
 10
3111.510837472551
 20
4068.452494438274
 30
0.0
 10
3112.026314411235
 20
4068.511748305043
 30
0.0
 10
3112.385662594895
 20
4068.49553934474
 30
0.0
 10
3112.847235077536
 20
4068.396894943429
 30
0.0
 10
3112.980761115327
 20
4068.357021461607
 30
0.0
 10
3113.102301417664
 20
4068.309565757316
 30
0.0
 10
3113.14881988898
 20
4068.291402507953
 30
0.0
 10
3113.193582560752
 20
4068.272128533031
 30
0.0
 10
3113.238345232521
 20
4068.252854558106
 30
0.0
 10
3113.344543560684
 20
4068.207127530806
 30
0.0
 10
3113.450741888847
 20
4068.161400503506
 30
0.0
 10
3113.556940217009
 20
4068.115673476206
 30
0.0
  0
SPLINE
  5
448
330
1F
100
AcDbEntity
  8
0
100
AcDbSpline
210
0.0
220
0.0
230
1.0
 70
     8
 71
     3
 72
    86
 73
    82
 74
     0
 42
0.000000001
 43
0.0000000001
 40
0.2068370788455525
 40
0.2068370788455525
 40
0.2068370788455525
 40
0.2068370788455525
 40
50.07723702133388
 40
50.07723702133388
 40
72.94766342729172
 40
72.94766342729172
 40
89.50691838781958
 40
89.50691838781958
 40
100.1745388801177
 40
100.1745388801177
 40
110.8421593724159
 40
110.8421593724159
 40
132.1774003570122
 40
132.1774003570122
 40
174.8478823262048
 40
174.8478823262048
 40
258.473331490569
 40
258.473331490569
 40
342.0987806549332
 40
342.0987806549332
 40
366.6747597725025
 40
366.6747597725025
 40
415.826718007641
 40
415.826718007641
 40
439.9336009367125
 40
439.9336009367125
 40
479.0084681161297
 40
479.0084681161297
 40
518.0833352955469
 40
518.0833352955469
 40
540.8736673427923
 40
540.8736673427923
 40
586.4543314372833
 40
586.4543314372833
 40
600.3120315927349
 40
600.3120315927349
 40
614.1697317481864
 40
614.1697317481864
 40
641.8851320590894
 40
641.8851320590894
 40
723.2786312976332
 40
723.2786312976332
 40
732.2903812064396
 40
732.2903812064396
 40
741.1208579170015
 40
741.1208579170015
 40
747.6444319477614
 40
747.6444319477614
 40
754.1680059785212
 40
754.1680059785212
 40
767.2151540400411
 40
767.2151540400411
 40
773.0734935235521
 40
773.0734935235521
 40
778.0446776736013
 40
778.0446776736013
 40
781.810343664388
 40
781.810343664388
 40
785.5760096551748
 40
785.5760096551748
 40
793.1073416367482
 40
793.1073416367482
 40
795.8831750112834
 40
795.8831750112834
 40
801.4348417603539
 40
801.4348417603539
 40
803.3314527397713
 40
803.3314527397713
 40
804.4940842977799
 40
804.4940842977799
 40
805.6567158557886
 40
805.6567158557886
 40
807.4664827926966
 40
807.4664827926966
 40
808.9147075651711
 40
808.9147075651711
 40
810.3629323376454
 40
810.3629323376454
 40
811.8111571101199
 40
811.8111571101199
 40
813.0261384586038
 40
813.0261384586038
 40
813.0261384586038
 40
813.0261384586038
 10
2514.051771326712
 20
4043.939783616859
 30
0.0
 10
2516.940498811283
 20
4027.026502181151
 30
0.0
 10
2519.830804914703
 20
4010.152142378102
 30
0.0
 10
2526.070310679508
 20
3986.736406984196
 30
0.0
 10
2528.323499816435
 20
3979.547008920223
 30
0.0
 10
2532.937821738052
 20
3967.578354622603
 30
0.0
 10
2535.097538578784
 20
3962.68147535403
 30
0.0
 10
2539.095421327353
 20
3954.888135942247
 30
0.0
 10
2540.7773106586
 20
3951.901307056703
 30
0.0
 10
2544.377614055561
 20
3946.058667117557
 30
0.0
 10
2546.293374846494
 20
3943.202744190485
 30
0.0
 10
2552.364355774216
 20
3934.829165445708
 30
0.0
 10
2556.84332630412
 20
3929.505663251983
 30
0.0
 10
2571.388530655703
 20
3914.297848567289
 30
0.0
 10
2582.563581212203
 20
3905.176390966286
 30
0.0
 10
2618.517173428701
 20
3881.087406603127
 30
0.0
 10
2646.057575291497
 20
3868.914794162165
 30
0.0
 10
2700.898453775965
 20
3851.549388259946
 30
0.0
 10
2728.158683083076
 20
3846.360158219113
 30
0.0
 10
2763.720767232554
 20
3842.929923240727
 30
0.0
 10
2771.817422066847
 20
3842.370066852878
 30
0.0
 10
2796.194442224195
 20
3841.275808581244
 30
0.0
 10
2812.561925287882
 20
3841.32674062221
 30
0.0
 10
2837.24371106283
 20
3842.277752197011
 30
0.0
 10
2845.411876175139
 20
3842.731925962131
 30
0.0
 10
2866.96447532468
 20
3844.232553579614
 30
0.0
 10
2880.453264850051
 20
3845.444581469414
 30
0.0
 10
2907.190377418487
 20
3848.966954249258
 30
0.0
 10
2920.43829061449
 20
3851.279995318402
 30
0.0
 10
2940.776868358268
 20
3856.245293287799
 30
0.0
 10
2948.132638660355
 20
3858.354397595087
 30
0.0
 10
2969.62332296385
 20
3865.68168166117
 30
0.0
 10
2983.180472584002
 20
3871.899594584679
 30
0.0
 10
2999.287982527593
 20
3882.301382683387
 30
0.0
 10
3002.929839704635
 20
3884.891571418308
 30
0.0
 10
3009.981584482955
 20
3890.408769903845
 30
0.0
 10
3013.392993072242
 20
3893.331808435478
 30
0.0
 10
3023.290581558603
 20
3902.550044859049
 30
0.0
 10
3029.440151417676
 20
3909.294465824698
 30
0.0
 10
3051.950092977933
 20
3937.734582426301
 30
0.0
 10
3065.016368554277
 20
3963.091668153955
 30
0.0
 10
3075.88022910334
 20
3992.450439994506
 30
0.0
 10
3076.9229152623
 20
3995.390121055034
 30
0.0
 10
3078.908867349472
 20
4001.228110276259
 30
0.0
 10
3079.853711276673
 20
4004.126061185898
 30
0.0
 10
3081.43143688784
 20
4009.173030507785
 30
0.0
 10
3082.079232716217
 20
4011.319526421075
 30
0.0
 10
3083.345845695213
 20
4015.618248249293
 30
0.0
 10
3083.967430142014
 20
4017.768708604186
 30
0.0
 10
3085.857166402691
 20
4024.188732452132
 30
0.0
 10
3087.149968031033
 20
4028.426981994283
 30
0.0
 10
3089.308729810074
 20
4034.374125903456
 30
0.0
 10
3090.017468984648
 20
4036.189984673032
 30
0.0
 10
3091.429271653718
 20
4039.481016271655
 30
0.0
 10
3092.116948732555
 20
4040.966141160208
 30
0.0
 10
3093.411612311325
 20
4043.52177842604
 30
0.0
 10
3093.999775295474
 20
4044.606585618387
 30
0.0
 10
3095.22982111526
 20
4046.72907396329
 30
0.0
 10
3095.869011552182
 20
4047.768340397053
 30
0.0
 10
3097.82459744827
 20
4050.858035846353
 30
0.0
 10
3099.178540967912
 20
4052.880437879795
 30
0.0
 10
3100.982959898564
 20
4055.735531454121
 30
0.0
 10
3101.464165189563
 20
4056.513097917917
 30
0.0
 10
3102.881383567773
 20
4058.886987970253
 30
0.0
 10
3103.79094315782
 20
4060.52440781305
 30
0.0
 10
3104.921804636787
 20
4062.850177656755
 30
0.0
 10
3105.201992819291
 20
4063.453636640622
 30
0.0
 10
3105.639402838936
 20
4064.447860156366
 30
0.0
 10
3105.800188528329
 20
4064.828557678209
 30
0.0
 10
3106.128340792956
 20
4065.617727456966
 30
0.0
 10
3106.29588014572
 20
4066.022956524759
 30
0.0
 10
3106.754706084211
 20
4067.060688710628
 30
0.0
 10
3107.061723684497
 20
4067.694695401043
 30
0.0
 10
3107.748072895015
 20
4068.77443421932
 30
0.0
 10
3108.102049730157
 20
4069.233961236432
 30
0.0
 10
3108.968368294013
 20
4070.044336424683
 30
0.0
 10
3109.484523200589
 20
4070.393147345674
 30
0.0
 10
3110.674979042665
 20
4070.865772694125
 30
0.0
 10
3111.311501832764
 20
4070.981360409251
 30
0.0
 10
3112.489641815247
 20
4071.002926484552
 30
0.0
 10
3113.031762242682
 20
4070.939617421982
 30
0.0
 10
3113.556940217009
 20
4070.790788570632
 30
0.0
  0
SPLINE
  5
449
330
1F
100
AcDbEntity
  8
0
100
AcDbSpline
210
0.0
220
0.0
230
1.0
 70
     8
 71
     3
 72
    98
 73
    94
 74
     0
 42
0.000000001
 43
0.0000000001
 40
-0.2076061683859838
 40
-0.2076061683859838
 40
-0.2076061683859838
 40
-0.2076061683859838
 40
-0.0000527030809848
 40
-0.0000527030809848
 40
-0.0000527030809848
 40
0.0
 40
0.0
 40
0.0
 40
60.32469959823807
 40
60.32469959823807
 40
76.98951519404805
 40
76.98951519404805
 40
93.65433078985802
 40
93.65433078985802
 40
126.983961981478
 40
126.983961981478
 40
137.8037880556591
 40
137.8037880556591
 40
148.6236141298402
 40
148.6236141298402
 40
170.2632662782023
 40
170.2632662782023
 40
213.5425705749268
 40
213.5425705749268
 40
301.1226559397094
 40
301.1226559397094
 40
318.4163857746713
 40
318.4163857746713
 40
354.2295951950118
 40
354.2295951950118
 40
425.8560140356928
 40
425.8560140356928
 40
458.8350116304745
 40
458.8350116304745
 40
524.793006820038
 40
524.793006820038
 40
546.2677918123618
 40
546.2677918123618
 40
589.2173617970094
 40
589.2173617970094
 40
603.8142644303077
 40
603.8142644303077
 40
618.4111670636061
 40
618.4111670636061
 40
647.6049723302028
 40
647.6049723302028
 40
676.5373021324218
 40
676.5373021324218
 40
693.2090683323801
 40
693.2090683323801
 40
726.552600732297
 40
726.552600732297
 40
759.8961331322138
 40
759.8961331322138
 40
793.2396655321307
 40
793.2396655321307
 40
836.4679765332448
 40
836.4679765332448
 40
861.865884771211
 40
861.865884771211
 40
913.0275725252541
 40
913.0275725252541
 40
921.883214507098
 40
921.883214507098
 40
928.9203088474502
 40
928.9203088474502
 40
935.1879924885409
 40
935.1879924885409
 40
941.4556761296317
 40
941.4556761296317
 40
953.9910434118128
 40
953.9910434118128
 40
956.9299707511818
 40
956.9299707511818
 40
962.8078254299198
 40
962.8078254299198
 40
964.1843515218296
 40
964.1843515218296
 40
965.5608776137391
 40
965.5608776137391
 40
967.7260484541518
 40
967.7260484541518
 40
969.5052083951079
 40
969.5052083951079
 40
970.8556882861797
 40
970.8556882861797
 40
972.2061681772514
 40
972.2061681772514
 40
972.6750719808277
 40
972.6750719808277
 40
973.1439757844041
 40
973.1439757844041
 40
973.9005595446222
 40
973.9005595446222
 40
973.9005595446222
 40
973.9005595446222
 10
2501.516646713518
 20
4043.939783616859
 30
0.0
 10
2501.527916847289
 20
4043.871727617495
 30
0.0
 10
2501.53918698106
 20
4043.803671618128
 30
0.0
 10
2501.550457114833
 20
4043.735615618762
 30
0.0
 10
2501.550459976606
 20
4043.73559833762
 30
0.0
 10
2501.550462838378
 20
4043.735581056479
 30
0.0
 10
2501.55046570015
 20
4043.735563775337
 30
0.0
 10
2504.826091619155
 20
4023.955321992487
 30
0.0
 10
2508.10583017079
 20
4004.143380852051
 30
0.0
 10
2514.239332157647
 20
3978.979473287096
 30
0.0
 10
2515.683570080167
 20
3973.533963983815
 30
0.0
 10
2518.869405561557
 20
3962.710421550221
 30
0.0
 10
2520.610905489727
 20
3957.335379156217
 30
0.0
 10
2526.376928105333
 20
3941.449111502711
 30
0.0
 10
2530.942804063282
 20
3931.176317518172
 30
0.0
 10
2538.288761977122
 20
3918.448187228458
 30
0.0
 10
2540.194661556719
 20
3915.400363476487
 30
0.0
 10
2544.214301102638
 20
3909.462050576289
 30
0.0
 10
2546.326625205141
 20
3906.569412868115
 30
0.0
 10
2552.951181016574
 20
3898.115254597875
 30
0.0
 10
2557.750962477033
 20
3892.777527123167
 30
0.0
 10
2573.141998322907
 20
3877.611277908609
 30
0.0
 10
2584.7244595523
 20
3868.629695890496
 30
0.0
 10
2622.482111744555
 20
3844.486655465213
 30
0.0
 10
2651.458516207637
 20
3832.406682866769
 30
0.0
 10
2686.519202600147
 20
3821.530061993808
 30
0.0
 10
2692.312277852883
 20
3819.853468042411
 30
0.0
 10
2710.060118738685
 20
3815.038854721339
 30
0.0
 10
2721.980765742771
 20
3812.259178893773
 30
0.0
 10
2757.651662530732
 20
3805.212610193483
 30
0.0
 10
2781.310786784293
 20
3802.238253413945
 30
0.0
 10
2815.89040692144
 20
3799.985633504877
 30
0.0
 10
2826.796290671849
 20
3799.578992591169
 30
0.0
 10
2859.567098818722
 20
3799.184168391536
 30
0.0
 10
2881.485117846668
 20
3800.021069332603
 30
0.0
 10
2910.780217006252
 20
3802.286343756138
 30
0.0
 10
2917.994803173814
 20
3802.935164471006
 30
0.0
 10
2939.707938940666
 20
3805.13533290399
 30
0.0
 10
2954.275860527062
 20
3806.94038144082
 30
0.0
 10
2973.960162735742
 20
3809.727885696275
 30
0.0
 10
2978.967590132835
 20
3810.465811025339
 30
0.0
 10
2989.01285191242
 20
3812.004686219154
 30
0.0
 10
2994.048314364255
 20
3812.808887056855
 30
0.0
 10
3009.128676638285
 20
3815.390543871274
 30
0.0
 10
3019.147523061916
 20
3817.336954960627
 30
0.0
 10
3038.684892409349
 20
3822.006811940052
 30
0.0
 10
3048.207198899544
 20
3824.723103441708
 30
0.0
 10
3062.634074122133
 20
3829.891687372527
 30
0.0
 10
3067.785481349483
 20
3831.96810990928
 30
0.0
 10
3082.774597480134
 20
3838.857106117006
 30
0.0
 10
3092.148709008198
 20
3844.330681312635
 30
0.0
 10
3109.12335501388
 20
3857.560660386744
 30
0.0
 10
3116.710835213436
 20
3865.289315735211
 30
0.0
 10
3130.4619765453
 20
3882.373404842324
 30
0.0
 10
3136.626328222684
 20
3891.729123091025
 30
0.0
 10
3149.586986582725
 20
3914.411945220987
 30
0.0
 10
3156.029275374606
 20
3928.094652123704
 30
0.0
 10
3165.517436278167
 20
3950.209034717887
 30
0.0
 10
3168.868039396313
 20
3958.478441174952
 30
0.0
 10
3178.729933313054
 20
3983.279836688295
 30
0.0
 10
3184.992958820171
 20
3999.703532490139
 30
0.0
 10
3191.929702984243
 20
4017.930587752498
 30
0.0
 10
3192.942745545884
 20
4020.593462327024
 30
0.0
 10
3194.741764551972
 20
4025.317858528598
 30
0.0
 10
3195.531649501228
 20
4027.390575870364
 30
0.0
 10
3197.01227740153
 20
4031.269485824565
 30
0.0
 10
3197.703509664819
 20
4033.076121876265
 30
0.0
 10
3199.081096394787
 20
4036.678192463032
 30
0.0
 10
3199.768144945835
 20
4038.476887475098
 30
0.0
 10
3201.843120908022
 20
4043.948080925679
 30
0.0
 10
3203.244888824095
 20
4047.695725937219
 30
0.0
 10
3205.060301619394
 20
4052.714749796652
 30
0.0
 10
3205.408874717562
 20
4053.685464061842
 30
0.0
 10
3206.467895475141
 20
4056.658484612306
 30
0.0
 10
3207.191643260799
 20
4058.721666110121
 30
0.0
 10
3208.113202884032
 20
4061.395943471763
 30
0.0
 10
3208.289848464382
 20
4061.911561871422
 30
0.0
 10
3208.643224138517
 20
4062.942917755327
 30
0.0
 10
3208.819986568896
 20
4063.454453244552
 30
0.0
 10
3209.288972248702
 20
4064.722670887053
 30
0.0
 10
3209.59057623429
 20
4065.452079096654
 30
0.0
 10
3210.18394008727
 20
4066.583467327228
 30
0.0
 10
3210.467928378791
 20
4067.018943401804
 30
0.0
 10
3210.977345109318
 20
4067.604928017646
 30
0.0
 10
3211.19844476519
 20
4067.798419584296
 30
0.0
 10
3211.640884287831
 20
4068.07855526075
 30
0.0
 10
3211.860972300379
 20
4068.168453821405
 30
0.0
 10
3212.201106560634
 20
4068.233928565781
 30
0.0
 10
3212.29214139333
 20
4068.245387811346
 30
0.0
 10
3212.508996560128
 20
4068.259636464793
 30
0.0
 10
3212.631114096804
 20
4068.261883434234
 30
0.0
 10
3212.97824984871
 20
4068.256704736972
 30
0.0
 10
3213.220022781913
 20
4068.242324104377
 30
0.0
 10
3213.480163275553
 20
4068.22631564587
 30
0.0
  0
SPLINE
  5
44A
330
1F
100
AcDbEntity
  8
0
100
AcDbSpline
210
0.0
220
0.0
230
1.0
 70
     8
 71
     3
 72
    84
 73
    80
 74
     0
 42
0.000000001
 43
0.0000000001
 40
0.207607317745292
 40
0.207607317745292
 40
0.207607317745292
 40
0.207607317745292
 40
60.16048890375069
 40
60.16048890375069
 40
78.03396906619052
 40
78.03396906619052
 40
95.90744922863036
 40
95.90744922863036
 40
131.65440955351
 40
131.65440955351
 40
184.2283539227876
 40
184.2283539227876
 40
236.8022982920654
 40
236.8022982920654
 40
289.3762426613431
 40
289.3762426613431
 40
318.6494651416566
 40
318.6494651416566
 40
382.3843055953643
 40
382.3843055953643
 40
509.8539865027795
 40
509.8539865027795
 40
533.4202554495755
 40
533.4202554495755
 40
580.5527933431674
 40
580.5527933431674
 40
598.0835152011206
 40
598.0835152011206
 40
633.1449589170269
 40
633.1449589170269
 40
668.2064026329332
 40
668.2064026329332
 40
686.3727738282785
 40
686.3727738282785
 40
722.7055162189693
 40
722.7055162189693
 40
736.8567583186305
 40
736.8567583186305
 40
751.0080004182915
 40
751.0080004182915
 40
779.3104846176137
 40
779.3104846176137
 40
846.4558783535405
 40
846.4558783535405
 40
863.1192626872977
 40
863.1192626872977
 40
879.7826470210548
 40
879.7826470210548
 40
913.1094156885691
 40
913.1094156885691
 40
920.4400088231498
 40
920.4400088231498
 40
929.0512437063309
 40
929.0512437063309
 40
935.472374078358
 40
935.472374078358
 40
941.8935044503848
 40
941.8935044503848
 40
954.7357651944386
 40
954.7357651944386
 40
957.4803848697921
 40
957.4803848697921
 40
962.9696242204991
 40
962.9696242204991
 40
964.4992412344855
 40
964.4992412344855
 40
966.0288582484717
 40
966.0288582484717
 40
968.0749269693995
 40
968.0749269693995
 40
969.7642507912583
 40
969.7642507912583
 40
971.0790101602974
 40
971.0790101602974
 40
972.3937695293363
 40
972.3937695293363
 40
973.4055560827972
 40
973.4055560827972
 40
973.9005595446222
 40
973.9005595446222
 40
973.9005595446222
 40
973.9005595446222
 10
2504.050694537025
 20
4043.939783616859
 30
0.0
 10
2507.306120368615
 20
4024.281677782297
 30
0.0
 10
2510.562609303402
 20
4004.655285080416
 30
0.0
 10
2516.714436810886
 20
3979.371849844878
 30
0.0
 10
2518.259104829661
 20
3973.571148434474
 30
0.0
 10
2521.688065602358
 20
3962.067311012217
 30
0.0
 10
2523.572359170518
 20
3956.367196801
 30
0.0
 10
2529.847789446884
 20
3939.581732784716
 30
0.0
 10
2534.861652888615
 20
3928.811909369242
 30
0.0
 10
2550.038285735527
 20
3904.281625598369
 30
0.0
 10
2561.552389566995
 20
3891.458593393376
 30
0.0
 10
2588.108711095484
 20
3868.919208311496
 30
0.0
 10
2603.150213898855
 20
3859.205062512725
 30
0.0
 10
2635.29356419606
 20
3842.456926064171
 30
0.0
 10
2652.394771649314
 20
3835.423086877842
 30
0.0
 10
2679.469683679971
 20
3826.21713862521
 30
0.0
 10
2689.242924743304
 20
3823.271725623055
 30
0.0
 10
2720.176085926823
 20
3814.895489359098
 30
0.0
 10
2741.222041879149
 20
3810.627380156582
 30
0.0
 10
2804.215288637138
 20
3801.625023502401
 30
0.0
 10
2846.019087932321
 20
3800.692571353213
 30
0.0
 10
2896.291791018898
 20
3803.665100713543
 30
0.0
 10
2904.157198069891
 20
3804.246532188793
 30
0.0
 10
2927.832680414015
 20
3806.312838439588
 30
0.0
 10
2943.722025665831
 20
3808.119732832436
 30
0.0
 10
2965.722199722889
 20
3811.074720720435
 30
0.0
 10
2971.706874158086
 20
3811.923841496961
 30
0.0
 10
2989.727928743022
 20
3814.602473717829
 30
0.0
 10
3001.842665577945
 20
3816.540830661298
 30
0.0
 10
3025.674417653573
 20
3821.301932506724
 30
0.0
 10
3037.391314568121
 20
3824.12676516978
 30
0.0
 10
3054.421274808637
 20
3829.53366518162
 30
0.0
 10
3060.099495978289
 20
3831.576721188974
 30
0.0
 10
3076.60774553859
 20
3838.419661428698
 30
0.0
 10
3086.910249697679
 20
3843.933014187174
 30
0.0
 10
3099.800395122741
 20
3853.361743051259
 30
0.0
 10
3103.254883633284
 20
3856.204050995408
 30
0.0
 10
3109.874324816022
 20
3862.261849840905
 30
0.0
 10
3113.039376079401
 20
3865.474880780623
 30
0.0
 10
3122.141731318666
 20
3875.602388219525
 30
0.0
 10
3127.686211333393
 20
3883.005528759989
 30
0.0
 10
3144.983791864049
 20
3909.581681647329
 30
0.0
 10
3154.810747385776
 20
3930.963997037949
 30
0.0
 10
3165.991070617864
 20
3958.051751960449
 30
0.0
 10
3168.161178647098
 20
3963.457372394159
 30
0.0
 10
3172.438197722529
 20
3974.23471520543
 30
0.0
 10
3174.542380751996
 20
3979.606608607241
 30
0.0
 10
3180.749555299649
 20
3995.595690999247
 30
0.0
 10
3184.747156069262
 20
4006.086252008545
 30
0.0
 10
3189.445080637494
 20
4018.430646506915
 30
0.0
 10
3190.285026901246
 20
4020.638371480813
 30
0.0
 10
3192.096081770805
 20
4025.395690718245
 30
0.0
 10
3193.064469427796
 20
4027.937630228779
 30
0.0
 10
3194.737523102652
 20
4032.320380664436
 30
0.0
 10
3195.445752608749
 20
4034.171062234743
 30
0.0
 10
3196.856154489385
 20
4037.859395509813
 30
0.0
 10
3197.559195822061
 20
4039.700762124025
 30
0.0
 10
3199.682565466636
 20
4045.305236659546
 30
0.0
 10
3201.117131984656
 20
4049.148684846351
 30
0.0
 10
3202.948956616631
 20
4054.232229081104
 30
0.0
 10
3203.274926326244
 20
4055.143124231721
 30
0.0
 10
3204.264703204123
 20
4057.930050806977
 30
0.0
 10
3204.940379142053
 20
4059.860325317449
 30
0.0
 10
3205.830117578163
 20
4062.444694524706
 30
0.0
 10
3206.023781248322
 20
4063.013688930767
 30
0.0
 10
3206.425306265338
 20
4064.177556940872
 30
0.0
 10
3206.633958441726
 20
4064.768578814366
 30
0.0
 10
3207.164340098528
 20
4066.129531088741
 30
0.0
 10
3207.499328984499
 20
4066.892615926999
 30
0.0
 10
3208.235897331307
 20
4068.186577859292
 30
0.0
 10
3208.616002952452
 20
4068.736483899598
 30
0.0
 10
3209.436511165074
 20
4069.594526690099
 30
0.0
 10
3209.84690879181
 20
4069.929171266916
 30
0.0
 10
3210.786561376591
 20
4070.450530663119
 30
0.0
 10
3211.31590436772
 20
4070.63385569491
 30
0.0
 10
3212.314745863366
 20
4070.771152197516
 30
0.0
 10
3212.722107250407
 20
4070.766689548976
 30
0.0
 10
3213.285335930353
 20
4070.743118027645
 30
0.0
 10
3213.463517305277
 20
4070.732069145399
 30
0.0
 10
3213.633717158465
 20
4070.721595430792
 30
0.0
  0
SPLINE
  5
44B
330
1F
100
AcDbEntity
  8
0
100
AcDbSpline
210
0.0
220
0.0
230
1.0
 70
     8
 71
     3
 72
   114
 73
   110
 74
     0
 42
0.000000001
 43
0.0000000001
 40
-0.1287667314521599
 40
-0.1287667314521599
 40
-0.1287667314521599
 40
-0.1287667314521599
 40
-0.0000264146641101
 40
-0.0000264146641101
 40
-0.0000264146641101
 40
0.0
 40
0.0
 40
0.0
 40
19.88253063903756
 40
19.88253063903756
 40
37.43367623954841
 40
37.43367623954841
 40
50.72556040729581
 40
50.72556040729581
 40
64.01744457504323
 40
64.01744457504323
 40
90.60121291053803
 40
90.60121291053803
 40
108.0860135746724
 40
108.0860135746724
 40
143.0556149029412
 40
143.0556149029412
 40
178.02521623121
 40
178.02521623121
 40
212.9948175594788
 40
212.9948175594788
 40
290.8520063478354
 40
290.8520063478354
 40
304.9628270031098
 40
304.9628270031098
 40
319.0736476583842
 40
319.0736476583842
 40
347.295288968933
 40
347.295288968933
 40
403.7385715900304
 40
403.7385715900304
 40
453.1841194244732
 40
453.1841194244732
 40
487.1683609658822
 40
487.1683609658822
 40
519.5493533377415
 40
519.5493533377415
 40
551.9303457096008
 40
551.9303457096008
 40
616.6923304533193
 40
616.6923304533193
 40
746.2162999407565
 40
746.2162999407565
 40
771.236987530785
 40
771.236987530785
 40
796.2576751208136
 40
796.2576751208136
 40
846.2990503008708
 40
846.2990503008708
 40
864.6277441253838
 40
864.6277441253838
 40
879.499663826043
 40
879.499663826043
 40
890.9353161044608
 40
890.9353161044608
 40
902.3709683828784
 40
902.3709683828784
 40
925.2422729397139
 40
925.2422729397139
 40
970.9848820533848
 40
970.9848820533848
 40
987.4575184031312
 40
987.4575184031312
 40
1020.402791102624
 40
1020.402791102624
 40
1036.699447955701
 40
1036.699447955701
 40
1044.522300023032
 40
1044.522300023032
 40
1052.345152090363
 40
1052.345152090363
 40
1067.990856225026
 40
1067.990856225026
 40
1111.057659617823
 40
1111.057659617823
 40
1115.14882665457
 40
1115.14882665457
 40
1123.331160728064
 40
1123.331160728064
 40
1127.169634275608
 40
1127.169634275608
 40
1130.000127099219
 40
1130.000127099219
 40
1133.102396025887
 40
1133.102396025887
 40
1136.204664952554
 40
1136.204664952554
 40
1139.677326810462
 40
1139.677326810462
 40
1143.14998866837
 40
1143.14998866837
 40
1145.197781052966
 40
1145.197781052966
 40
1147.245573437561
 40
1147.245573437561
 40
1149.293365822156
 40
1149.293365822156
 40
1149.704556434698
 40
1149.704556434698
 40
1150.367454527412
 40
1150.367454527412
 40
1151.030352620126
 40
1151.030352620126
 40
1151.068057380079
 40
1151.068057380079
 40
1151.068057380079
 40
1151.068057380079
 10
2491.527138810948
 20
4043.939783616859
 30
0.0
 10
2491.53148111031
 20
4043.897362898528
 30
0.0
 10
2491.535823409672
 20
4043.8549421802
 30
0.0
 10
2491.540165709035
 20
4043.812521461869
 30
0.0
 10
2491.540166599979
 20
4043.812512758073
 30
0.0
 10
2491.540167490924
 20
4043.812504054282
 30
0.0
 10
2491.540168381867
 20
4043.81249535049
 30
0.0
 10
2492.210789030772
 20
4037.26108044362
 30
0.0
 10
2492.881583378721
 20
4030.707933874356
 30
0.0
 10
2494.200371765276
 20
4018.331633904179
 30
0.0
 10
2494.841817073727
 20
4012.512986143208
 30
0.0
 10
2496.045358072144
 20
4002.237314665918
 30
0.0
 10
2496.588464619971
 20
3997.792021158576
 30
0.0
 10
2497.744308441102
 20
3988.859593903248
 30
0.0
 10
2498.358583095463
 20
3984.375281308001
 30
0.0
 10
2500.370702121506
 20
3970.922193828587
 30
0.0
 10
2501.937749359911
 20
3961.953285615402
 30
0.0
 10
2505.17739176819
 20
3947.323596323009
 30
0.0
 10
2506.630303209221
 20
3941.581233671549
 30
0.0
 10
2511.630743197749
 20
3924.663656492276
 30
0.0
 10
2515.819853419879
 20
3913.797145277122
 30
0.0
 10
2526.657148912452
 20
3893.555072766094
 30
0.0
 10
2533.313546039669
 20
3884.216822512577
 30
0.0
 10
2548.536075344454
 20
3866.893787387968
 30
0.0
 10
2557.102310796533
 20
3858.906452768029
 30
0.0
 10
2586.927812290645
 20
3834.933391349137
 30
0.0
 10
2610.869033963361
 20
3821.148582918979
 30
0.0
 10
2639.559627048465
 20
3806.617038385704
 30
0.0
 10
2643.971913992703
 20
3804.436056245324
 30
0.0
 10
2652.789243919569
 20
3800.157583520611
 30
0.0
 10
2657.197205068847
 20
3798.061177181089
 30
0.0
 10
2670.42267899892
 20
3791.904517594291
 30
0.0
 10
2679.241783324554
 20
3787.976822748321
 30
0.0
 10
2705.735044593913
 20
3776.756565150156
 30
0.0
 10
2723.445177032373
 20
3770.02681680495
 30
0.0
 10
2756.907255438609
 20
3758.972857327818
 30
0.0
 10
2772.629757784146
 20
3754.453862703768
 30
0.0
 10
2799.411019260629
 20
3748.012334635661
 30
0.0
 10
2810.390790501218
 20
3745.71976127897
 30
0.0
 10
2832.003570032416
 20
3741.926908604497
 30
0.0
 10
2842.634157447827
 20
3740.396615333388
 30
0.0
 10
2864.039375112513
 20
3737.988236709103
 30
0.0
 10
2874.811086661767
 20
3737.108824024696
 30
0.0
 10
2907.26309887504
 20
3735.448038863082
 30
0.0
 10
2929.080278398601
 20
3735.644104431691
 30
0.0
 10
2994.515951220649
 20
3740.167601375617
 30
0.0
 10
3038.118754955217
 20
3748.430158027501
 30
0.0
 10
3088.325642659745
 20
3764.633546710991
 30
0.0
 10
3096.397144484655
 20
3767.454755154462
 30
0.0
 10
3112.405009717831
 20
3773.497402212134
 30
0.0
 10
3120.339143924715
 20
3776.72351378792
 30
0.0
 10
3143.714215123147
 20
3787.179470989229
 30
0.0
 10
3158.728381440623
 20
3795.186786053941
 30
0.0
 10
3177.665042922516
 20
3808.142018987057
 30
0.0
 10
3182.586691205453
 20
3811.812952706789
 30
0.0
 10
3191.168426569716
 20
3818.859864071646
 30
0.0
 10
3194.891376557026
 20
3822.160898021206
 30
0.0
 10
3201.23498983604
 20
3828.275867160914
 30
0.0
 10
3203.911522954067
 20
3831.027295502934
 30
0.0
 10
3209.088487124556
 20
3836.719023349049
 30
0.0
 10
3211.590374083336
 20
3839.656531011204
 30
0.0
 10
3218.856548851193
 20
3848.707336829973
 30
0.0
 10
3223.381370829351
 20
3855.058864956571
 30
0.0
 10
3236.160362634779
 20
3874.77578117484
 30
0.0
 10
3243.61959535083
 20
3888.803480363948
 30
0.0
 10
3252.905513612045
 20
3908.037346502561
 30
0.0
 10
3255.282109743919
 20
3913.144624775445
 30
0.0
 10
3262.225125679129
 20
3928.402887830026
 30
0.0
 10
3266.604906418482
 20
3938.490407164938
 30
0.0
 10
3273.013310334952
 20
3953.0100316247
 30
0.0
 10
3275.111576717455
 20
3957.723978534234
 30
0.0
 10
3278.211332010681
 20
3964.513630747375
 30
0.0
 10
3279.216046518391
 20
3966.684223681461
 30
0.0
 10
3281.22697739711
 20
3970.972676754549
 30
0.0
 10
3282.232067808612
 20
3973.093289721057
 30
0.0
 10
3285.230325127966
 20
3979.430970112239
 30
0.0
 10
3287.206585586672
 20
3983.623973517732
 30
0.0
 10
3294.374282440432
 20
3999.701502740065
 30
0.0
 10
3299.128444044917
 20
4012.190322146181
 30
0.0
 10
3302.761842650384
 20
4029.392632678342
 30
0.0
 10
3303.06413081584
 20
4030.914064010548
 30
0.0
 10
3303.929898945274
 20
4035.572020724105
 30
0.0
 10
3304.452278586397
 20
4038.802202768251
 30
0.0
 10
3305.130203955052
 20
4043.756754378652
 30
0.0
 10
3305.333270785731
 20
4045.37015186803
 30
0.0
 10
3305.661692599747
 20
4048.230810767718
 30
0.0
 10
3305.793451549857
 20
4049.462962025748
 30
0.0
 10
3306.05309625005
 20
4052.084839259109
 30
0.0
 10
3306.175314284373
 20
4053.485979044047
 30
0.0
 10
3306.428702774379
 20
4056.257395967646
 30
0.0
 10
3306.562682658433
 20
4057.626955684109
 30
0.0
 10
3306.917689572213
 20
4060.389723755701
 30
0.0
 10
3307.147941628166
 20
4061.766572314316
 30
0.0
 10
3307.752645575894
 20
4064.200656770206
 30
0.0
 10
3308.129695320219
 20
4065.255988221996
 30
0.0
 10
3308.844905786588
 20
4066.551027296775
 30
0.0
 10
3309.133664655064
 20
4066.946923392332
 30
0.0
 10
3309.746760078867
 20
4067.567815586984
 30
0.0
 10
3310.068202644344
 20
4067.794550355591
 30
0.0
 10
3310.787169487639
 20
4068.114598228322
 30
0.0
 10
3311.189338772251
 20
4068.210908686198
 30
0.0
 10
3311.777590538391
 20
4068.229890706143
 30
0.0
 10
3311.879414976983
 20
4068.229685264213
 30
0.0
 10
3312.154962436099
 20
4068.219575364977
 30
0.0
 10
3312.368184625087
 20
4068.200151450002
 30
0.0
 10
3312.876476118299
 20
4068.171998043816
 30
0.0
 10
3313.170082183177
 20
4068.163026028962
 30
0.0
 10
3313.519037238312
 20
4068.202751916548
 30
0.0
 10
3313.537932930071
 20
4068.205047387257
 30
0.0
 10
3313.556940217008
 20
4068.207510743496
 30
0.0
  0
SPLINE
  5
44C
330
1F
100
AcDbEntity
  8
0
100
AcDbSpline
210
0.0
220
0.0
230
1.0
 70
     8
 71
     3
 72
   110
 73
   106
 74
     0
 42
0.000000001
 43
0.0000000001
 40
0.1287669468944108
 40
0.1287669468944108
 40
0.1287669468944108
 40
0.1287669468944108
 40
19.2076479435476
 40
19.2076479435476
 40
36.92078777907797
 40
36.92078777907797
 40
49.80291163307258
 40
49.80291163307258
 40
62.68503548706719
 40
62.68503548706719
 40
88.44928319505642
 40
88.44928319505642
 40
106.4374180944443
 40
106.4374180944443
 40
142.41368789322
 40
142.41368789322
 40
170.7534700934863
 40
170.7534700934863
 40
199.0932522937526
 40
199.0932522937526
 40
272.6619342463177
 40
272.6619342463177
 40
293.1102829361737
 40
293.1102829361737
 40
307.9218820291395
 40
307.9218820291395
 40
322.7334811221053
 40
322.7334811221053
 40
352.3566793080369
 40
352.3566793080369
 40
411.6030756799
 40
411.6030756799
 40
453.0986484449966
 40
453.0986484449966
 40
485.712636693645
 40
485.712636693645
 40
513.9567488553419
 40
513.9567488553419
 40
542.2008610170389
 40
542.2008610170389
 40
598.6890853404328
 40
598.6890853404328
 40
711.6655339872205
 40
711.6655339872205
 40
736.9461983417773
 40
736.9461983417773
 40
757.6777170033524
 40
757.6777170033524
 40
773.8099677667539
 40
773.8099677667539
 40
789.9422185301554
 40
789.9422185301554
 40
822.2067200569584
 40
822.2067200569584
 40
886.7357231105644
 40
886.7357231105644
 40
920.4256763747929
 40
920.4256763747929
 40
954.1156296390214
 40
954.1156296390214
 40
1042.547243623425
 40
1042.547243623425
 40
1073.567912733236
 40
1073.567912733236
 40
1104.588581843048
 40
1104.588581843048
 40
1110.894606111832
 40
1110.894606111832
 40
1123.506654649399
 40
1123.506654649399
 40
1127.20821167745
 40
1127.20821167745
 40
1130.070085177632
 40
1130.070085177632
 40
1132.264478058558
 40
1132.264478058558
 40
1134.458870939485
 40
1134.458870939485
 40
1138.847656701337
 40
1138.847656701337
 40
1141.964392375081
 40
1141.964392375081
 40
1144.342195158181
 40
1144.342195158181
 40
1146.264437935518
 40
1146.264437935518
 40
1148.186680712855
 40
1148.186680712855
 40
1148.874531770216
 40
1148.874531770216
 40
1149.479082554726
 40
1149.479082554726
 40
1149.93192991985
 40
1149.93192991985
 40
1150.384777284973
 40
1150.384777284973
 40
1151.046020356537
 40
1151.046020356537
 40
1151.231459929954
 40
1151.231459929954
 40
1151.231459929954
 40
1151.822691559054
 40
1151.822691559054
 40
1151.822691559054
 40
1152.350571633917
 40
1152.350571633917
 40
1152.350571633917
 40
1152.350571633917
 10
2494.04020234349
 20
4043.939783616859
 30
0.0
 10
2494.683715605845
 20
4037.653196924302
 30
0.0
 10
2495.3272444235
 20
4031.368092593404
 30
0.0
 10
2496.618460090923
 20
4019.218718185561
 30
0.0
 10
2497.26255106778
 20
4013.356528883124
 30
0.0
 10
2498.449782455503
 20
4003.185558654773
 30
0.0
 10
2498.972376122337
 20
3998.888438935641
 30
0.0
 10
2500.080046261353
 20
3990.259359809794
 30
0.0
 10
2500.666175170904
 20
3985.930331412149
 30
0.0
 10
2502.575619057048
 20
3972.949198472938
 30
0.0
 10
2504.050070458158
 20
3964.303027881952
 30
0.0
 10
2507.140048364453
 20
3949.858238172654
 30
0.0
 10
2508.578660629988
 20
3943.987813912418
 30
0.0
 10
2513.544569891508
 20
3926.716445560311
 30
0.0
 10
2517.722106209995
 20
3915.656277112916
 30
0.0
 10
2527.42702630472
 20
3897.328124642338
 30
0.0
 10
2532.504639920285
 20
3889.752932202124
 30
0.0
 10
2543.996473373756
 20
3875.47656491375
 30
0.0
 10
2550.408513337441
 20
3868.776583330511
 30
0.0
 10
2575.350060727809
 20
3846.051436538712
 30
0.0
 10
2596.888886768207
 20
3832.211754748949
 30
0.0
 10
2625.690035138921
 20
3816.507884528089
 30
0.0
 10
2632.031133264188
 20
3813.212016884709
 30
0.0
 10
2643.003909934768
 20
3807.696877567682
 30
0.0
 10
2647.623077574871
 20
3805.430022287094
 30
0.0
 10
2656.852878458579
 20
3800.988893253047
 30
0.0
 10
2661.466839513439
 20
3798.815920777082
 30
0.0
 10
2675.310158140804
 20
3792.444423715928
 30
0.0
 10
2684.540949810032
 20
3788.393320735233
 30
0.0
 10
2712.273132927073
 20
3776.866805686046
 30
0.0
 10
2730.814297693597
 20
3770.018201383692
 30
0.0
 10
2762.586749011488
 20
3759.961897481013
 30
0.0
 10
2775.744567194276
 20
3756.27811121884
 30
0.0
 10
2799.426590335626
 20
3750.578220154241
 30
0.0
 10
2809.911705708685
 20
3748.373929475487
 30
0.0
 10
2829.623628638269
 20
3744.858891545931
 30
0.0
 10
2838.834073699983
 20
3743.469337761022
 30
0.0
 10
2857.372966869721
 20
3741.183938715136
 30
0.0
 10
2866.698271427097
 20
3740.286963758883
 30
0.0
 10
2894.794922674872
 20
3738.335430433779
 30
0.0
 10
2913.68700704383
 20
3738.020272372169
 30
0.0
 10
2970.471457974744
 20
3740.049812613308
 30
0.0
 10
3008.471944481121
 20
3745.369639873892
 30
0.0
 10
3053.929745580733
 20
3756.789286899674
 30
0.0
 10
3062.199024601928
 20
3759.078268316802
 30
0.0
 10
3077.151318919493
 20
3763.610828669205
 30
0.0
 10
3083.852012670254
 20
3765.788459281664
 30
0.0
 10
3095.691350673505
 20
3769.901881217664
 30
0.0
 10
3100.848200938985
 20
3771.783457483542
 30
0.0
 10
3111.097312309189
 20
3775.714393160457
 30
0.0
 10
3116.187026867424
 20
3777.765777135321
 30
0.0
 10
3131.293182463368
 20
3784.220234226051
 30
0.0
 10
3141.146575439271
 20
3788.923656321176
 30
0.0
 10
3169.588172652303
 20
3804.574038797606
 30
0.0
 10
3187.05512590207
 20
3817.059781758033
 30
0.0
 10
3209.506041444342
 20
3840.564763880038
 30
0.0
 10
3216.463801516583
 20
3849.465514507573
 30
0.0
 10
3229.220977905161
 20
3868.351541897022
 30
0.0
 10
3235.019721152749
 20
3878.334206060923
 30
0.0
 10
3254.530742461367
 20
3915.364289097708
 30
0.0
 10
3265.787726405205
 20
3943.781033802303
 30
0.0
 10
3281.195128642867
 20
3976.841043604551
 30
0.0
 10
3285.184444433836
 20
3984.936980163833
 30
0.0
 10
3292.47843056782
 20
4002.080914963974
 30
0.0
 10
3295.785451969861
 20
4011.12958768281
 30
0.0
 10
3298.971455759657
 20
4023.777699551572
 30
0.0
 10
3299.482422698836
 20
4025.974960697264
 30
0.0
 10
3300.925203292055
 20
4032.773022491229
 30
0.0
 10
3301.76692143797
 20
4037.580135664239
 30
0.0
 10
3302.67127487272
 20
4044.239246316467
 30
0.0
 10
3302.864189940424
 20
4045.779572221343
 30
0.0
 10
3303.183463751474
 20
4048.565833267015
 30
0.0
 10
3303.31499324568
 20
4049.799285881467
 30
0.0
 10
3303.533329983006
 20
4052.012636473036
 30
0.0
 10
3303.622052373827
 20
4052.985659715798
 30
0.0
 10
3303.798691987045
 20
4054.953694533944
 30
0.0
 10
3303.887660854992
 20
4055.945270667538
 30
0.0
 10
3304.18652662779
 20
4058.893579958474
 30
0.0
 10
3304.427028604782
 20
4060.822528674138
 30
0.0
 10
3305.062170718688
 20
4063.857244832064
 30
0.0
 10
3305.391137511043
 20
4065.04032733249
 30
0.0
 10
3306.170235246567
 20
4066.926239285787
 30
0.0
 10
3306.573662285552
 20
4067.678064082336
 30
0.0
 10
3307.484269972251
 20
4068.873288290322
 30
0.0
 10
3307.958834416969
 20
4069.348116537841
 30
0.0
 10
3309.061516417859
 20
4070.113234498201
 30
0.0
 10
3309.689482423414
 20
4070.400134197252
 30
0.0
 10
3310.6159684225
 20
4070.622174684509
 30
0.0
 10
3310.866898204903
 20
4070.665215122256
 30
0.0
 10
3311.349113528691
 20
4070.716729652211
 30
0.0
 10
3311.579098104424
 20
4070.728776792335
 30
0.0
 10
3311.988361364326
 20
4070.729031101758
 30
0.0
 10
3312.171359193543
 20
4070.721174266769
 30
0.0
 10
3312.497843248751
 20
4070.700147487475
 30
0.0
 10
3312.645271959454
 20
4070.688390534239
 30
0.0
 10
3312.965963771389
 20
4070.671268191081
 30
0.0
 10
3313.11891461814
 20
4070.672686524113
 30
0.0
 10
3313.254881843791
 20
4070.689044941244
 30
0.0
 10
3313.281060169205
 20
4070.693354135897
 30
0.0
 10
3313.303874533043
 20
4070.698070630796
 30
0.0
 10
3313.376612909489
 20
4070.71310809508
 30
0.0
 10
3313.415156372689
 20
4070.732285795884
 30
0.0
 10
3313.45369983589
 20
4070.751463496685
 30
0.0
 10
3313.488113296263
 20
4070.768586271648
 30
0.0
 10
3313.522526756635
 20
4070.785709046607
 30
0.0
 10
3313.556940217008
 20
4070.802831821567
 30
0.0
  0
SPLINE
  5
44D
330
1F
100
AcDbEntity
  8
0
100
AcDbSpline
210
0.0
220
0.0
230
1.0
 70
     8
 71
     3
 72
    90
 73
    86
 74
     0
 42
0.000000001
 43
0.0000000001
 40
-0.0614611211027557
 40
-0.0614611211027557
 40
-0.0614611211027557
 40
-0.0614611211027557
 40
-0.0000461604862558
 40
-0.0000461604862558
 40
-0.0000461604862558
 40
0.0
 40
0.0
 40
0.0
 40
52.81817575336429
 40
52.81817575336429
 40
79.47780845408747
 40
79.47780845408747
 40
113.5668056436385
 40
113.5668056436385
 40
147.6558028331895
 40
147.6558028331895
 40
167.9992793163897
 40
167.9992793163897
 40
183.561497773102
 40
183.561497773102
 40
199.1237162298143
 40
199.1237162298143
 40
230.2481531432389
 40
230.2481531432389
 40
292.497026970088
 40
292.497026970088
 40
416.5955573860343
 40
416.5955573860343
 40
435.5819938526761
 40
435.5819938526761
 40
454.5684303193178
 40
454.5684303193178
 40
492.5413032526014
 40
492.5413032526014
 40
568.4870491191685
 40
568.4870491191685
 40
622.2630624789684
 40
622.2630624789684
 40
657.2845464113563
 40
657.2845464113563
 40
685.3710602525937
 40
685.3710602525937
 40
712.0492459036926
 40
712.0492459036926
 40
738.7274315547915
 40
738.7274315547915
 40
792.0838028569894
 40
792.0838028569894
 40
898.7965454613853
 40
898.7965454613853
 40
1005.509288065781
 40
1005.509288065781
 40
1028.480834914084
 40
1028.480834914084
 40
1051.452381762388
 40
1051.452381762388
 40
1097.395475458994
 40
1097.395475458994
 40
1177.385702407447
 40
1177.385702407447
 40
1188.631771014033
 40
1188.631771014033
 40
1211.123908227206
 40
1211.123908227206
 40
1223.059044448996
 40
1223.059044448996
 40
1234.994180670786
 40
1234.994180670786
 40
1255.219014026824
 40
1255.219014026824
 40
1271.770696706082
 40
1271.770696706082
 40
1283.975574714671
 40
1283.975574714671
 40
1293.750612839136
 40
1293.750612839136
 40
1303.525650963601
 40
1303.525650963601
 40
1306.917234197989
 40
1306.917234197989
 40
1309.474380413047
 40
1309.474380413047
 40
1310.997610423122
 40
1310.997610423122
 40
1312.582435107329
 40
1312.582435107329
 40
1312.582435107329
 40
1312.582435107329
 10
2481.532161590804
 20
4043.939783616859
 30
0.0
 10
2481.533166216982
 20
4043.919344057225
 30
0.0
 10
2481.534170843162
 20
4043.898904497591
 30
0.0
 10
2481.535175469341
 20
4043.878464937961
 30
0.0
 10
2481.535176224433
 20
4043.878449575253
 30
0.0
 10
2481.535176979528
 20
4043.878434212546
 30
0.0
 10
2481.535177734619
 20
4043.878418849841
 30
0.0
 10
2482.399177828348
 20
4026.299961682498
 30
0.0
 10
2483.263686288688
 20
4008.700047759272
 30
0.0
 10
2485.926983309762
 20
3982.26938581217
 30
0.0
 10
2487.05112822078
 20
3973.41254802609
 30
0.0
 10
2490.404986620558
 20
3953.26849039287
 30
0.0
 10
2492.872260789243
 20
3941.979899068438
 30
0.0
 10
2499.1113698692
 20
3919.780571370526
 30
0.0
 10
2502.880999918786
 20
3908.870791453426
 30
0.0
 10
2510.035348221448
 20
3892.036604594096
 30
0.0
 10
2512.962383229447
 20
3885.875805884285
 30
0.0
 10
2518.59835362421
 20
3875.299820267637
 30
0.0
 10
2521.198998421446
 20
3870.816527207628
 30
0.0
 10
2526.710465176303
 20
3862.072118311763
 30
0.0
 10
2529.619364342661
 20
3857.808029602178
 30
0.0
 10
2538.774992858226
 20
3845.331627718677
 30
0.0
 10
2545.450617447206
 20
3837.435220740934
 30
0.0
 10
2566.94950218505
 20
3814.93975717846
 30
0.0
 10
2583.244257814012
 20
3801.534463611506
 30
0.0
 10
2635.972904137766
 20
3765.598910904532
 30
0.0
 10
2676.330227980491
 20
3747.232758898945
 30
0.0
 10
2723.087622851695
 20
3730.751931531469
 30
0.0
 10
2729.295497695645
 20
3728.660281984414
 30
0.0
 10
2741.689701142505
 20
3724.65778948599
 30
0.0
 10
2747.879105859246
 20
3722.747549710921
 30
0.0
 10
2766.433514461847
 20
3717.288046615589
 30
0.0
 10
2778.78471565199
 20
3714.010001365759
 30
0.0
 10
2815.857277382447
 20
3705.246261073103
 30
0.0
 10
2840.597612340295
 20
3700.831010920136
 30
0.0
 10
2883.236571434197
 20
3695.66052051195
 30
0.0
 10
2901.024143044703
 20
3694.213095199661
 30
0.0
 10
2930.695884684789
 20
3692.949010301219
 30
0.0
 10
2942.475408225391
 20
3692.739660481546
 30
0.0
 10
2963.875683047199
 20
3692.876462413724
 30
0.0
 10
2973.462015963703
 20
3693.120821826318
 30
0.0
 10
2992.294493810275
 20
3693.951061778351
 30
0.0
 10
3001.536482701208
 20
3694.518489503635
 30
0.0
 10
3020.15360354976
 20
3695.980762523776
 30
0.0
 10
3029.522119769986
 20
3696.877114055764
 30
0.0
 10
3057.698710887301
 20
3700.087156720156
 30
0.0
 10
3076.57782384514
 20
3702.921807790381
 30
0.0
 10
3132.628775182273
 20
3713.71322720509
 30
0.0
 10
3169.214335755581
 20
3723.956490828462
 30
0.0
 10
3236.179259434184
 20
3751.642992410098
 30
0.0
 10
3266.561344491526
 20
3769.086259100384
 30
0.0
 10
3296.873346693986
 20
3795.35063824383
 30
0.0
 10
3301.987801666424
 20
3800.1951683237
 30
0.0
 10
3311.678027468643
 20
3810.286813228196
 30
0.0
 10
3316.25858589012
 20
3815.535989973081
 30
0.0
 10
3329.23298351899
 20
3831.950830256932
 30
0.0
 10
3336.85920042437
 20
3843.783796686568
 30
0.0
 10
3355.159340435469
 20
3879.071284832162
 30
0.0
 10
3363.903197085964
 20
3904.636984821312
 30
0.0
 10
3371.063067224016
 20
3938.320861864059
 30
0.0
 10
3371.896876403972
 20
3942.551290896723
 30
0.0
 10
3374.255552673004
 20
3955.484855501169
 30
0.0
 10
3375.637672323462
 20
3964.430263732555
 30
0.0
 10
3377.475946647113
 20
3978.645265036494
 30
0.0
 10
3378.061534872101
 20
3983.672093687297
 30
0.0
 10
3379.136378902856
 20
3993.912257736682
 30
0.0
 10
3379.631785388164
 20
3999.111232223202
 30
0.0
 10
3381.052280431436
 20
4013.020734255859
 30
0.0
 10
3382.037608482068
 20
4021.663088698644
 30
0.0
 10
3384.636135258904
 20
4036.141616541985
 30
0.0
 10
3386.10394105317
 20
4042.201903097173
 30
0.0
 10
3389.479590693947
 20
4051.376733148934
 30
0.0
 10
3391.170308772079
 20
4054.845285924378
 30
0.0
 10
3394.782255735111
 20
4060.106910821111
 30
0.0
 10
3396.588568161901
 20
4062.095787517968
 30
0.0
 10
3400.670590608463
 20
4065.284557280336
 30
0.0
 10
3402.945724542254
 20
4066.487817887102
 30
0.0
 10
3406.416874639857
 20
4067.523376181542
 30
0.0
 10
3407.347595567478
 20
4067.737543752117
 30
0.0
 10
3409.049584631143
 20
4068.015957633017
 30
0.0
 10
3409.803743019214
 20
4068.104110113838
 30
0.0
 10
3411.044953610858
 20
4068.192245985667
 30
0.0
 10
3411.516712111222
 20
4068.213464912818
 30
0.0
 10
3412.49690839895
 20
4068.232295049152
 30
0.0
 10
3413.01578622242
 20
4068.228281141123
 30
0.0
 10
3413.546854946043
 20
4068.223996224069
 30
0.0
  0
SPLINE
  5
44E
330
1F
100
AcDbEntity
  8
0
100
AcDbSpline
210
0.0
220
0.0
230
1.0
 70
     8
 71
     3
 72
    86
 73
    82
 74
     0
 42
0.000000001
 43
0.0000000001
 40
0.0614612083928121
 40
0.0614612083928121
 40
0.0614612083928121
 40
0.0614612083928121
 40
52.63124529639013
 40
52.63124529639013
 40
78.82734054348006
 40
78.82734054348006
 40
98.44407339669835
 40
98.44407339669835
 40
118.0608062499166
 40
118.0608062499166
 40
157.2942719563532
 40
157.2942719563532
 40
174.2635476649841
 40
174.2635476649841
 40
208.2020990822458
 40
208.2020990822458
 40
242.1406504995076
 40
242.1406504995076
 40
310.0177533340311
 40
310.0177533340311
 40
371.1327359576842
 40
371.1327359576842
 40
402.1614554307044
 40
402.1614554307044
 40
425.8515952879447
 40
425.8515952879447
 40
455.2947910563734
 40
455.2947910563734
 40
484.7379868248021
 40
484.7379868248021
 40
543.6243783616593
 40
543.6243783616593
 40
661.397161435374
 40
661.397161435374
 40
692.5541312438276
 40
692.5541312438276
 40
712.7071979958092
 40
712.7071979958092
 40
732.8602647477908
 40
732.8602647477908
 40
773.1663982517542
 40
773.1663982517542
 40
853.778665259681
 40
853.778665259681
 40
899.312111884344
 40
899.312111884344
 40
990.3790051336697
 40
990.3790051336697
 40
1019.201995692036
 40
1019.201995692036
 40
1076.847976808769
 40
1076.847976808769
 40
1134.493957925502
 40
1134.493957925502
 40
1192.139939042235
 40
1192.139939042235
 40
1206.054511241997
 40
1206.054511241997
 40
1214.782032069831
 40
1214.782032069831
 40
1222.534778799087
 40
1222.534778799087
 40
1238.523126156832
 40
1238.523126156832
 40
1257.726143591394
 40
1257.726143591394
 40
1273.708823775707
 40
1273.708823775707
 40
1285.423700097195
 40
1285.423700097195
 40
1295.031980213193
 40
1295.031980213193
 40
1304.640260329191
 40
1304.640260329191
 40
1307.280836375478
 40
1307.280836375478
 40
1309.369037328006
 40
1309.369037328006
 40
1311.164552132256
 40
1311.164552132256
 40
1312.582435107329
 40
1312.582435107329
 40
1312.582435107329
 40
1312.582435107329
 10
2484.035179557669
 20
4043.939783616859
 30
0.0
 10
2484.895116483326
 20
4026.444043641224
 30
0.0
 10
2485.755581709328
 20
4008.969621979982
 30
0.0
 10
2488.372793765498
 20
3982.90166328852
 30
0.0
 10
2489.463207403264
 20
3974.250846335812
 30
0.0
 10
2491.945637883343
 20
3959.166239579108
 30
0.0
 10
2493.198025577377
 20
3952.716552485088
 30
0.0
 10
2496.114793619742
 20
3939.890608226853
 30
0.0
 10
2497.777508132588
 20
3933.516329351931
 30
0.0
 10
2503.411446303112
 20
3914.611429122214
 30
0.0
 10
2508.028533885944
 20
3902.298859429275
 30
0.0
 10
2516.000241643008
 20
3885.465021126302
 30
0.0
 10
2518.584416416449
 20
3880.48738165081
 30
0.0
 10
2526.889665819902
 20
3865.934744246852
 30
0.0
 10
2533.175262682476
 20
3856.744677384932
 30
0.0
 10
2547.048287009852
 20
3839.326141484065
 30
0.0
 10
2554.634725809008
 20
3831.097877999744
 30
0.0
 10
2579.038978287435
 20
3807.768379836709
 30
0.0
 10
2597.50231265116
 20
3794.022584760651
 30
0.0
 10
2635.197156677337
 20
3770.897264754685
 30
0.0
 10
2654.168483042476
 20
3761.219311720479
 30
0.0
 10
2683.537898638814
 20
3748.299527546106
 30
0.0
 10
2693.558791993333
 20
3744.234664834968
 30
0.0
 10
2711.321976371829
 20
3737.530747304174
 30
0.0
 10
2719.042642092178
 20
3734.781847508146
 30
0.0
 10
2736.347722837802
 20
3728.93832030659
 30
0.0
 10
2745.919336594393
 20
3725.920034271616
 30
0.0
 10
2765.034624767372
 20
3720.31655771976
 30
0.0
 10
2774.580728439559
 20
3717.731659143194
 30
0.0
 10
2803.219520754762
 20
3710.620402933788
 30
0.0
 10
2822.312681141792
 20
3706.737468579546
 30
0.0
 10
2879.875374389746
 20
3697.606198115189
 30
0.0
 10
2918.628299797008
 20
3694.875117692877
 30
0.0
 10
2969.059790996676
 20
3695.480611007619
 30
0.0
 10
2979.689284240437
 20
3695.831958635803
 30
0.0
 10
2997.346980420392
 20
3696.776161737633
 30
0.0
 10
3004.323502474538
 20
3697.239419003496
 30
0.0
 10
3018.348506280199
 20
3698.352941369174
 30
0.0
 10
3025.394411452128
 20
3699.003798169868
 30
0.0
 10
3046.585109990286
 20
3701.249457724362
 30
0.0
 10
3060.7828874127
 20
3703.137357817757
 30
0.0
 10
3103.210333213569
 20
3710.059596630812
 30
0.0
 10
3131.274130157873
 20
3716.352707689696
 30
0.0
 10
3173.266584686008
 20
3729.182952262514
 30
0.0
 10
3188.032046362997
 20
3734.422183169716
 30
0.0
 10
3230.607590067289
 20
3752.085062149216
 30
0.0
 10
3256.695491017142
 20
3766.454488304205
 30
0.0
 10
3286.117158804654
 20
3789.201891488067
 30
0.0
 10
3292.816041005885
 20
3794.962007167056
 30
0.0
 10
3311.653928990408
 20
3813.146475399938
 30
0.0
 10
3322.530807282982
 20
3826.474033955916
 30
0.0
 10
3341.240967180388
 20
3856.181871742012
 30
0.0
 10
3349.074361414031
 20
3872.563197016627
 30
0.0
 10
3361.995845638388
 20
3909.024708936433
 30
0.0
 10
3367.083256384474
 20
3929.104901725272
 30
0.0
 10
3371.873190520023
 20
3956.717033616655
 30
0.0
 10
3372.732972446133
 20
3962.212054592028
 30
0.0
 10
3374.018853154622
 20
3971.365772460204
 30
0.0
 10
3374.487141313831
 20
3974.945402486179
 30
0.0
 10
3375.320703195531
 20
3981.80371094496
 30
0.0
 10
3375.691383108327
 20
3985.071166102736
 30
0.0
 10
3376.76439037123
 20
3995.20713506044
 30
0.0
 10
3377.408446002454
 20
4002.208881691188
 30
0.0
 10
3379.043174359834
 20
4017.392272734492
 30
0.0
 10
3380.076825677633
 20
4025.527600202368
 30
0.0
 10
3382.807072383516
 20
4039.293174190365
 30
0.0
 10
3384.362264102013
 20
4045.115367512734
 30
0.0
 10
3387.946975768836
 20
4053.997730393448
 30
0.0
 10
3389.739590040542
 20
4057.381893243249
 30
0.0
 10
3393.670035548038
 20
4062.653450222902
 30
0.0
 10
3395.689900368933
 20
4064.700467082309
 30
0.0
 10
3400.30856273221
 20
4067.972946533589
 30
0.0
 10
3402.907047575517
 20
4069.195023652138
 30
0.0
 10
3406.60056719963
 20
4070.127437424425
 30
0.0
 10
3407.419278394972
 20
4070.291587033427
 30
0.0
 10
3408.926010540026
 20
4070.517548814257
 30
0.0
 10
3409.60554530593
 20
4070.593590790775
 30
0.0
 10
3410.896018967721
 20
4070.689962922503
 30
0.0
 10
3411.504532430267
 20
4070.716582716797
 30
0.0
 10
3412.607935558991
 20
4070.731758047563
 30
0.0
 10
3413.091898296102
 20
4070.727748406547
 30
0.0
 10
3413.567025487977
 20
4070.723914852593
 30
0.0
  0
SPLINE
  5
44F
330
1F
100
AcDbEntity
  8
0
100
AcDbSpline
210
0.0
220
0.0
230
1.0
 70
     8
 71
     3
 72
    94
 73
    90
 74
     0
 42
0.000000001
 43
0.0000000001
 40
0.0012128335782836
 40
0.0012128335782836
 40
0.0012128335782836
 40
0.0012128335782836
 40
64.02346934426788
 40
64.02346934426788
 40
81.07361263333613
 40
81.07361263333613
 40
98.1237559224044
 40
98.1237559224044
 40
132.2240425005409
 40
132.2240425005409
 40
200.4246156568139
 40
200.4246156568139
 40
227.9219653336454
 40
227.9219653336454
 40
255.4193150104769
 40
255.4193150104769
 40
310.4140143641398
 40
310.4140143641398
 40
443.7603608349369
 40
443.7603608349369
 40
464.2387011260517
 40
464.2387011260517
 40
484.7170414171666
 40
484.7170414171666
 40
525.6737219993961
 40
525.6737219993961
 40
607.5870831638554
 40
607.5870831638554
 40
642.6618611617252
 40
642.6618611617252
 40
712.8114171574646
 40
712.8114171574646
 40
742.3666201228559
 40
742.3666201228559
 40
801.4770260536385
 40
801.4770260536385
 40
860.5874319844211
 40
860.5874319844211
 40
978.8082438459863
 40
978.8082438459863
 40
1005.156608528085
 40
1005.156608528085
 40
1026.807700973468
 40
1026.807700973468
 40
1047.773781327306
 40
1047.773781327306
 40
1068.739861681143
 40
1068.739861681143
 40
1110.672022388818
 40
1110.672022388818
 40
1194.536343804166
 40
1194.536343804166
 40
1216.950216334697
 40
1216.950216334697
 40
1261.777961395758
 40
1261.777961395758
 40
1279.781870405042
 40
1279.781870405042
 40
1297.03653184032
 40
1297.03653184032
 40
1309.249807455446
 40
1309.249807455446
 40
1321.463083070573
 40
1321.463083070573
 40
1345.889634300825
 40
1345.889634300825
 40
1404.326114153441
 40
1404.326114153441
 40
1413.915155308604
 40
1413.915155308604
 40
1433.093237618929
 40
1433.093237618929
 40
1445.941316675493
 40
1445.941316675493
 40
1456.325434316243
 40
1456.325434316243
 40
1464.052769448202
 40
1464.052769448202
 40
1469.924000356546
 40
1469.924000356546
 40
1475.795231264889
 40
1475.795231264889
 40
1479.785145066069
 40
1479.785145066069
 40
1481.473389114677
 40
1481.473389114677
 40
1482.827662787838
 40
1482.827662787838
 40
1483.094227442263
 40
1483.094227442263
 40
1483.094227442263
 40
1483.094227442263
 10
2471.533669986933
 20
4043.939783616859
 30
0.0
 10
2471.513075177199
 20
4022.656541845006
 30
0.0
 10
2471.491771647531
 20
4001.348247172553
 30
0.0
 10
2473.073962161635
 20
3974.207152830861
 30
0.0
 10
2473.497417028369
 20
3968.489451739794
 30
0.0
 10
2474.570424189908
 20
3957.036929686563
 30
0.0
 10
2475.218094270143
 20
3951.304636943058
 30
0.0
 10
2477.524943777876
 20
3934.135718794345
 30
0.0
 10
2479.547935040459
 20
3922.727037789626
 30
0.0
 10
2487.315792657361
 20
3888.981556241788
 30
0.0
 10
2494.759292833605
 20
3867.124301688792
 30
0.0
 10
2509.299900671385
 20
3838.741824463387
 30
0.0
 10
2513.961073963911
 20
3830.861194869298
 30
0.0
 10
2524.155058701597
 20
3815.657436899857
 30
0.0
 10
2529.686777753044
 20
3808.332085485696
 30
0.0
 10
2547.434521861739
 20
3787.175490725751
 30
0.0
 10
2560.80290730341
 20
3774.163743352396
 30
0.0
 10
2610.473223492071
 20
3733.245096545414
 30
0.0
 10
2652.311515080889
 20
3710.525183643311
 30
0.0
 10
2701.728167430091
 20
3691.062394883085
 30
0.0
 10
2708.329520366516
 20
3688.609654843241
 30
0.0
 10
2721.543227169034
 20
3683.975917633163
 30
0.0
 10
2728.158570670655
 20
3681.794009786654
 30
0.0
 10
2748.032158167519
 20
3675.629600846236
 30
0.0
 10
2761.317951514128
 20
3672.028420212695
 30
0.0
 10
2801.302459056421
 20
3662.561352758896
 30
0.0
 10
2828.128168441327
 20
3658.031946711266
 30
0.0
 10
2866.749003990507
 20
3653.388090394305
 30
0.0
 10
2878.367737445128
 20
3652.230082701345
 30
0.0
 10
2913.354135605811
 20
3649.340216682014
 30
0.0
 10
2936.851972046384
 20
3648.1924837516
 30
0.0
 10
2970.540012136929
 20
3647.218678705505
 30
0.0
 10
2980.562308007878
 20
3647.01213570767
 30
0.0
 10
3010.744844829011
 20
3646.567988173514
 30
0.0
 10
3031.034007885283
 20
3646.49679661371
 30
0.0
 10
3071.57948486785
 20
3647.450206033756
 30
0.0
 10
3091.835398753666
 20
3648.474956810546
 30
0.0
 10
3151.997987661363
 20
3654.166201360045
 30
0.0
 10
3191.301581868288
 20
3661.448912734801
 30
0.0
 10
3236.559085312534
 20
3677.807092764883
 30
0.0
 10
3244.693353610202
 20
3681.091188273383
 30
0.0
 10
3259.27329091121
 20
3687.67792610355
 30
0.0
 10
3265.76146803083
 20
3690.872886347885
 30
0.0
 10
3278.340101002397
 20
3697.633777840822
 30
0.0
 10
3284.436152106268
 20
3701.190147466359
 30
0.0
 10
3296.427931282772
 20
3708.740833354188
 30
0.0
 10
3302.324624752773
 20
3712.732167490138
 30
0.0
 10
3319.704949237491
 20
3725.288753790005
 30
0.0
 10
3330.878834340523
 20
3734.436548709544
 30
0.0
 10
3363.064251007812
 20
3763.688869558265
 30
0.0
 10
3382.739838677376
 20
3785.602099875631
 30
0.0
 10
3405.084640599436
 20
3814.673618996277
 30
0.0
 10
3409.651145454295
 20
3820.878142482574
 30
0.0
 10
3422.897608050834
 20
3839.632736932045
 30
0.0
 10
3431.124525564758
 20
3852.323816471444
 30
0.0
 10
3441.75210236597
 20
3870.079844984723
 30
0.0
 10
3444.693374108581
 20
3875.164002280841
 30
0.0
 10
3450.244732506025
 20
3885.086773751596
 30
0.0
 10
3452.863507731286
 20
3889.926801178064
 30
0.0
 10
3457.16472109308
 20
3898.145009705355
 30
0.0
 10
3458.897067156407
 20
3901.536522641835
 30
0.0
 10
3462.260165629999
 20
3908.285704002732
 30
0.0
 10
3463.89116148385
 20
3911.646450517352
 30
0.0
 10
3468.627739524983
 20
3921.749225171772
 30
0.0
 10
3471.576929391747
 20
3928.511870213411
 30
0.0
 10
3480.829650694464
 20
3952.104362417498
 30
0.0
 10
3486.084030878329
 20
3969.840459213725
 30
0.0
 10
3490.523752740049
 20
3994.373719521931
 30
0.0
 10
3491.110859670107
 20
3997.921926597459
 30
0.0
 10
3492.753939865143
 20
4008.86625367083
 30
0.0
 10
3493.691583251616
 20
4016.564344307264
 30
0.0
 10
3494.985361926011
 20
4030.212787222726
 30
0.0
 10
3495.437078604403
 20
4035.867374927422
 30
0.0
 10
3496.657280180312
 20
4045.5372487488
 30
0.0
 10
3497.349328304055
 20
4049.658762519235
 30
0.0
 10
3499.056868244886
 20
4056.02631238831
 30
0.0
 10
3499.944837812641
 20
4058.481091348896
 30
0.0
 10
3501.859867787024
 20
4062.144337118114
 30
0.0
 10
3502.800866406283
 20
4063.509300624884
 30
0.0
 10
3504.936608017345
 20
4065.740803734797
 30
0.0
 10
3506.127982891597
 20
4066.609402526611
 30
0.0
 10
3508.412585902111
 20
4067.63266438792
 30
0.0
 10
3509.416989836412
 20
4067.927365932106
 30
0.0
 10
3510.992274002341
 20
4068.157478168597
 30
0.0
 10
3511.478965333
 20
4068.20192663283
 30
0.0
 10
3512.391538531146
 20
4068.236023878699
 30
0.0
 10
3512.821946883252
 20
4068.233787315583
 30
0.0
 10
3513.359921107497
 20
4068.226690976882
 30
0.0
 10
3513.449048295751
 20
4068.225393815405
 30
0.0
 10
3513.538744100789
 20
4068.224087984805
 30
0.0
  0
SPLINE
  5
450
330
1F
100
AcDbEntity
  8
0
100
AcDbSpline
210
0.0
220
0.0
230
1.0
 70
     8
 71
     3
 72
    88
 73
    84
 74
     0
 42
0.000000001
 43
0.0000000001
 40
0.0
 40
0.0
 40
0.0
 40
0.0
 40
64.50342257007168
 40
64.50342257007168
 40
81.78386554395661
 40
81.78386554395661
 40
99.06430851784154
 40
99.06430851784154
 40
133.6251944656114
 40
133.6251944656114
 40
202.7469663611511
 40
202.7469663611511
 40
271.8687382566908
 40
271.8687382566908
 40
340.9905101522306
 40
340.9905101522306
 40
383.381785074071
 40
383.381785074071
 40
429.4589328366916
 40
429.4589328366916
 40
459.3068073735516
 40
459.3068073735516
 40
519.0025564472718
 40
519.0025564472718
 40
638.3940545947123
 40
638.3940545947123
 40
673.087399813735
 40
673.087399813735
 40
742.4740902517803
 40
742.4740902517803
 40
881.247471127871
 40
881.247471127871
 40
990.7920189932934
 40
990.7920189932934
 40
1017.291822550023
 40
1017.291822550023
 40
1040.390562003208
 40
1040.390562003208
 40
1063.489301456393
 40
1063.489301456393
 40
1109.686780362764
 40
1109.686780362764
 40
1202.081738175505
 40
1202.081738175505
 40
1223.921603458074
 40
1223.921603458074
 40
1267.601334023211
 40
1267.601334023211
 40
1285.491131547261
 40
1285.491131547261
 40
1300.492974681016
 40
1300.492974681016
 40
1312.153206793662
 40
1312.153206793662
 40
1323.813438906308
 40
1323.813438906308
 40
1347.133903131599
 40
1347.133903131599
 40
1393.774831582181
 40
1393.774831582181
 40
1404.214053674698
 40
1404.214053674698
 40
1425.092497859734
 40
1425.092497859734
 40
1434.056027776048
 40
1434.056027776048
 40
1443.019557692361
 40
1443.019557692361
 40
1453.281429043738
 40
1453.281429043738
 40
1463.543300395115
 40
1463.543300395115
 40
1469.3041659143
 40
1469.3041659143
 40
1475.065031433485
 40
1475.065031433485
 40
1480.825896952669
 40
1480.825896952669
 40
1481.795480254185
 40
1481.795480254185
 40
1482.765063555701
 40
1482.765063555701
 40
1483.094227442263
 40
1483.094227442263
 40
1483.094227442263
 40
1483.094227442263
 10
2474.033669986934
 20
4043.93857405173
 30
0.0
 10
2474.012920422237
 20
4022.495376775213
 30
0.0
 10
2473.992924943567
 20
4001.077614059062
 30
0.0
 10
2475.60599581095
 20
3973.821783970316
 30
0.0
 10
2476.040195588114
 20
3968.056502202404
 30
0.0
 10
2477.140344620039
 20
3956.512967670317
 30
0.0
 10
2477.804270227335
 20
3950.737125930255
 30
0.0
 10
2480.168543311397
 20
3933.445719488695
 30
0.0
 10
2482.241416151214
 20
3921.966290851973
 30
0.0
 10
2490.196704468102
 20
3888.058908140991
 30
0.0
 10
2497.816026236659
 20
3866.162966345872
 30
0.0
 10
2518.992100890831
 20
3825.83451174322
 30
0.0
 10
2532.594795719736
 20
3807.396681827815
 30
0.0
 10
2564.281884237692
 20
3773.869946282941
 30
0.0
 10
2582.364752330027
 20
3758.782604360165
 30
0.0
 10
2613.880962078815
 20
3737.074800314449
 30
0.0
 10
2626.40790552745
 20
3729.436371926678
 30
0.0
 10
2653.310128678314
 20
3714.754192985771
 30
0.0
 10
2667.751400178016
 20
3707.819900042358
 30
0.0
 10
2691.868873323671
 20
3697.544963752675
 30
0.0
 10
2701.431854003358
 20
3693.798815625366
 30
0.0
 10
2730.174811880233
 20
3683.428189248424
 30
0.0
 10
2749.409898204886
 20
3677.671161484877
 30
0.0
 10
2807.395729764835
 20
3663.288564362391
 30
0.0
 10
2846.427640299947
 20
3657.551532035324
 30
0.0
 10
2897.487384209634
 20
3653.119987035893
 30
0.0
 10
2909.028676246945
 20
3652.316678801841
 30
0.0
 10
2943.798177435624
 20
3650.37617960483
 30
0.0
 10
2967.172027366692
 20
3649.708445094135
 30
0.0
 10
3037.964698071594
 20
3648.669724060403
 30
0.0
 10
3086.016826258393
 20
3649.220964701928
 30
0.0
 10
3169.225104040151
 20
3659.874218760482
 30
0.0
 10
3204.964086134078
 20
3667.939494162596
 30
0.0
 10
3246.690740094912
 20
3684.662233968173
 30
0.0
 10
3254.693488746017
 20
3688.235626330151
 30
0.0
 10
3269.407268775562
 20
3695.569299823665
 30
0.0
 10
3276.151415029443
 20
3699.248452024944
 30
0.0
 10
3289.407707016741
 20
3707.16148732247
 30
0.0
 10
3295.920981762406
 20
3711.389011715261
 30
0.0
 10
3315.098655355207
 20
3724.798502554664
 30
0.0
 10
3327.40088973404
 20
3734.707449599702
 30
0.0
 10
3362.718321153051
 20
3766.650491290397
 30
0.0
 10
3384.143805102788
 20
3790.901099525303
 30
0.0
 10
3407.554219469222
 20
3822.24718727566
 30
0.0
 10
3411.890773805613
 20
3828.301635201324
 30
0.0
 10
3424.468433534435
 20
3846.576183134408
 30
0.0
 10
3432.277525657205
 20
3858.90750204159
 30
0.0
 10
3442.418437636285
 20
3876.221723093529
 30
0.0
 10
3445.261887154123
 20
3881.244538856021
 30
0.0
 10
3450.295295499972
 20
3890.439725364171
 30
0.0
 10
3452.516648054309
 20
3894.618490385665
 30
0.0
 10
3456.32958437276
 20
3902.004134333917
 30
0.0
 10
3457.951446175613
 20
3905.218523339465
 30
0.0
 10
3461.100566200642
 20
3911.61999059806
 30
0.0
 10
3462.627806711763
 20
3914.810339459074
 30
0.0
 10
3467.064122809598
 20
3924.404531955968
 30
0.0
 10
3469.827782632739
 20
3930.831455208734
 30
0.0
 10
3477.510552941601
 20
3950.641440760299
 30
0.0
 10
3481.822338649711
 20
3964.553905156865
 30
0.0
 10
3486.01614803375
 20
3983.877234726375
 30
0.0
 10
3486.738762039068
 20
3987.505232563201
 30
0.0
 10
3488.770716246348
 20
3998.710492239234
 30
0.0
 10
3489.944177848907
 20
4006.609055379313
 30
0.0
 10
3491.351719075942
 20
4018.65987254643
 30
0.0
 10
3491.73771800472
 20
4022.377914575428
 30
0.0
 10
3492.447657887938
 20
4030.026382446123
 30
0.0
 10
3492.782356873076
 20
4033.944216280438
 30
0.0
 10
3493.671689106064
 20
4042.19816332486
 30
0.0
 10
3494.250450593235
 20
4046.51225951846
 30
0.0
 10
3495.932224061851
 20
4054.487930375284
 30
0.0
 10
3497.032021754259
 20
4058.151121839981
 30
0.0
 10
3499.453846982897
 20
4063.008027075748
 30
0.0
 10
3500.468605843849
 20
4064.581125322116
 30
0.0
 10
3502.868958741453
 20
4067.273265799902
 30
0.0
 10
3504.257769315233
 20
4068.391185717048
 30
0.0
 10
3507.443991827612
 20
4070.019606694115
 30
0.0
 10
3509.237187419399
 20
4070.526154809258
 30
0.0
 10
3511.550461098935
 20
4070.706303072695
 30
0.0
 10
3511.891480832073
 20
4070.722194708602
 30
0.0
 10
3512.572321758077
 20
4070.734841346713
 30
0.0
 10
3512.909461950988
 20
4070.732590350982
 30
0.0
 10
3513.352750321685
 20
4070.727061595849
 30
0.0
 10
3513.464376638334
 20
4070.725435579736
 30
0.0
 10
3513.57513633323
 20
4070.723823091854
 30
0.0
  0
SPLINE
  5
451
330
1F
100
AcDbEntity
  8
0
100
AcDbSpline
210
0.0
220
0.0
230
1.0
 70
     8
 71
     3
 72
    98
 73
    94
 74
     0
 42
0.000000001
 43
0.0000000001
 40
0.048427923885315
 40
0.048427923885315
 40
0.048427923885315
 40
0.048427923885315
 40
47.83565284249728
 40
47.83565284249728
 40
76.22976266898135
 40
76.22976266898135
 40
133.0179823219495
 40
133.0179823219495
 40
165.8100677181561
 40
165.8100677181561
 40
231.3942385105694
 40
231.3942385105694
 40
253.5211899458438
 40
253.5211899458438
 40
297.7750928163925
 40
297.7750928163925
 40
342.0289956869412
 40
342.0289956869412
 40
467.4882162326579
 40
467.4882162326579
 40
498.5236027030124
 40
498.5236027030124
 40
526.1775823057648
 40
526.1775823057648
 40
547.4654756266966
 40
547.4654756266966
 40
568.7533689476283
 40
568.7533689476283
 40
611.3291555894918
 40
611.3291555894918
 40
696.4807288732188
 40
696.4807288732188
 40
866.7838754406727
 40
866.7838754406727
 40
909.3507258812927
 40
909.3507258812927
 40
998.5676558506202
 40
998.5676558506202
 40
1063.164107004691
 40
1063.164107004691
 40
1192.357009312832
 40
1192.357009312832
 40
1218.730877478436
 40
1218.730877478436
 40
1271.478613809643
 40
1271.478613809643
 40
1314.252872602881
 40
1314.252872602881
 40
1346.031895063434
 40
1346.031895063434
 40
1368.538181190672
 40
1368.538181190672
 40
1389.872454514289
 40
1389.872454514289
 40
1411.206727837906
 40
1411.206727837906
 40
1453.87527448514
 40
1453.87527448514
 40
1539.212367779608
 40
1539.212367779608
 40
1554.99962846857
 40
1554.99962846857
 40
1566.017074764418
 40
1566.017074764418
 40
1576.577153188344
 40
1576.577153188344
 40
1587.137231612271
 40
1587.137231612271
 40
1608.257388460124
 40
1608.257388460124
 40
1615.618423091168
 40
1615.618423091168
 40
1630.340492353257
 40
1630.340492353257
 40
1635.62847746899
 40
1635.62847746899
 40
1646.204447700455
 40
1646.204447700455
 40
1653.189772050507
 40
1653.189772050507
 40
1660.175096400558
 40
1660.175096400558
 40
1665.264468961719
 40
1665.264468961719
 40
1669.143650351158
 40
1669.143650351158
 40
1673.022831740597
 40
1673.022831740597
 40
1674.724323478422
 40
1674.724323478422
 40
1676.079233105401
 40
1676.079233105401
 40
1677.650513131868
 40
1677.650513131868
 40
1677.650513131868
 40
1677.650513131868
 10
2461.532744823869
 20
4043.939783616859
 30
0.0
 10
2460.923969515837
 20
4028.12474421437
 30
0.0
 10
2460.315123304307
 20
4012.302027983065
 30
0.0
 10
2459.791370467458
 20
3986.860266485658
 30
0.0
 10
2459.695136395193
 20
3977.329514929826
 30
0.0
 10
2459.880154413143
 20
3948.512099989459
 30
0.0
 10
2460.635010452316
 20
3928.999847110527
 30
0.0
 10
2463.5353941761
 20
3898.47027401642
 30
0.0
 10
2464.958537492691
 20
3887.347310647935
 30
0.0
 10
2470.574702837997
 20
3854.401859161646
 30
0.0
 10
2476.11411356125
 20
3833.0020755883
 30
0.0
 10
2486.865643390598
 20
3806.087625172897
 30
0.0
 10
2489.862532853627
 20
3799.443129205576
 30
0.0
 10
2499.788222070148
 20
3780.028515028988
 30
0.0
 10
2507.653724672909
 20
3767.793260097633
 30
0.0
 10
2525.487183546721
 20
3744.695135276854
 30
0.0
 10
2535.455176690295
 20
3733.831613724227
 30
0.0
 10
2576.964341216564
 20
3694.702542250272
 30
0.0
 10
2614.524721693143
 20
3671.081752348835
 30
0.0
 10
2664.459768303453
 20
3647.514446479681
 30
0.0
 10
2674.514118965192
 20
3643.130073850664
 30
0.0
 10
2693.688111151904
 20
3635.3702034217
 30
0.0
 10
2702.79023985153
 20
3631.936833292765
 30
0.0
 10
2718.93543997259
 20
3626.244610791137
 30
0.0
 10
2725.968412147563
 20
3623.897517465577
 30
0.0
 10
2740.024623848328
 20
3619.45418897983
 30
0.0
 10
2747.051159185951
 20
3617.357636385221
 30
0.0
 10
2768.128525798088
 20
3611.428738921497
 30
0.0
 10
2782.177115458552
 20
3607.957158057843
 30
0.0
 10
2824.333751572286
 20
3598.868728293137
 30
0.0
 10
2852.452605773781
 20
3594.578223086113
 30
0.0
 10
2937.012778187987
 20
3586.076456991477
 30
0.0
 10
2993.657009780197
 20
3586.234608222838
 30
0.0
 10
3065.344777407571
 20
3590.594393783709
 30
0.0
 10
3079.724076714743
 20
3591.674014242189
 30
0.0
 10
3124.400855324996
 20
3595.541509077089
 30
0.0
 10
3154.873206183002
 20
3598.925960496612
 30
0.0
 10
3206.793473085328
 20
3607.281369721003
 30
0.0
 10
3228.411218585917
 20
3611.556799647924
 30
0.0
 10
3292.039122842555
 20
3627.47696812566
 30
0.0
 10
3332.825976623707
 20
3642.215578893653
 30
0.0
 10
3377.825217073788
 20
3667.488534998587
 30
0.0
 10
3385.311632762004
 20
3672.033603565387
 30
0.0
 10
3407.297321662671
 20
3686.504134866396
 30
0.0
 10
3421.320621206375
 20
3697.268957921735
 30
0.0
 10
3445.275768928014
 20
3718.590131333853
 30
0.0
 10
3455.479986094893
 20
3728.801028352833
 30
0.0
 10
3472.204531887385
 20
3747.653087443263
 30
0.0
 10
3478.997556796479
 20
3756.023060321272
 30
0.0
 10
3489.967324327533
 20
3770.850794369579
 30
0.0
 10
3494.32910601498
 20
3777.153894693342
 30
0.0
 10
3502.438384849457
 20
3789.718532230678
 30
0.0
 10
3506.204636085343
 20
3795.967000186453
 30
0.0
 10
3513.364962881159
 20
3808.704853438236
 30
0.0
 10
3516.763954707546
 20
3815.190498302133
 30
0.0
 10
3526.492983581653
 20
3834.904703176164
 30
0.0
 10
3532.355145290118
 20
3848.390518982682
 30
0.0
 10
3548.672338041929
 20
3889.135811697032
 30
0.0
 10
3557.859177307496
 20
3916.684008153867
 30
0.0
 10
3568.629191053255
 20
3947.438664439584
 30
0.0
 10
3570.30716404145
 20
3952.185380534744
 30
0.0
 10
3573.167339042974
 20
3960.130578417959
 30
0.0
 10
3574.34615781318
 20
3963.363534731716
 30
0.0
 10
3576.667787242729
 20
3969.622742956325
 30
0.0
 10
3577.810201972575
 20
3972.649359900368
 30
0.0
 10
3580.112633246788
 20
3978.639593816211
 30
0.0
 10
3581.271224710875
 20
3981.609709243987
 30
0.0
 10
3584.738870261187
 20
3990.558606887453
 30
0.0
 10
3587.039966376448
 20
3996.576189061585
 30
0.0
 10
3590.01629567759
 20
4005.164690791263
 30
0.0
 10
3590.774092254836
 20
4007.427036815543
 30
0.0
 10
3593.002435697924
 20
4014.379725723438
 30
0.0
 10
3594.427907156787
 20
4019.235716290999
 30
0.0
 10
3596.245106605787
 20
4026.272774429619
 30
0.0
 10
3596.713917786057
 20
4028.173899397983
 30
0.0
 10
3598.082206958031
 20
4034.015668990452
 30
0.0
 10
3598.943532213513
 20
4038.094698505696
 30
0.0
 10
3600.27217951153
 20
4045.236398098551
 30
0.0
 10
3600.762958834849
 20
4048.177454293038
 30
0.0
 10
3601.881705098654
 20
4053.843592218947
 30
0.0
 10
3602.512398319342
 20
4056.570577990273
 30
0.0
 10
3603.892922944649
 20
4060.725989760418
 30
0.0
 10
3604.56438314457
 20
4062.304631122746
 30
0.0
 10
3605.941421710233
 20
4064.634700098768
 30
0.0
 10
3606.599478817821
 20
4065.492359599893
 30
0.0
 10
3608.048963968722
 20
4066.865792344832
 30
0.0
 10
3608.837010696086
 20
4067.383713803554
 30
0.0
 10
3610.116163075595
 20
4067.884215911572
 30
0.0
 10
3610.526438802065
 20
4068.004027216959
 30
0.0
 10
3611.309707378595
 20
4068.156257268668
 30
0.0
 10
3611.673310100782
 20
4068.201446662928
 30
0.0
 10
3612.499219066175
 20
4068.246436461077
 30
0.0
 10
3612.997569589146
 20
4068.236379268224
 30
0.0
 10
3613.528459532848
 20
4068.2242800402
 30
0.0
  0
SPLINE
  5
452
330
1F
100
AcDbEntity
  8
0
100
AcDbSpline
210
0.0
220
0.0
230
1.0
 70
     8
 71
     3
 72
   110
 73
   106
 74
     0
 42
0.000000001
 43
0.0000000001
 40
-0.0484279474037171
 40
-0.0484279474037171
 40
-0.0484279474037171
 40
-0.0484279474037171
 40
-0.0000198317978984
 40
-0.0000198317978984
 40
-0.0000198317978984
 40
0.0
 40
0.0
 40
0.0
 40
45.1557124626635
 40
45.1557124626635
 40
71.78937410530675
 40
71.78937410530675
 40
106.3753735194578
 40
106.3753735194578
 40
140.9613729336088
 40
140.9613729336088
 40
210.1333717619109
 40
210.1333717619109
 40
236.7746721671752
 40
236.7746721671752
 40
258.3824902035644
 40
258.3824902035644
 40
279.9903082399536
 40
279.9903082399536
 40
323.205944312732
 40
323.205944312732
 40
442.7268104648375
 40
442.7268104648375
 40
483.4217119327393
 40
483.4217119327393
 40
513.9564549467578
 40
513.9564549467578
 40
539.6723787503924
 40
539.6723787503924
 40
591.1042263576616
 40
591.1042263576616
 40
733.2513132293793
 40
733.2513132293793
 40
774.8452212143619
 40
774.8452212143619
 40
858.033037184327
 40
858.033037184327
 40
897.5228105441777
 40
897.5228105441777
 40
924.135578530701
 40
924.135578530701
 40
950.7483465172244
 40
950.7483465172244
 40
1003.973882490271
 40
1003.973882490271
 40
1110.424954436365
 40
1110.424954436365
 40
1148.069733910905
 40
1148.069733910905
 40
1223.359292859985
 40
1223.359292859985
 40
1298.648851809064
 40
1298.648851809064
 40
1330.568936806666
 40
1330.568936806666
 40
1362.06566197092
 40
1362.06566197092
 40
1385.271613098561
 40
1385.271613098561
 40
1436.321029452391
 40
1436.321029452391
 40
1529.447033451744
 40
1529.447033451744
 40
1548.994828776873
 40
1548.994828776873
 40
1561.225625911319
 40
1561.225625911319
 40
1571.446374915555
 40
1571.446374915555
 40
1581.773329144566
 40
1581.773329144566
 40
1592.100283373577
 40
1592.100283373577
 40
1612.754191831599
 40
1612.754191831599
 40
1619.138156154164
 40
1619.138156154164
 40
1631.906084799293
 40
1631.906084799293
 40
1636.953228085855
 40
1636.953228085855
 40
1647.047514658979
 40
1647.047514658979
 40
1655.089593972269
 40
1655.089593972269
 40
1661.480840661907
 40
1661.480840661907
 40
1666.263532641886
 40
1666.263532641886
 40
1669.956348736942
 40
1669.956348736942
 40
1673.649164831999
 40
1673.649164831999
 40
1675.042553405216
 40
1675.042553405216
 40
1675.964135720175
 40
1675.964135720175
 40
1676.843706905094
 40
1676.843706905094
 40
1677.650513131868
 40
1677.650513131868
 40
1677.650513131868
 40
1677.650513131868
 10
2464.034596322247
 20
4043.939783616859
 30
0.0
 10
2464.033979637098
 20
4043.923763111155
 30
0.0
 10
2464.033362951949
 20
4043.907742605451
 30
0.0
 10
2464.0327462668
 20
4043.891722099744
 30
0.0
 10
2464.032746014157
 20
4043.891715536477
 30
0.0
 10
2464.032745761514
 20
4043.891708973208
 30
0.0
 10
2464.032745508871
 20
4043.891702409941
 30
0.0
 10
2463.457494208572
 20
4028.947568775225
 30
0.0
 10
2462.882553693948
 20
4014.010167603845
 30
0.0
 10
2462.344026558654
 20
3990.09951541473
 30
0.0
 10
2462.226393818021
 20
3981.193073443183
 30
0.0
 10
2462.25590532068
 20
3960.58720449771
 30
0.0
 10
2462.49305561117
 20
3948.832598870033
 30
0.0
 10
2463.610912540838
 20
3925.29091776466
 30
0.0
 10
2464.491559823067
 20
3913.506156578466
 30
0.0
 10
2468.401037187906
 20
3878.423637298898
 30
0.0
 10
2472.697934779931
 20
3855.398117884745
 30
0.0
 10
2482.100884090011
 20
3825.162377196522
 30
0.0
 10
2485.084907963902
 20
3816.932681774752
 30
0.0
 10
2491.240792574162
 20
3802.434955273444
 30
0.0
 10
2494.271546064015
 20
3796.091618679153
 30
0.0
 10
2500.923812511454
 20
3783.743019686599
 30
0.0
 10
2504.540154276526
 20
3777.733263416163
 30
0.0
 10
2516.19380620392
 20
3760.188981992991
 30
0.0
 10
2525.035844022347
 20
3749.139351102653
 30
0.0
 10
2561.70652878859
 20
3709.884092893297
 30
0.0
 10
2595.497093623079
 20
3685.836445081545
 30
0.0
 10
2644.904841250556
 20
3659.429555186553
 30
0.0
 10
2657.809673896475
 20
3653.226132207239
 30
0.0
 10
2680.756008956895
 20
3643.219179791764
 30
0.0
 10
2690.707982862737
 20
3639.203150772732
 30
0.0
 10
2709.136744191784
 20
3632.295248765966
 30
0.0
 10
2717.598479188818
 20
3629.325986869071
 30
0.0
 10
2742.979923018799
 20
3620.97094054795
 30
0.0
 10
2759.890389468249
 20
3616.138756578583
 30
0.0
 10
2823.545092119062
 20
3600.470993234043
 30
0.0
 10
2870.303200219231
 20
3594.079019963758
 30
0.0
 10
2931.105121107811
 20
3590.562497090485
 30
0.0
 10
2944.892925839643
 20
3590.080833845112
 30
0.0
 10
2986.347625493437
 20
3589.470714167442
 30
0.0
 10
3014.105834751333
 20
3590.177147996981
 30
0.0
 10
3055.296665089241
 20
3592.434522771958
 30
0.0
 10
3068.594999658125
 20
3593.346916367698
 30
0.0
 10
3090.929849228146
 20
3595.133338998714
 30
0.0
 10
3099.944672393783
 20
3595.918791368562
 30
0.0
 10
3117.996055540852
 20
3597.641045456358
 30
0.0
 10
3127.031551191395
 20
3598.580322832904
 30
0.0
 10
3154.120886732189
 20
3601.687658841182
 30
0.0
 10
3172.157577067665
 20
3604.14523915803
 30
0.0
 10
3225.826345102876
 20
3613.115898380618
 30
0.0
 10
3261.016761409524
 20
3621.227233672266
 30
0.0
 10
3306.511581458114
 20
3636.674085224802
 30
0.0
 10
3318.199349410097
 20
3641.122193993032
 30
0.0
 10
3352.538803389162
 20
3655.85925496829
 30
0.0
 10
3374.465957570944
 20
3667.541630057755
 30
0.0
 10
3415.699466680963
 20
3695.444000406309
 30
0.0
 10
3435.007506274079
 20
3711.639689019782
 30
0.0
 10
3459.970989926475
 20
3737.446144596774
 30
0.0
 10
3467.084090954738
 20
3745.476043191901
 30
0.0
 10
3480.510601016324
 20
3762.069476640476
 30
0.0
 10
3486.833365132284
 20
3770.624520010841
 30
0.0
 10
3497.154857832568
 20
3785.987171885669
 30
0.0
 10
3501.327059405206
 20
3792.661845449764
 30
0.0
 10
3513.975165490171
 20
3814.495511901141
 30
0.0
 10
3521.622408352046
 20
3830.230251408345
 30
0.0
 10
3541.209281595782
 20
3875.523230226177
 30
0.0
 10
3551.490145030058
 20
3905.784480897871
 30
0.0
 10
3563.552505758104
 20
3940.513262770384
 30
0.0
 10
3565.631581867666
 20
3946.469785235359
 30
0.0
 10
3569.020578121276
 20
3956.003362597965
 30
0.0
 10
3570.327104601219
 20
3959.636513935222
 30
0.0
 10
3572.738114004479
 20
3966.22889311645
 30
0.0
 10
3573.840514004726
 20
3969.200749205802
 30
0.0
 10
3576.072016613837
 20
3975.109812877096
 30
0.0
 10
3577.202880288945
 20
3978.040333024341
 30
0.0
 10
3579.465586380365
 20
3983.872465903942
 30
0.0
 10
3580.597161098574
 20
3986.777061495899
 30
0.0
 10
3583.96430420631
 20
3995.56266380444
 30
0.0
 10
3586.172192190093
 20
4001.515290548939
 30
0.0
 10
3588.918364824288
 20
4009.807434516295
 30
0.0
 10
3589.556259626677
 20
4011.801792352364
 30
0.0
 10
3591.431964532973
 20
4017.919799228521
 30
0.0
 10
3592.631813066372
 20
4022.17838699553
 30
0.0
 10
3594.211121781557
 20
4028.466297801764
 30
0.0
 10
3594.647927839194
 20
4030.286448185115
 30
0.0
 10
3595.923222101584
 20
4035.875695678214
 30
0.0
 10
3596.726214221534
 20
4039.77227470682
 30
0.0
 10
3598.07045783364
 20
4047.146753154031
 30
0.0
 10
3598.638787805859
 20
4050.566076092212
 30
0.0
 10
3599.922883202367
 20
4056.422899891908
 30
0.0
 10
3600.583544440285
 20
4058.918357265067
 30
0.0
 10
3602.079704090838
 20
4062.861890028549
 30
0.0
 10
3602.829238508327
 20
4064.417052913655
 30
0.0
 10
3604.455975129796
 20
4066.824169444387
 30
0.0
 10
3605.266966520249
 20
4067.756367190269
 30
0.0
 10
3607.147070740587
 20
4069.292474585139
 30
0.0
 10
3608.218144381665
 20
4069.89337943675
 30
0.0
 10
3609.863053334539
 20
4070.412912275346
 30
0.0
 10
3610.330771269161
 20
4070.523633135291
 30
0.0
 10
3611.134206000186
 20
4070.652363760078
 30
0.0
 10
3611.460993886399
 20
4070.689094772212
 30
0.0
 10
3612.112772932075
 20
4070.731994195676
 30
0.0
 10
3612.434268871478
 20
4070.738145406269
 30
0.0
 10
3613.032202305245
 20
4070.736324232822
 30
0.0
 10
3613.31282447972
 20
4070.729843635328
 30
0.0
 10
3613.58542090117
 20
4070.723631036463
 30
0.0
  0
LINE
  5
453
330
1F
100
AcDbEntity
  8
0
100
AcDbLine
 10
2929.403046887798
 20
2121.255092912401
 30
0.0
 11
2931.653046887798
 21
2121.255092912401
 31
0.0
  0
LINE
  5
454
330
1F
100
AcDbEntity
  8
0
100
AcDbLine
 10
2933.103046887795
 20
2121.255092912401
 30
0.0
 11
2933.903046887798
 21
2121.255092912401
 31
0.0
  0
LINE
  5
455
330
1F
100
AcDbEntity
  8
0
100
AcDbLine
 10
2933.903046887798
 20
2121.255092912401
 30
0.0
 11
2933.903046887798
 21
1924.255092912401
 31
0.0
  0
LINE
  5
456
330
1F
100
AcDbEntity
  8
0
100
AcDbLine
 10
2929.403046887798
 20
1924.255092912401
 30
0.0
 11
2929.403046887798
 21
2121.255092912401
 31
0.0
  0
LINE
  5
457
330
1F
100
AcDbEntity
  8
0
100
AcDbLine
 10
2929.403046887799
 20
1924.255092912401
 30
0.0
 11
2931.653046887798
 21
1924.255092912401
 31
0.0
  0
LINE
  5
458
330
1F
100
AcDbEntity
  8
0
100
AcDbLine
 10
2933.103046887795
 20
2121.255092912401
 30
0.0
 11
2931.653046887798
 21
2121.255092912401
 31
0.0
  0
LINE
  5
459
330
1F
100
AcDbEntity
  8
0
100
AcDbLine
 10
2920.353046887798
 20
1911.157233054953
 30
0.0
 11
2923.216968244058
 21
1911.157233054953
 31
0.0
  0
LINE
  5
45A
330
1F
100
AcDbEntity
  8
0
100
AcDbLine
 10
2940.214125531564
 20
1911.157233054954
 30
0.0
 11
2942.953046887799
 21
1911.157233054954
 31
0.0
  0
ARC
  5
45B
330
1F
100
AcDbEntity
  8
0
100
AcDbCircle
 10
2931.653046887797
 20
1894.661958079419
 30
0.0
 40
20.0
100
AcDbArc
 50
55.59770869049224
 51
78.46304096719463
  0
ARC
  5
45C
330
1F
100
AcDbEntity
  8
0
100
AcDbCircle
 10
2931.653046887797
 20
1894.661958079419
 30
0.0
 40
20.0
100
AcDbArc
 50
101.5369590328054
 51
124.4022913094426
  0
LINE
  5
45D
330
1F
100
AcDbEntity
  8
0
100
AcDbLine
 10
2920.353046887798
 20
1911.163776161073
 30
0.0
 11
2920.353046887799
 21
1911.157233054953
 31
0.0
  0
LINE
  5
45E
330
1F
100
AcDbEntity
  8
0
100
AcDbLine
 10
2942.953046887799
 20
1911.163776161072
 30
0.0
 11
2942.953046887799
 21
1911.157233054953
 31
0.0
  0
LINE
  5
45F
330
1F
100
AcDbEntity
  8
0
100
AcDbLine
 10
2935.653046887799
 20
1914.257876021684
 30
0.0
 11
2935.653046887797
 21
1919.755092912403
 31
0.0
  0
LINE
  5
460
330
1F
100
AcDbEntity
  8
0
100
AcDbLine
 10
2927.653046887797
 20
1914.257876021684
 30
0.0
 11
2927.653046887798
 21
1919.755092912403
 31
0.0
  0
LINE
  5
461
330
1F
100
AcDbEntity
  8
0
100
AcDbLine
 10
2929.32661043199
 20
1924.255092912401
 30
0.0
 11
2933.979483343606
 21
1924.255092912401
 31
0.0
  0
LINE
  5
462
330
1F
100
AcDbEntity
  8
0
100
AcDbLine
 10
2935.653046887797
 20
1919.755092912403
 30
0.0
 11
2934.472680305523
 21
1923.837292406054
 31
0.0
  0
ARC
  5
463
330
1F
100
AcDbEntity
  8
0
100
AcDbCircle
 10
2933.979483343606
 20
1923.755092912401
 30
0.0
 40
0.5
100
AcDbArc
 50
9.462322208021333
 51
90.0
  0
LINE
  5
464
330
1F
100
AcDbEntity
  8
0
100
AcDbLine
 10
2928.833413470074
 20
1923.837292406054
 30
0.0
 11
2927.653046887798
 21
1919.755092912403
 31
0.0
  0
ARC
  5
465
330
1F
100
AcDbEntity
  8
0
100
AcDbCircle
 10
2929.32661043199
 20
1923.755092912401
 30
0.0
 40
0.5
100
AcDbArc
 50
90.0
 51
170.5376777919658
  0
ARC
  5
466
330
1F
100
AcDbEntity
  8
0
100
AcDbCircle
 10
2931.715546887813
 20
1894.661958079419
 30
0.0
 40
20.0
100
AcDbArc
 50
124.4354536119639
 51
55.5645463880361
  0
LINE
  5
467
330
1F
100
AcDbEntity
  8
0
100
AcDbLine
 10
2920.405997671265
 20
1911.157233054953
 30
0.0
 11
2943.025096104362
 21
1911.157233054952
 31
0.0
  0
LINE
  5
468
102
{ACAD_REACTORS
330
509
330
512
102
}
330
1F
100
AcDbEntity
  8
0
100
AcDbLine
 10
2437.783670572152
 20
4084.939783616859
 30
0.0
 11
2557.783670572152
 21
4084.939783616859
 31
0.0
  0
LINE
  5
469
102
{ACAD_REACTORS
330
506
102
}
330
1F
100
AcDbEntity
  8
0
100
AcDbLine
 10
2557.783670572152
 20
4084.939783616859
 30
0.0
 11
2557.783670572152
 21
4045.439783616859
 31
0.0
  0
ARC
  5
46A
330
1F
100
AcDbEntity
  8
0
100
AcDbCircle
 10
2556.283670572152
 20
4045.439783616859
 30
0.0
 40
1.5
100
AcDbArc
 50
270.0
 51
0.0
  0
LINE
  5
46B
102
{ACAD_REACTORS
330
509
102
}
330
1F
100
AcDbEntity
  8
0
100
AcDbLine
 10
2556.283670572152
 20
4043.939783616859
 30
0.0
 11
2439.283670572152
 21
4043.939783616859
 31
0.0
  0
ARC
  5
46C
330
1F
100
AcDbEntity
  8
0
100
AcDbCircle
 10
2439.283670572152
 20
4045.439783616859
 30
0.0
 40
1.5
100
AcDbArc
 50
180.0
 51
270.0
  0
LINE
  5
46D
102
{ACAD_REACTORS
330
506
330
518
102
}
330
1F
100
AcDbEntity
  8
0
100
AcDbLine
 10
2437.783670572152
 20
4045.439783616859
 30
0.0
 11
2437.783670572152
 21
4084.939783616859
 31
0.0
  0
LINE
  5
46E
330
1F
100
AcDbEntity
  8
0
100
AcDbLine
 10
2556.283670572152
 20
4084.939783616859
 30
0.0
 11
2556.283670572152
 21
4045.439783616859
 31
0.0
  0
LINE
  5
46F
330
1F
100
AcDbEntity
  8
0
100
AcDbLine
 10
2556.283670572152
 20
4045.439783616859
 30
0.0
 11
2439.283670572152
 21
4045.439783616859
 31
0.0
  0
LINE
  5
470
330
1F
100
AcDbEntity
  8
0
100
AcDbLine
 10
2439.283670572152
 20
4045.439783616859
 30
0.0
 11
2439.283670572152
 21
4084.939783616859
 31
0.0
  0
LINE
  5
471
330
1F
100
AcDbEntity
  8
0
100
AcDbLine
 10
3029.403046887798
 20
2233.50879943683
 30
0.0
 11
3031.653046887798
 21
2233.50879943683
 31
0.0
  0
LINE
  5
472
330
1F
100
AcDbEntity
  8
0
100
AcDbLine
 10
3033.103046887795
 20
2233.50879943683
 30
0.0
 11
3033.903046887798
 21
2233.50879943683
 31
0.0
  0
LINE
  5
473
330
1F
100
AcDbEntity
  8
0
100
AcDbLine
 10
3033.903046887798
 20
2233.50879943683
 30
0.0
 11
3033.903046887798
 21
2036.50879943683
 31
0.0
  0
LINE
  5
474
330
1F
100
AcDbEntity
  8
0
100
AcDbLine
 10
3029.403046887798
 20
2036.50879943683
 30
0.0
 11
3029.403046887798
 21
2233.50879943683
 31
0.0
  0
LINE
  5
475
330
1F
100
AcDbEntity
  8
0
100
AcDbLine
 10
3029.403046887799
 20
2036.50879943683
 30
0.0
 11
3031.653046887798
 21
2036.50879943683
 31
0.0
  0
LINE
  5
476
330
1F
100
AcDbEntity
  8
0
100
AcDbLine
 10
3033.103046887795
 20
2233.50879943683
 30
0.0
 11
3031.653046887798
 21
2233.50879943683
 31
0.0
  0
LINE
  5
477
330
1F
100
AcDbEntity
  8
0
100
AcDbLine
 10
3020.353046887798
 20
2023.410939579382
 30
0.0
 11
3023.216968244058
 21
2023.410939579382
 31
0.0
  0
LINE
  5
478
330
1F
100
AcDbEntity
  8
0
100
AcDbLine
 10
3040.214125531564
 20
2023.410939579383
 30
0.0
 11
3042.953046887799
 21
2023.410939579383
 31
0.0
  0
ARC
  5
479
330
1F
100
AcDbEntity
  8
0
100
AcDbCircle
 10
3031.653046887797
 20
2006.915664603848
 30
0.0
 40
20.0
100
AcDbArc
 50
55.59770869049224
 51
78.46304096719463
  0
ARC
  5
47A
330
1F
100
AcDbEntity
  8
0
100
AcDbCircle
 10
3031.653046887797
 20
2006.915664603848
 30
0.0
 40
20.0
100
AcDbArc
 50
101.5369590328054
 51
124.4022913094426
  0
LINE
  5
47B
330
1F
100
AcDbEntity
  8
0
100
AcDbLine
 10
3020.353046887798
 20
2023.417482685502
 30
0.0
 11
3020.353046887799
 21
2023.410939579382
 31
0.0
  0
LINE
  5
47C
330
1F
100
AcDbEntity
  8
0
100
AcDbLine
 10
3042.953046887799
 20
2023.417482685501
 30
0.0
 11
3042.953046887799
 21
2023.410939579382
 31
0.0
  0
LINE
  5
47D
330
1F
100
AcDbEntity
  8
0
100
AcDbLine
 10
3035.653046887799
 20
2026.511582546113
 30
0.0
 11
3035.653046887798
 21
2032.008799436832
 31
0.0
  0
LINE
  5
47E
330
1F
100
AcDbEntity
  8
0
100
AcDbLine
 10
3027.653046887798
 20
2026.511582546113
 30
0.0
 11
3027.653046887798
 21
2032.008799436832
 31
0.0
  0
LINE
  5
47F
330
1F
100
AcDbEntity
  8
0
100
AcDbLine
 10
3029.32661043199
 20
2036.50879943683
 30
0.0
 11
3033.979483343606
 21
2036.50879943683
 31
0.0
  0
LINE
  5
480
330
1F
100
AcDbEntity
  8
0
100
AcDbLine
 10
3035.653046887798
 20
2032.008799436832
 30
0.0
 11
3034.472680305523
 21
2036.090998930482
 31
0.0
  0
ARC
  5
481
330
1F
100
AcDbEntity
  8
0
100
AcDbCircle
 10
3033.979483343606
 20
2036.00879943683
 30
0.0
 40
0.5
100
AcDbArc
 50
9.462322208021333
 51
90.0
  0
LINE
  5
482
330
1F
100
AcDbEntity
  8
0
100
AcDbLine
 10
3028.833413470074
 20
2036.090998930482
 30
0.0
 11
3027.653046887798
 21
2032.008799436832
 31
0.0
  0
ARC
  5
483
330
1F
100
AcDbEntity
  8
0
100
AcDbCircle
 10
3029.32661043199
 20
2036.00879943683
 30
0.0
 40
0.5
100
AcDbArc
 50
90.0
 51
170.5376777919658
  0
ARC
  5
484
330
1F
100
AcDbEntity
  8
0
100
AcDbCircle
 10
3031.715546887813
 20
2006.915664603848
 30
0.0
 40
20.0
100
AcDbArc
 50
124.4354536119639
 51
55.5645463880361
  0
LINE
  5
485
330
1F
100
AcDbEntity
  8
0
100
AcDbLine
 10
3020.405997671265
 20
2023.410939579382
 30
0.0
 11
3043.025096104362
 21
2023.410939579381
 31
0.0
  0
LINE
  5
486
330
1F
100
AcDbEntity
  8
0
100
AcDbLine
 10
3129.403046887795
 20
2326.333985660363
 30
0.0
 11
3131.653046887795
 21
2326.333985660363
 31
0.0
  0
LINE
  5
487
330
1F
100
AcDbEntity
  8
0
100
AcDbLine
 10
3133.103046887792
 20
2326.333985660363
 30
0.0
 11
3133.903046887795
 21
2326.333985660363
 31
0.0
  0
LINE
  5
488
330
1F
100
AcDbEntity
  8
0
100
AcDbLine
 10
3133.903046887795
 20
2326.333985660363
 30
0.0
 11
3133.903046887795
 21
2129.333985660363
 31
0.0
  0
LINE
  5
489
330
1F
100
AcDbEntity
  8
0
100
AcDbLine
 10
3129.403046887795
 20
2129.333985660363
 30
0.0
 11
3129.403046887795
 21
2326.333985660363
 31
0.0
  0
LINE
  5
48A
330
1F
100
AcDbEntity
  8
0
100
AcDbLine
 10
3129.403046887796
 20
2129.333985660363
 30
0.0
 11
3131.653046887795
 21
2129.333985660363
 31
0.0
  0
LINE
  5
48B
330
1F
100
AcDbEntity
  8
0
100
AcDbLine
 10
3133.103046887792
 20
2326.333985660363
 30
0.0
 11
3131.653046887795
 21
2326.333985660363
 31
0.0
  0
LINE
  5
48C
330
1F
100
AcDbEntity
  8
0
100
AcDbLine
 10
3120.353046887795
 20
2116.236125802915
 30
0.0
 11
3123.216968244055
 21
2116.236125802916
 31
0.0
  0
LINE
  5
48D
330
1F
100
AcDbEntity
  8
0
100
AcDbLine
 10
3140.21412553156
 20
2116.236125802917
 30
0.0
 11
3142.953046887796
 21
2116.236125802917
 31
0.0
  0
ARC
  5
48E
330
1F
100
AcDbEntity
  8
0
100
AcDbCircle
 10
3131.653046887794
 20
2099.740850827381
 30
0.0
 40
20.0
100
AcDbArc
 50
55.59770869049224
 51
78.46304096719463
  0
ARC
  5
48F
330
1F
100
AcDbEntity
  8
0
100
AcDbCircle
 10
3131.653046887794
 20
2099.740850827381
 30
0.0
 40
20.0
100
AcDbArc
 50
101.5369590328054
 51
124.4022913094426
  0
LINE
  5
490
330
1F
100
AcDbEntity
  8
0
100
AcDbLine
 10
3120.353046887795
 20
2116.242668909036
 30
0.0
 11
3120.353046887796
 21
2116.236125802915
 31
0.0
  0
LINE
  5
491
330
1F
100
AcDbEntity
  8
0
100
AcDbLine
 10
3142.953046887795
 20
2116.242668909035
 30
0.0
 11
3142.953046887796
 21
2116.236125802916
 31
0.0
  0
LINE
  5
492
330
1F
100
AcDbEntity
  8
0
100
AcDbLine
 10
3135.653046887796
 20
2119.336768769647
 30
0.0
 11
3135.653046887794
 21
2124.833985660366
 31
0.0
  0
LINE
  5
493
330
1F
100
AcDbEntity
  8
0
100
AcDbLine
 10
3127.653046887794
 20
2119.336768769647
 30
0.0
 11
3127.653046887795
 21
2124.833985660366
 31
0.0
  0
LINE
  5
494
330
1F
100
AcDbEntity
  8
0
100
AcDbLine
 10
3129.326610431987
 20
2129.333985660363
 30
0.0
 11
3133.979483343603
 21
2129.333985660363
 31
0.0
  0
LINE
  5
495
330
1F
100
AcDbEntity
  8
0
100
AcDbLine
 10
3135.653046887794
 20
2124.833985660366
 30
0.0
 11
3134.472680305519
 21
2128.916185154016
 31
0.0
  0
ARC
  5
496
330
1F
100
AcDbEntity
  8
0
100
AcDbCircle
 10
3133.979483343603
 20
2128.833985660364
 30
0.0
 40
0.5
100
AcDbArc
 50
9.462322208021333
 51
90.0
  0
LINE
  5
497
330
1F
100
AcDbEntity
  8
0
100
AcDbLine
 10
3128.83341347007
 20
2128.916185154016
 30
0.0
 11
3127.653046887795
 21
2124.833985660366
 31
0.0
  0
ARC
  5
498
330
1F
100
AcDbEntity
  8
0
100
AcDbCircle
 10
3129.326610431987
 20
2128.833985660364
 30
0.0
 40
0.5
100
AcDbArc
 50
90.0
 51
170.5376777919658
  0
ARC
  5
499
330
1F
100
AcDbEntity
  8
0
100
AcDbCircle
 10
3131.715546887809
 20
2099.740850827382
 30
0.0
 40
20.0
100
AcDbArc
 50
124.4354536119639
 51
55.5645463880361
  0
LINE
  5
49A
330
1F
100
AcDbEntity
  8
0
100
AcDbLine
 10
3120.405997671262
 20
2116.236125802916
 30
0.0
 11
3143.025096104359
 21
2116.236125802915
 31
0.0
  0
LINE
  5
49B
330
1F
100
AcDbEntity
  8
0
100
AcDbLine
 10
3229.403046887799
 20
2177.211713302371
 30
0.0
 11
3231.653046887799
 21
2177.211713302371
 31
0.0
  0
LINE
  5
49C
330
1F
100
AcDbEntity
  8
0
100
AcDbLine
 10
3233.103046887796
 20
2177.211713302371
 30
0.0
 11
3233.903046887798
 21
2177.211713302371
 31
0.0
  0
LINE
  5
49D
330
1F
100
AcDbEntity
  8
0
100
AcDbLine
 10
3233.903046887798
 20
2177.211713302371
 30
0.0
 11
3233.903046887798
 21
1980.211713302371
 31
0.0
  0
LINE
  5
49E
330
1F
100
AcDbEntity
  8
0
100
AcDbLine
 10
3229.403046887799
 20
1980.211713302371
 30
0.0
 11
3229.403046887799
 21
2177.211713302371
 31
0.0
  0
LINE
  5
49F
330
1F
100
AcDbEntity
  8
0
100
AcDbLine
 10
3229.403046887799
 20
1980.211713302371
 30
0.0
 11
3231.653046887799
 21
1980.211713302371
 31
0.0
  0
LINE
  5
4A0
330
1F
100
AcDbEntity
  8
0
100
AcDbLine
 10
3233.103046887796
 20
2177.211713302371
 30
0.0
 11
3231.653046887799
 21
2177.211713302371
 31
0.0
  0
LINE
  5
4A1
330
1F
100
AcDbEntity
  8
0
100
AcDbLine
 10
3220.353046887798
 20
1967.113853444923
 30
0.0
 11
3223.216968244059
 21
1967.113853444923
 31
0.0
  0
LINE
  5
4A2
330
1F
100
AcDbEntity
  8
0
100
AcDbLine
 10
3240.214125531564
 20
1967.113853444924
 30
0.0
 11
3242.953046887799
 21
1967.113853444924
 31
0.0
  0
ARC
  5
4A3
330
1F
100
AcDbEntity
  8
0
100
AcDbCircle
 10
3231.653046887797
 20
1950.618578469389
 30
0.0
 40
20.0
100
AcDbArc
 50
55.59770869049224
 51
78.46304096719463
  0
ARC
  5
4A4
330
1F
100
AcDbEntity
  8
0
100
AcDbCircle
 10
3231.653046887797
 20
1950.618578469389
 30
0.0
 40
20.0
100
AcDbArc
 50
101.5369590328054
 51
124.4022913094426
  0
LINE
  5
4A5
330
1F
100
AcDbEntity
  8
0
100
AcDbLine
 10
3220.353046887798
 20
1967.120396551043
 30
0.0
 11
3220.353046887799
 21
1967.113853444923
 31
0.0
  0
LINE
  5
4A6
330
1F
100
AcDbEntity
  8
0
100
AcDbLine
 10
3242.953046887798
 20
1967.120396551042
 30
0.0
 11
3242.953046887799
 21
1967.113853444923
 31
0.0
  0
LINE
  5
4A7
330
1F
100
AcDbEntity
  8
0
100
AcDbLine
 10
3235.653046887799
 20
1970.214496411654
 30
0.0
 11
3235.653046887797
 21
1975.711713302374
 31
0.0
  0
LINE
  5
4A8
330
1F
100
AcDbEntity
  8
0
100
AcDbLine
 10
3227.653046887797
 20
1970.214496411654
 30
0.0
 11
3227.653046887798
 21
1975.711713302374
 31
0.0
  0
LINE
  5
4A9
330
1F
100
AcDbEntity
  8
0
100
AcDbLine
 10
3229.32661043199
 20
1980.211713302371
 30
0.0
 11
3233.979483343607
 21
1980.211713302371
 31
0.0
  0
LINE
  5
4AA
330
1F
100
AcDbEntity
  8
0
100
AcDbLine
 10
3235.653046887797
 20
1975.711713302374
 30
0.0
 11
3234.472680305523
 21
1979.793912796024
 31
0.0
  0
ARC
  5
4AB
330
1F
100
AcDbEntity
  8
0
100
AcDbCircle
 10
3233.979483343607
 20
1979.711713302371
 30
0.0
 40
0.5
100
AcDbArc
 50
9.462322208021333
 51
90.0
  0
LINE
  5
4AC
330
1F
100
AcDbEntity
  8
0
100
AcDbLine
 10
3228.833413470074
 20
1979.793912796024
 30
0.0
 11
3227.653046887798
 21
1975.711713302374
 31
0.0
  0
ARC
  5
4AD
330
1F
100
AcDbEntity
  8
0
100
AcDbCircle
 10
3229.32661043199
 20
1979.711713302371
 30
0.0
 40
0.5
100
AcDbArc
 50
90.0
 51
170.5376777919658
  0
ARC
  5
4AE
330
1F
100
AcDbEntity
  8
0
100
AcDbCircle
 10
3231.715546887813
 20
1950.618578469389
 30
0.0
 40
20.0
100
AcDbArc
 50
124.4354536119639
 51
55.5645463880361
  0
LINE
  5
4AF
330
1F
100
AcDbEntity
  8
0
100
AcDbLine
 10
3220.405997671265
 20
1967.113853444924
 30
0.0
 11
3243.025096104362
 21
1967.113853444922
 31
0.0
  0
LINE
  5
4B0
330
1F
100
AcDbEntity
  8
0
100
AcDbLine
 10
3329.403046887799
 20
2051.862558474681
 30
0.0
 11
3331.653046887799
 21
2051.862558474681
 31
0.0
  0
LINE
  5
4B1
330
1F
100
AcDbEntity
  8
0
100
AcDbLine
 10
3333.103046887796
 20
2051.862558474681
 30
0.0
 11
3333.903046887798
 21
2051.862558474681
 31
0.0
  0
LINE
  5
4B2
330
1F
100
AcDbEntity
  8
0
100
AcDbLine
 10
3333.903046887798
 20
2051.862558474681
 30
0.0
 11
3333.903046887798
 21
1854.862558474681
 31
0.0
  0
LINE
  5
4B3
330
1F
100
AcDbEntity
  8
0
100
AcDbLine
 10
3329.403046887799
 20
1854.862558474681
 30
0.0
 11
3329.403046887799
 21
2051.862558474681
 31
0.0
  0
LINE
  5
4B4
330
1F
100
AcDbEntity
  8
0
100
AcDbLine
 10
3329.403046887799
 20
1854.86255847468
 30
0.0
 11
3331.653046887799
 21
1854.862558474681
 31
0.0
  0
LINE
  5
4B5
330
1F
100
AcDbEntity
  8
0
100
AcDbLine
 10
3333.103046887796
 20
2051.862558474681
 30
0.0
 11
3331.653046887799
 21
2051.862558474681
 31
0.0
  0
LINE
  5
4B6
330
1F
100
AcDbEntity
  8
0
100
AcDbLine
 10
3320.353046887798
 20
1841.764698617232
 30
0.0
 11
3323.216968244059
 21
1841.764698617233
 31
0.0
  0
LINE
  5
4B7
330
1F
100
AcDbEntity
  8
0
100
AcDbLine
 10
3340.214125531564
 20
1841.764698617233
 30
0.0
 11
3342.953046887799
 21
1841.764698617234
 31
0.0
  0
ARC
  5
4B8
330
1F
100
AcDbEntity
  8
0
100
AcDbCircle
 10
3331.653046887797
 20
1825.269423641698
 30
0.0
 40
20.0
100
AcDbArc
 50
55.59770869049224
 51
78.46304096719463
  0
ARC
  5
4B9
330
1F
100
AcDbEntity
  8
0
100
AcDbCircle
 10
3331.653046887797
 20
1825.269423641698
 30
0.0
 40
20.0
100
AcDbArc
 50
101.5369590328054
 51
124.4022913094426
  0
LINE
  5
4BA
330
1F
100
AcDbEntity
  8
0
100
AcDbLine
 10
3320.353046887798
 20
1841.771241723353
 30
0.0
 11
3320.353046887799
 21
1841.764698617232
 31
0.0
  0
LINE
  5
4BB
330
1F
100
AcDbEntity
  8
0
100
AcDbLine
 10
3342.953046887799
 20
1841.771241723352
 30
0.0
 11
3342.953046887799
 21
1841.764698617233
 31
0.0
  0
LINE
  5
4BC
330
1F
100
AcDbEntity
  8
0
100
AcDbLine
 10
3335.653046887799
 20
1844.865341583964
 30
0.0
 11
3335.653046887797
 21
1850.362558474683
 31
0.0
  0
LINE
  5
4BD
330
1F
100
AcDbEntity
  8
0
100
AcDbLine
 10
3327.653046887797
 20
1844.865341583964
 30
0.0
 11
3327.653046887798
 21
1850.362558474683
 31
0.0
  0
LINE
  5
4BE
330
1F
100
AcDbEntity
  8
0
100
AcDbLine
 10
3329.32661043199
 20
1854.86255847468
 30
0.0
 11
3333.979483343607
 21
1854.86255847468
 31
0.0
  0
LINE
  5
4BF
330
1F
100
AcDbEntity
  8
0
100
AcDbLine
 10
3335.653046887797
 20
1850.362558474683
 30
0.0
 11
3334.472680305523
 21
1854.444757968333
 31
0.0
  0
ARC
  5
4C0
330
1F
100
AcDbEntity
  8
0
100
AcDbCircle
 10
3333.979483343607
 20
1854.36255847468
 30
0.0
 40
0.5
100
AcDbArc
 50
9.462322208021333
 51
90.0
  0
LINE
  5
4C1
330
1F
100
AcDbEntity
  8
0
100
AcDbLine
 10
3328.833413470074
 20
1854.444757968333
 30
0.0
 11
3327.653046887798
 21
1850.362558474683
 31
0.0
  0
ARC
  5
4C2
330
1F
100
AcDbEntity
  8
0
100
AcDbCircle
 10
3329.32661043199
 20
1854.36255847468
 30
0.0
 40
0.5
100
AcDbArc
 50
90.0
 51
170.5376777919658
  0
ARC
  5
4C3
102
{ACAD_REACTORS
330
512
102
}
330
1F
100
AcDbEntity
  8
0
100
AcDbCircle
 10
3331.715546887813
 20
1825.269423641699
 30
0.0
 40
20.0
100
AcDbArc
 50
124.4354536119639
 51
55.5645463880361
  0
LINE
  5
4C4
330
1F
100
AcDbEntity
  8
0
100
AcDbLine
 10
3320.405997671265
 20
1841.764698617233
 30
0.0
 11
3343.025096104362
 21
1841.764698617232
 31
0.0
  0
LINE
  5
4C5
330
1F
100
AcDbEntity
  8
0
100
AcDbLine
 10
3429.403046887799
 20
2185.856482165382
 30
0.0
 11
3431.653046887799
 21
2185.856482165382
 31
0.0
  0
LINE
  5
4C6
330
1F
100
AcDbEntity
  8
0
100
AcDbLine
 10
3433.103046887796
 20
2185.856482165382
 30
0.0
 11
3433.903046887798
 21
2185.856482165382
 31
0.0
  0
LINE
  5
4C7
330
1F
100
AcDbEntity
  8
0
100
AcDbLine
 10
3433.903046887798
 20
2185.856482165382
 30
0.0
 11
3433.903046887798
 21
1988.856482165382
 31
0.0
  0
LINE
  5
4C8
330
1F
100
AcDbEntity
  8
0
100
AcDbLine
 10
3429.403046887799
 20
1988.856482165382
 30
0.0
 11
3429.403046887799
 21
2185.856482165382
 31
0.0
  0
LINE
  5
4C9
330
1F
100
AcDbEntity
  8
0
100
AcDbLine
 10
3429.403046887799
 20
1988.856482165381
 30
0.0
 11
3431.653046887799
 21
1988.856482165382
 31
0.0
  0
LINE
  5
4CA
330
1F
100
AcDbEntity
  8
0
100
AcDbLine
 10
3433.103046887796
 20
2185.856482165382
 30
0.0
 11
3431.653046887799
 21
2185.856482165382
 31
0.0
  0
LINE
  5
4CB
330
1F
100
AcDbEntity
  8
0
100
AcDbLine
 10
3420.353046887798
 20
1975.758622307934
 30
0.0
 11
3423.216968244059
 21
1975.758622307934
 31
0.0
  0
LINE
  5
4CC
330
1F
100
AcDbEntity
  8
0
100
AcDbLine
 10
3440.214125531564
 20
1975.758622307935
 30
0.0
 11
3442.9530468878
 21
1975.758622307935
 31
0.0
  0
ARC
  5
4CD
330
1F
100
AcDbEntity
  8
0
100
AcDbCircle
 10
3431.653046887797
 20
1959.263347332399
 30
0.0
 40
20.0
100
AcDbArc
 50
55.59770869049224
 51
78.46304096719463
  0
ARC
  5
4CE
330
1F
100
AcDbEntity
  8
0
100
AcDbCircle
 10
3431.653046887797
 20
1959.263347332399
 30
0.0
 40
20.0
100
AcDbArc
 50
101.5369590328054
 51
124.4022913094426
  0
LINE
  5
4CF
330
1F
100
AcDbEntity
  8
0
100
AcDbLine
 10
3420.353046887798
 20
1975.765165414054
 30
0.0
 11
3420.353046887799
 21
1975.758622307933
 31
0.0
  0
LINE
  5
4D0
330
1F
100
AcDbEntity
  8
0
100
AcDbLine
 10
3442.953046887799
 20
1975.765165414053
 30
0.0
 11
3442.9530468878
 21
1975.758622307934
 31
0.0
  0
LINE
  5
4D1
330
1F
100
AcDbEntity
  8
0
100
AcDbLine
 10
3435.653046887799
 20
1978.859265274665
 30
0.0
 11
3435.653046887797
 21
1984.356482165384
 31
0.0
  0
LINE
  5
4D2
330
1F
100
AcDbEntity
  8
0
100
AcDbLine
 10
3427.653046887797
 20
1978.859265274665
 30
0.0
 11
3427.653046887798
 21
1984.356482165384
 31
0.0
  0
LINE
  5
4D3
330
1F
100
AcDbEntity
  8
0
100
AcDbLine
 10
3429.326610431991
 20
1988.856482165382
 30
0.0
 11
3433.979483343607
 21
1988.856482165382
 31
0.0
  0
LINE
  5
4D4
330
1F
100
AcDbEntity
  8
0
100
AcDbLine
 10
3435.653046887797
 20
1984.356482165384
 30
0.0
 11
3434.472680305523
 21
1988.438681659035
 31
0.0
  0
ARC
  5
4D5
330
1F
100
AcDbEntity
  8
0
100
AcDbCircle
 10
3433.979483343607
 20
1988.356482165382
 30
0.0
 40
0.5
100
AcDbArc
 50
9.462322208021333
 51
90.0
  0
LINE
  5
4D6
330
1F
100
AcDbEntity
  8
0
100
AcDbLine
 10
3428.833413470073
 20
1988.438681659035
 30
0.0
 11
3427.653046887798
 21
1984.356482165384
 31
0.0
  0
ARC
  5
4D7
330
1F
100
AcDbEntity
  8
0
100
AcDbCircle
 10
3429.326610431991
 20
1988.356482165382
 30
0.0
 40
0.5
100
AcDbArc
 50
90.0
 51
170.5376777919658
  0
ARC
  5
4D8
330
1F
100
AcDbEntity
  8
0
100
AcDbCircle
 10
3431.715546887813
 20
1959.2633473324
 30
0.0
 40
20.0
100
AcDbArc
 50
124.4354536119639
 51
55.5645463880361
  0
LINE
  5
4D9
330
1F
100
AcDbEntity
  8
0
100
AcDbLine
 10
3420.405997671265
 20
1975.758622307935
 30
0.0
 11
3443.025096104362
 21
1975.758622307933
 31
0.0
  0
LINE
  5
4DA
330
1F
100
AcDbEntity
  8
0
100
AcDbLine
 10
3529.403046887799
 20
2093.303551096276
 30
0.0
 11
3531.653046887799
 21
2093.303551096276
 31
0.0
  0
LINE
  5
4DB
330
1F
100
AcDbEntity
  8
0
100
AcDbLine
 10
3533.103046887795
 20
2093.303551096276
 30
0.0
 11
3533.903046887798
 21
2093.303551096276
 31
0.0
  0
LINE
  5
4DC
330
1F
100
AcDbEntity
  8
0
100
AcDbLine
 10
3533.903046887798
 20
2093.303551096276
 30
0.0
 11
3533.903046887798
 21
1896.303551096276
 31
0.0
  0
LINE
  5
4DD
330
1F
100
AcDbEntity
  8
0
100
AcDbLine
 10
3529.403046887799
 20
1896.303551096276
 30
0.0
 11
3529.403046887799
 21
2093.303551096276
 31
0.0
  0
LINE
  5
4DE
330
1F
100
AcDbEntity
  8
0
100
AcDbLine
 10
3529.403046887799
 20
1896.303551096276
 30
0.0
 11
3531.653046887799
 21
1896.303551096276
 31
0.0
  0
LINE
  5
4DF
330
1F
100
AcDbEntity
  8
0
100
AcDbLine
 10
3533.103046887795
 20
2093.303551096276
 30
0.0
 11
3531.653046887799
 21
2093.303551096276
 31
0.0
  0
LINE
  5
4E0
330
1F
100
AcDbEntity
  8
0
100
AcDbLine
 10
3520.353046887798
 20
1883.205691238828
 30
0.0
 11
3523.216968244059
 21
1883.205691238828
 31
0.0
  0
LINE
  5
4E1
330
1F
100
AcDbEntity
  8
0
100
AcDbLine
 10
3540.214125531564
 20
1883.205691238829
 30
0.0
 11
3542.953046887799
 21
1883.205691238829
 31
0.0
  0
ARC
  5
4E2
330
1F
100
AcDbEntity
  8
0
100
AcDbCircle
 10
3531.653046887797
 20
1866.710416263294
 30
0.0
 40
20.0
100
AcDbArc
 50
55.59770869049224
 51
78.46304096719463
  0
ARC
  5
4E3
330
1F
100
AcDbEntity
  8
0
100
AcDbCircle
 10
3531.653046887797
 20
1866.710416263294
 30
0.0
 40
20.0
100
AcDbArc
 50
101.5369590328054
 51
124.4022913094426
  0
LINE
  5
4E4
330
1F
100
AcDbEntity
  8
0
100
AcDbLine
 10
3520.353046887798
 20
1883.212234344949
 30
0.0
 11
3520.353046887799
 21
1883.205691238828
 31
0.0
  0
LINE
  5
4E5
330
1F
100
AcDbEntity
  8
0
100
AcDbLine
 10
3542.953046887799
 20
1883.212234344948
 30
0.0
 11
3542.953046887799
 21
1883.205691238828
 31
0.0
  0
LINE
  5
4E6
330
1F
100
AcDbEntity
  8
0
100
AcDbLine
 10
3535.653046887799
 20
1886.306334205559
 30
0.0
 11
3535.653046887797
 21
1891.803551096279
 31
0.0
  0
LINE
  5
4E7
330
1F
100
AcDbEntity
  8
0
100
AcDbLine
 10
3527.653046887798
 20
1886.30633420556
 30
0.0
 11
3527.653046887798
 21
1891.803551096279
 31
0.0
  0
LINE
  5
4E8
330
1F
100
AcDbEntity
  8
0
100
AcDbLine
 10
3529.32661043199
 20
1896.303551096276
 30
0.0
 11
3533.979483343607
 21
1896.303551096276
 31
0.0
  0
LINE
  5
4E9
330
1F
100
AcDbEntity
  8
0
100
AcDbLine
 10
3535.653046887797
 20
1891.803551096279
 30
0.0
 11
3534.472680305523
 21
1895.885750589929
 31
0.0
  0
ARC
  5
4EA
330
1F
100
AcDbEntity
  8
0
100
AcDbCircle
 10
3533.979483343607
 20
1895.803551096276
 30
0.0
 40
0.5
100
AcDbArc
 50
9.462322208021333
 51
90.0
  0
LINE
  5
4EB
330
1F
100
AcDbEntity
  8
0
100
AcDbLine
 10
3528.833413470073
 20
1895.885750589929
 30
0.0
 11
3527.653046887798
 21
1891.803551096279
 31
0.0
  0
ARC
  5
4EC
330
1F
100
AcDbEntity
  8
0
100
AcDbCircle
 10
3529.32661043199
 20
1895.803551096276
 30
0.0
 40
0.5
100
AcDbArc
 50
90.0
 51
170.5376777919658
  0
ARC
  5
4ED
330
1F
100
AcDbEntity
  8
0
100
AcDbCircle
 10
3531.715546887813
 20
1866.710416263294
 30
0.0
 40
20.0
100
AcDbArc
 50
124.4354536119639
 51
55.5645463880361
  0
LINE
  5
4EE
330
1F
100
AcDbEntity
  8
0
100
AcDbLine
 10
3520.405997671265
 20
1883.205691238829
 30
0.0
 11
3543.025096104362
 21
1883.205691238827
 31
0.0
  0
LINE
  5
4EF
330
1F
100
AcDbEntity
  8
0
100
AcDbLine
 10
3629.403046887798
 20
2250.432615252441
 30
0.0
 11
3631.653046887798
 21
2250.432615252441
 31
0.0
  0
LINE
  5
4F0
330
1F
100
AcDbEntity
  8
0
100
AcDbLine
 10
3633.103046887796
 20
2250.432615252441
 30
0.0
 11
3633.903046887798
 21
2250.432615252441
 31
0.0
  0
LINE
  5
4F1
330
1F
100
AcDbEntity
  8
0
100
AcDbLine
 10
3633.903046887798
 20
2250.432615252441
 30
0.0
 11
3633.903046887798
 21
2053.432615252441
 31
0.0
  0
LINE
  5
4F2
330
1F
100
AcDbEntity
  8
0
100
AcDbLine
 10
3629.403046887798
 20
2053.432615252441
 30
0.0
 11
3629.403046887798
 21
2250.432615252441
 31
0.0
  0
LINE
  5
4F3
330
1F
100
AcDbEntity
  8
0
100
AcDbLine
 10
3629.403046887799
 20
2053.432615252441
 30
0.0
 11
3631.653046887798
 21
2053.432615252441
 31
0.0
  0
LINE
  5
4F4
330
1F
100
AcDbEntity
  8
0
100
AcDbLine
 10
3633.103046887796
 20
2250.432615252441
 30
0.0
 11
3631.653046887798
 21
2250.432615252441
 31
0.0
  0
LINE
  5
4F5
330
1F
100
AcDbEntity
  8
0
100
AcDbLine
 10
3620.353046887798
 20
2040.334755394993
 30
0.0
 11
3623.216968244058
 21
2040.334755394993
 31
0.0
  0
LINE
  5
4F6
330
1F
100
AcDbEntity
  8
0
100
AcDbLine
 10
3640.214125531564
 20
2040.334755394994
 30
0.0
 11
3642.953046887799
 21
2040.334755394994
 31
0.0
  0
ARC
  5
4F7
330
1F
100
AcDbEntity
  8
0
100
AcDbCircle
 10
3631.653046887797
 20
2023.839480419459
 30
0.0
 40
20.0
100
AcDbArc
 50
55.59770869049224
 51
78.46304096719463
  0
ARC
  5
4F8
330
1F
100
AcDbEntity
  8
0
100
AcDbCircle
 10
3631.653046887797
 20
2023.839480419459
 30
0.0
 40
20.0
100
AcDbArc
 50
101.5369590328054
 51
124.4022913094426
  0
LINE
  5
4F9
330
1F
100
AcDbEntity
  8
0
100
AcDbLine
 10
3620.353046887798
 20
2040.341298501113
 30
0.0
 11
3620.3530468878
 21
2040.334755394993
 31
0.0
  0
LINE
  5
4FA
330
1F
100
AcDbEntity
  8
0
100
AcDbLine
 10
3642.953046887799
 20
2040.341298501112
 30
0.0
 11
3642.953046887799
 21
2040.334755394993
 31
0.0
  0
LINE
  5
4FB
330
1F
100
AcDbEntity
  8
0
100
AcDbLine
 10
3635.653046887799
 20
2043.435398361724
 30
0.0
 11
3635.653046887797
 21
2048.932615252444
 31
0.0
  0
LINE
  5
4FC
330
1F
100
AcDbEntity
  8
0
100
AcDbLine
 10
3627.653046887797
 20
2043.435398361724
 30
0.0
 11
3627.653046887798
 21
2048.932615252444
 31
0.0
  0
LINE
  5
4FD
330
1F
100
AcDbEntity
  8
0
100
AcDbLine
 10
3629.326610431991
 20
2053.432615252441
 30
0.0
 11
3633.979483343607
 21
2053.432615252441
 31
0.0
  0
LINE
  5
4FE
330
1F
100
AcDbEntity
  8
0
100
AcDbLine
 10
3635.653046887797
 20
2048.932615252444
 30
0.0
 11
3634.472680305523
 21
2053.014814746094
 31
0.0
  0
ARC
  5
4FF
330
1F
100
AcDbEntity
  8
0
100
AcDbCircle
 10
3633.979483343607
 20
2052.932615252441
 30
0.0
 40
0.5
100
AcDbArc
 50
9.462322208021333
 51
90.0
  0
LINE
  5
500
330
1F
100
AcDbEntity
  8
0
100
AcDbLine
 10
3628.833413470073
 20
2053.014814746094
 30
0.0
 11
3627.653046887798
 21
2048.932615252444
 31
0.0
  0
ARC
  5
501
330
1F
100
AcDbEntity
  8
0
100
AcDbCircle
 10
3629.326610431991
 20
2052.932615252441
 30
0.0
 40
0.5
100
AcDbArc
 50
90.0
 51
170.5376777919658
  0
ARC
  5
502
102
{ACAD_REACTORS
330
518
102
}
330
1F
100
AcDbEntity
  8
0
100
AcDbCircle
 10
3631.715546887813
 20
2023.839480419459
 30
0.0
 40
20.0
100
AcDbArc
 50
124.4354536119639
 51
55.5645463880361
  0
LINE
  5
503
330
1F
100
AcDbEntity
  8
0
100
AcDbLine
 10
3620.405997671265
 20
2040.334755394994
 30
0.0
 11
3643.025096104362
 21
2040.334755394992
 31
0.0
  0
DIMENSION
  5
504
102
{ACAD_XDICTIONARY
360
505
102
}
102
{ACAD_REACTORS
330
506
102
}
330
1F
100
AcDbEntity
  8
0
100
AcDbDimension
280
     0
  2
*D10
 10
2557.783670572152
 20
4104.987284847961
 30
0.0
 11
2497.783670572153
 21
4104.987284847961
 31
0.0
 70
    32
 71
     5
 42
120.0
 73
     0
 74
     0
 75
     0
  3
1
100
AcDbAlignedDimension
 13
2437.783670572152
 23
4084.939783616859
 33
0.0
 14
2557.783670572152
 24
4084.939783616859
 34
0.0
100
AcDbRotatedDimension
  0
DIMENSION
  5
507
102
{ACAD_XDICTIONARY
360
508
102
}
102
{ACAD_REACTORS
330
509
102
}
330
1F
100
AcDbEntity
  8
0
100
AcDbDimension
280
     0
  2
*D11
 10
2417.55335940646
 20
4043.939783616861
 30
0.0
 11
2417.553359406461
 21
4064.439783616859
 31
0.0
 70
    32
 71
     5
 42
41.0
 73
     0
 74
     0
 75
     0
  3
1
100
AcDbAlignedDimension
 13
2443.23438483958
 23
4084.939783616859
 33
0.0
 14
2443.23438483958
 24
4043.939783616859
 34
0.0
 50
90.0
100
AcDbRotatedDimension
  0
DIMENSION
  5
510
102
{ACAD_XDICTIONARY
360
511
102
}
102
{ACAD_REACTORS
330
512
102
}
330
1F
100
AcDbEntity
  8
0
100
AcDbDimension
280
     0
  2
*D14
 10
3928.338234691793
 20
1805.2694236417
 30
0.0
 11
3928.338234691793
 21
2945.104603629279
 31
0.0
 70
    32
  1
6000{\fSimSun|b0|i0|c134|p2;（MAX）}
 71
     5
 42
2279.670359975161
 73
     0
 74
     0
 75
     0
  3
1
100
AcDbAlignedDimension
 13
2497.783670572153
 23
4084.939783616859
 33
0.0
 14
3331.715546887813
 24
1805.269423641698
 34
0.0
 50
90.0
100
AcDbRotatedDimension
1001
AcadStringInfo
1000
MIFCodePage
1070
     5
  0
DIMENSION
  5
516
102
{ACAD_XDICTIONARY
360
517
102
}
102
{ACAD_REACTORS
330
518
102
}
330
1F
100
AcDbEntity
  8
0
100
AcDbDimension
280
     0
  2
*D16
 10
3651.714488739811
 20
1699.286870720323
 30
0.0
 11
3044.749079655982
 21
1699.286870720323
 31
0.0
 70
    32
 71
     5
 42
1213.930818167659
 73
     0
 74
     0
 75
     0
  3
1
100
AcDbAlignedDimension
 13
2437.783670572152
 23
4053.652323028356
 33
0.0
 14
3651.714488739811
 24
2023.633750498437
 34
0.0
100
AcDbRotatedDimension
1001
ACAD
1000
DSTYLE
1002
{
1070
   271
1070
     0
1070
   288
1070
     1
1002
}
  0
ENDSEC
  0
SECTION
  2
OBJECTS
  0
DICTIONARY
  5
C
330
0
100
AcDbDictionary
281
     1
  3
ACAD_CIP_PREVIOUS_PRODUCT_INFO
350
216
  3
ACAD_COLOR
350
6B
  3
ACAD_DETAILVIEWSTYLE
350
21B
  3
ACAD_GROUP
350
D
  3
ACAD_LAYOUT
350
1A
  3
ACAD_MATERIAL
350
6A
  3
ACAD_MLEADERSTYLE
350
12D
  3
ACAD_MLINESTYLE
350
17
  3
ACAD_PLOTSETTINGS
350
19
  3
ACAD_PLOTSTYLENAME
350
E
  3
ACAD_SCALELIST
350
10C
  3
ACAD_SECTIONVIEWSTYLE
350
219
  3
ACAD_TABLESTYLE
350
7E
  3
ACAD_VISUALSTYLE
350
EF
  3
ACDB_RECOMPOSE_DATA
350
587
  3
AcDbVariableDictionary
350
5E
  3
AcDsDecomposeData
350
58D
  0
DICTIONARY
  5
1FF
330
2
100
AcDbDictionary
280
     1
281
     1
  3
ACAD_LAYERSTATES
360
200
  0
DICTIONARY
  5
13C
330
10
100
AcDbDictionary
280
     1
281
     1
  0
DICTIONARY
  5
1CE
330
1F
100
AcDbDictionary
280
     1
281
     1
  0
DICTIONARY
  5
505
330
504
100
AcDbDictionary
280
     1
281
     1
  3
ACAD_DIMASSOC
360
506
  0
DICTIONARY
  5
508
330
507
100
AcDbDictionary
280
     1
281
     1
  3
ACAD_DIMASSOC
360
509
  0
DICTIONARY
  5
511
330
510
100
AcDbDictionary
280
     1
281
     1
  3
ACAD_DIMASSOC
360
512
  0
DICTIONARY
  5
517
330
516
100
AcDbDictionary
280
     1
281
     1
  3
ACAD_DIMASSOC
360
518
  0
XRECORD
  5
216
102
{ACAD_REACTORS
330
C
102
}
330
C
100
AcDbXrecord
280
     1
300
ACD
300
2022
300

  0
DICTIONARY
  5
6B
102
{ACAD_REACTORS
330
C
102
}
330
C
100
AcDbDictionary
281
     1
  0
DICTIONARY
  5
21B
102
{ACAD_REACTORS
330
C
102
}
330
C
100
AcDbDictionary
281
     1
  3
Metric50
350
21C
  0
DICTIONARY
  5
D
102
{ACAD_REACTORS
330
C
102
}
330
C
100
AcDbDictionary
281
     1
  0
DICTIONARY
  5
1A
102
{ACAD_REACTORS
330
C
102
}
330
C
100
AcDbDictionary
281
     1
  3
Layout1
350
D3
  3
Layout2
350
D7
  3
Model
350
22
  0
DICTIONARY
  5
6A
102
{ACAD_REACTORS
330
C
102
}
330
C
100
AcDbDictionary
281
     1
  3
ByBlock
350
ED
  3
ByLayer
350
EC
  3
Global
350
EE
  0
DICTIONARY
  5
12D
102
{ACAD_REACTORS
330
C
102
}
330
C
100
AcDbDictionary
281
     1
  3
Annotativa
350
13B
  3
Standard
350
12E
  0
DICTIONARY
  5
17
102
{ACAD_REACTORS
330
C
102
}
330
C
100
AcDbDictionary
281
     1
  3
Standard
350
18
  0
DICTIONARY
  5
19
102
{ACAD_REACTORS
330
C
102
}
330
C
100
AcDbDictionary
281
     1
  0
ACDBDICTIONARYWDFLT
  5
E
102
{ACAD_REACTORS
330
C
102
}
330
C
100
AcDbDictionary
281
     1
  3
Normal
350
F
100
AcDbDictionaryWithDefault
340
F
  0
DICTIONARY
  5
10C
102
{ACAD_REACTORS
330
C
102
}
330
C
100
AcDbDictionary
281
     1
  3
A0
350
10D
  3
A1
350
1BE
  3
A2
350
1BF
  3
A3
350
1C0
  3
A4
350
1C1
  3
A5
350
1C2
  3
A6
350
1C3
  3
A7
350
1C4
  3
A8
350
1C5
  3
A9
350
1C6
  3
B0
350
1C7
  3
B1
350
1C8
  3
B2
350
1C9
  3
B3
350
1CA
  3
B4
350
1CB
  3
B5
350
1CC
  3
B6
350
1CD
  0
DICTIONARY
  5
219
102
{ACAD_REACTORS
330
C
102
}
330
C
100
AcDbDictionary
281
     1
  3
Metric50
350
21A
  0
DICTIONARY
  5
7E
102
{ACAD_REACTORS
330
C
102
}
330
C
100
AcDbDictionary
281
     1
  3
Standard
350
7F
  0
DICTIONARY
  5
EF
102
{ACAD_REACTORS
330
C
102
}
330
C
100
AcDbDictionary
281
     1
  3
2dWireframe
350
F5
  3
Basic
350
F4
  3
Brighten
350
FB
  3
ColorChange
350
FF
  3
Conceptual
350
F8
  3
Dim
350
FA
  3
EdgeColorOff
350
1E6
  3
Facepattern
350
FE
  3
Flat
350
F0
  3
FlatWithEdges
350
F1
  3
Gouraud
350
F2
  3
GouraudWithEdges
350
F3
  3
Hidden
350
F7
  3
JitterOff
350
1E4
  3
Linepattern
350
FD
  3
OverhangOff
350
1E5
  3
Realistic
350
F9
  3
Shaded
350
1F3
  3
Shaded with edges
350
1F2
  3
Shades of Gray
350
1EF
  3
Sketchy
350
1F0
  3
Thicken
350
FC
  3
Wireframe
350
F6
  3
X-Ray
350
1F1
  0
XRECORD
  5
587
102
{ACAD_REACTORS
330
C
102
}
330
C
100
AcDbXrecord
280
     1
 90
        1
330
7F
  0
DICTIONARY
  5
5E
102
{ACAD_REACTORS
330
C
102
}
330
C
100
AcDbDictionary
281
     1
  3
CANNOSCALE
350
146
  3
CENTEREXE
350
259
  3
CENTERLTYPEFILE
350
25A
  3
CMLEADERSTYLE
350
145
  3
CTABLESTYLE
350
84
  3
CVIEWDETAILSTYLE
350
227
  3
CVIEWSECTIONSTYLE
350
228
  3
DIMASSOC
350
5F
  3
HIDETEXT
350
63
  3
LAYEREVAL
350
1AE
  3
LAYERNOTIFY
350
1AF
  0
DICTIONARY
  5
58D
102
{ACAD_REACTORS
330
C
102
}
330
C
100
AcDbDictionary
281
     1
  3
AcDsRecords
350
58F
  3
AcDsSchemas
350
58E
1001
ACAD
1070
     2
  0
DICTIONARY
  5
200
102
{ACAD_REACTORS
330
1FF
102
}
330
1FF
100
AcDbDictionary
281
     1
  0
DIMASSOC
  5
506
102
{ACAD_REACTORS
330
505
102
}
330
505
100
AcDbDimAssoc
330
504
 90
        3
 70
     0
 71
     0
  1
AcDbOsnapPointRef
 72
     1
331
46D
 73
     2
 91
        0
 40
1.0
 10
0.0
 20
0.0
 30
2.000000000000000E+50
 75
     0
  1
AcDbOsnapPointRef
 72
    13
331
469
 73
     2
 91
        0
 40
0.0
 10
0.0
 20
0.0
 30
2.000000000000000E+50
 75
     0
  0
DIMASSOC
  5
509
102
{ACAD_REACTORS
330
508
102
}
330
508
100
AcDbDimAssoc
330
507
 90
        3
 70
     0
 71
     0
  1
AcDbOsnapPointRef
 72
    10
331
468
 73
     2
 91
        0
 40
0.0454226188952362
 10
0.0
 20
0.0
 30
0.0
 75
     0
  1
AcDbOsnapPointRef
 72
     8
331
46B
 73
     2
 91
        0
 40
0.9662332113895013
 10
0.0
 20
0.0
 30
0.0
 75
     1
  1
AcDbOsnapPointRef
 72
    10
331
468
 73
     2
 91
        0
 40
0.0454226188952362
 10
0.0
 20
0.0
 30
0.0
 75
     0
  0
DIMASSOC
  5
512
102
{ACAD_REACTORS
330
511
102
}
330
511
100
AcDbDimAssoc
330
510
 90
        3
 70
     0
 71
     0
  1
AcDbOsnapPointRef
 72
     2
331
468
 73
     2
 91
        0
 40
0.5
 10
0.0
 20
0.0
 30
0.0
 75
     0
  1
AcDbOsnapPointRef
 72
     2
331
4C3
 73
     2
 91
        0
 40
4.712388980384689
 10
0.0
 20
0.0
 30
0.0
 75
     0
  0
DIMASSOC
  5
518
102
{ACAD_REACTORS
330
517
102
}
330
517
100
AcDbDimAssoc
330
516
 90
        3
 70
     0
 71
     0
  1
AcDbOsnapPointRef
 72
    10
331
46D
 73
     2
 91
        0
 40
0.2079123901644898
 10
0.0
 20
0.0
 30
0.0
 75
     0
  1
AcDbOsnapPointRef
 72
    10
331
502
 73
     2
 91
        0
 40
6.272898629714065
 10
0.0
 20
0.0
 30
0.0
 75
     0
  0
ACDBDETAILVIEWSTYLE
  5
21C
102
{ACAD_XDICTIONARY
360
592
102
}
102
{ACAD_REACTORS
330
21B
102
}
330
21B
100
AcDbModelDocViewStyle
 70
     0
  3
Metric50
290
     0
100
AcDbDetailViewStyle
 70
     0
 71
     0
 90
        3
 71
     1
340
11
 62
   256
 40
5.0
340
0
 62
   256
 40
5.0
300

 40
0.0
280
     1
 71
     2
340
16
 90
       25
 62
   256
 71
     3
340
11
 62
   256
 40
5.0
 90
        0
 40
15.0
 90
        1
300
%<\AcVar ViewDetailId>% (%<\AcVar ViewScale \f "%sn">%)
 71
     4
340
16
 90
       25
 62
   256
340
16
 90
       25
 62
   256
280
     0
  0
LAYOUT
  5
D3
102
{ACAD_REACTORS
330
1A
102
}
330
1A
100
AcDbPlotSettings
  1

  2
C:\Documents and Settings\basas\Application Data\Autodesk\AutoCAD 2005\R16.1\enu\plotters\Default Windows System Printer.pc3
  4

  6

 40
0.0
 41
0.0
 42
0.0
 43
0.0
 44
0.0
 45
0.0
 46
0.0
 47
0.0
 48
0.0
 49
0.0
140
0.0
141
0.0
142
1.0
143
1.0
 70
   688
 72
     0
 73
     0
 74
     5
  7

 75
    16
147
1.0
 76
     0
 77
     2
 78
   300
148
0.0
149
0.0
100
AcDbLayout
  1
Layout1
 70
     1
 71
     1
 10
0.0
 20
0.0
 11
12.0
 21
9.0
 12
0.0
 22
0.0
 32
0.0
 14
0.0
 24
0.0
 34
0.0
 15
0.0
 25
0.0
 35
0.0
146
0.0
 13
0.0
 23
0.0
 33
0.0
 16
1.0
 26
0.0
 36
0.0
 17
0.0
 27
1.0
 37
0.0
 76
     0
330
D2
  0
LAYOUT
  5
D7
102
{ACAD_REACTORS
330
1A
102
}
330
1A
100
AcDbPlotSettings
  1

  2
C:\Documents and Settings\basas\Application Data\Autodesk\AutoCAD 2005\R16.1\enu\plotters\Default Windows System Printer.pc3
  4

  6

 40
0.0
 41
0.0
 42
0.0
 43
0.0
 44
0.0
 45
0.0
 46
0.0
 47
0.0
 48
0.0
 49
0.0
140
0.0
141
0.0
142
1.0
143
1.0
 70
   688
 72
     0
 73
     0
 74
     5
  7

 75
    16
147
1.0
 76
     0
 77
     2
 78
   300
148
0.0
149
0.0
100
AcDbLayout
  1
Layout2
 70
     1
 71
     2
 10
0.0
 20
0.0
 11
12.0
 21
9.0
 12
0.0
 22
0.0
 32
0.0
 14
0.0
 24
0.0
 34
0.0
 15
0.0
 25
0.0
 35
0.0
146
0.0
 13
0.0
 23
0.0
 33
0.0
 16
1.0
 26
0.0
 36
0.0
 17
0.0
 27
1.0
 37
0.0
 76
     0
330
D6
  0
LAYOUT
  5
22
102
{ACAD_XDICTIONARY
360
205
102
}
102
{ACAD_REACTORS
330
1A
102
}
330
1A
100
AcDbPlotSettings
  1

  2
none_device
  4
ISO_A4_(210.00_x_297.00_MM)
  6

 40
7.5
 41
20.0
 42
7.5
 43
20.0
 44
210.0
 45
297.0
 46
11.54999923706054
 47
-13.65000009536743
 48
0.0
 49
0.0
140
0.0
141
0.0
142
1.0
143
8.704084754739808
 70
 11952
 72
     1
 73
     0
 74
     0
  7

 75
     0
147
0.1148885871608098
 76
     0
 77
     2
 78
   300
148
0.0
149
0.0
100
AcDbLayout
  1
Model
 70
     1
 71
     0
 10
0.0
 20
0.0
 11
12.0
 21
9.0
 12
0.0
 22
0.0
 32
0.0
 14
0.0
 24
0.0
 34
0.0
 15
0.0
 25
0.0
 35
0.0
146
0.0
 13
0.0
 23
0.0
 33
0.0
 16
1.0
 26
0.0
 36
0.0
 17
0.0
 27
1.0
 37
0.0
 76
     0
330
1F
331
EA
1001
ACAD_PSEXT
1000
None
1000
None
1000
Not applicable
1000
The layout will not be plotted unless a new plotter configuration name is selected.
1070
     0
  0
MATERIAL
  5
ED
102
{ACAD_XDICTIONARY
360
1F9
102
}
102
{ACAD_REACTORS
330
6A
102
}
330
6A
100
AcDbMaterial
  1
ByBlock
 94
       63
  0
MATERIAL
  5
EC
102
{ACAD_XDICTIONARY
360
1F7
102
}
102
{ACAD_REACTORS
330
6A
102
}
330
6A
100
AcDbMaterial
  1
ByLayer
 94
       63
  0
MATERIAL
  5
EE
102
{ACAD_XDICTIONARY
360
173
102
}
102
{ACAD_REACTORS
330
6A
102
}
330
6A
100
AcDbMaterial
  1
Global
 43
0.0007999999797903
 43
0.0
 43
0.0
 43
0.0
 43
0.0
 43
0.0007999999797903
 43
0.0
 43
0.0
 43
0.0
 43
0.0
 43
1.0
 43
0.0
 43
0.0
 43
0.0
 43
0.0
 43
1.0
 49
0.0007999999797903
 49
0.0
 49
0.0
 49
0.0
 49
0.0
 49
0.0007999999797903
 49
0.0
 49
0.0
 49
0.0
 49
0.0
 49
1.0
 49
0.0
 49
0.0
 49
0.0
 49
0.0
 49
1.0
142
0.0007999999797903
142
0.0
142
0.0
142
0.0
142
0.0
142
0.0007999999797903
142
0.0
142
0.0
142
0.0
142
0.0
142
1.0
142
0.0
142
0.0
142
0.0
142
0.0
142
1.0
144
0.0007999999797903
144
0.0
144
0.0
144
0.0
144
0.0
144
0.0007999999797903
144
0.0
144
0.0
144
0.0
144
0.0
144
1.0
144
0.0
144
0.0
144
0.0
144
0.0
144
1.0
 94
       63
1001
ACAD
1070
    -1
1070
     3
1070
     0
1000

1071
        0
1070
     0
  0
MLEADERSTYLE
  5
13B
102
{ACAD_REACTORS
330
12D
102
}
330
12D
100
AcDbMLeaderStyle
179
     2
170
     2
171
     1
172
     0
 90
        2
 40
0.0
 41
0.0
173
     1
 91
-1056964608
340
14
 92
       -2
290
     1
 42
2.0
291
     1
 43
8.0
  3
Standard
 44
4.0
300

342
11
174
     1
178
     1
175
     1
176
     0
 93
-1056964608
 45
4.0
292
     0
297
     0
 46
4.0
 94
-1056964608
 47
1.0
 49
1.0
140
1.0
293
     1
141
0.0
294
     1
177
     0
142
1.0
295
     0
296
     1
143
3.75
271
     0
272
     9
273
     9
298
     0
  0
MLEADERSTYLE
  5
12E
102
{ACAD_REACTORS
330
12D
102
}
330
12D
100
AcDbMLeaderStyle
179
     2
170
     2
171
     1
172
     0
 90
        2
 40
0.0
 41
0.0
173
     1
 91
-1056964608
340
14
 92
       -2
290
     1
 42
2.0
291
     1
 43
8.0
  3
Standard
 44
4.0
300

342
11
174
     1
178
     1
175
     1
176
     0
 93
-1056964608
 45
4.0
292
     0
297
     0
 46
4.0
 94
-1056964608
 47
1.0
 49
1.0
140
1.0
293
     1
141
0.0
294
     1
177
     0
142
1.0
295
     0
296
     0
143
3.75
271
     0
272
     9
273
     9
298
     0
  0
MLINESTYLE
  5
18
102
{ACAD_REACTORS
330
17
102
}
330
17
100
AcDbMlineStyle
  2
STANDARD
 70
     0
  3

 62
   256
 51
90.0
 52
90.0
 71
     2
 49
0.5
 62
   256
  6
BYLAYER
 49
-0.5
 62
   256
  6
BYLAYER
  0
ACDBPLACEHOLDER
  5
F
102
{ACAD_REACTORS
330
E
102
}
330
E
  0
SCALE
  5
10D
102
{ACAD_REACTORS
330
10C
102
}
330
10C
100
AcDbScale
 70
     0
300
1:1
140
1.0
141
1.0
290
     1
  0
SCALE
  5
1BE
102
{ACAD_REACTORS
330
10C
102
}
330
10C
100
AcDbScale
 70
     0
300
1:2
140
1.0
141
2.0
290
     0
  0
SCALE
  5
1BF
102
{ACAD_REACTORS
330
10C
102
}
330
10C
100
AcDbScale
 70
     0
300
1:4
140
1.0
141
4.0
290
     0
  0
SCALE
  5
1C0
102
{ACAD_REACTORS
330
10C
102
}
330
10C
100
AcDbScale
 70
     0
300
1:5
140
1.0
141
5.0
290
     0
  0
SCALE
  5
1C1
102
{ACAD_REACTORS
330
10C
102
}
330
10C
100
AcDbScale
 70
     0
300
1:8
140
1.0
141
8.0
290
     0
  0
SCALE
  5
1C2
102
{ACAD_REACTORS
330
10C
102
}
330
10C
100
AcDbScale
 70
     0
300
1:10
140
1.0
141
10.0
290
     0
  0
SCALE
  5
1C3
102
{ACAD_REACTORS
330
10C
102
}
330
10C
100
AcDbScale
 70
     0
300
1:16
140
1.0
141
16.0
290
     0
  0
SCALE
  5
1C4
102
{ACAD_REACTORS
330
10C
102
}
330
10C
100
AcDbScale
 70
     0
300
1:20
140
1.0
141
20.0
290
     0
  0
SCALE
  5
1C5
102
{ACAD_REACTORS
330
10C
102
}
330
10C
100
AcDbScale
 70
     0
300
1:30
140
1.0
141
30.0
290
     0
  0
SCALE
  5
1C6
102
{ACAD_REACTORS
330
10C
102
}
330
10C
100
AcDbScale
 70
     0
300
1:40
140
1.0
141
40.0
290
     0
  0
SCALE
  5
1C7
102
{ACAD_REACTORS
330
10C
102
}
330
10C
100
AcDbScale
 70
     0
300
1:50
140
1.0
141
50.0
290
     0
  0
SCALE
  5
1C8
102
{ACAD_REACTORS
330
10C
102
}
330
10C
100
AcDbScale
 70
     0
300
1:100
140
1.0
141
100.0
290
     0
  0
SCALE
  5
1C9
102
{ACAD_REACTORS
330
10C
102
}
330
10C
100
AcDbScale
 70
     0
300
2:1
140
2.0
141
1.0
290
     0
  0
SCALE
  5
1CA
102
{ACAD_REACTORS
330
10C
102
}
330
10C
100
AcDbScale
 70
     0
300
4:1
140
4.0
141
1.0
290
     0
  0
SCALE
  5
1CB
102
{ACAD_REACTORS
330
10C
102
}
330
10C
100
AcDbScale
 70
     0
300
8:1
140
8.0
141
1.0
290
     0
  0
SCALE
  5
1CC
102
{ACAD_REACTORS
330
10C
102
}
330
10C
100
AcDbScale
 70
     0
300
10:1
140
10.0
141
1.0
290
     0
  0
SCALE
  5
1CD
102
{ACAD_REACTORS
330
10C
102
}
330
10C
100
AcDbScale
 70
     0
300
100:1
140
100.0
141
1.0
290
     0
  0
ACDBSECTIONVIEWSTYLE
  5
21A
102
{ACAD_XDICTIONARY
360
590
102
}
102
{ACAD_REACTORS
330
219
102
}
330
219
100
AcDbModelDocViewStyle
 70
     0
  3
Metric50
290
     0
100
AcDbSectionViewStyle
 70
     0
 71
     0
 90
      102
 71
     1
340
11
 62
   256
 40
5.0
340
0
340
0
 62
   256
 40
5.0
300
I, O, Q, S, X, Z
 40
10.0
 90
        0
 40
2.5
 90
        0
 71
     2
340
16
 90
       25
 62
   256
340
16
 90
       50
 62
   256
 40
5.0
 40
2.5
 40
5.0
 71
     3
340
11
 62
   256
 40
5.0
 90
        0
 40
15.0
 90
        1
300
%<\AcVar ViewSectionStartId>%-%<\AcVar ViewSectionEndId>% (%<\AcVar ViewScale \f "%sn">%)
 71
     4
 62
   256
 62
   257
300
ANSI31
 40
1.0
 90
        0
290
     0
290
     0
 90
        6
 40
0.0
 40
1.570796326794896
 40
0.2617993877991494
 40
1.308996938995747
 40
-0.2617993877991494
 40
1.832595714594046
  0
TABLESTYLE
  5
7F
102
{ACAD_XDICTIONARY
360
162
102
}
102
{ACAD_REACTORS
330
7E
102
}
330
7E
100
AcDbTableStyle
280
     0
  3
Standard
 70
     0
 71
     0
 40
1.5
 41
1.5
280
     0
281
     0
  7
Standard
140
4.5
170
     2
 62
     0
 63
     7
283
     0
 90
      512
 91
        0
  1

274
    -2
284
     1
 64
     0
275
    -2
285
     1
 65
     0
276
    -2
286
     1
 66
     0
277
    -2
287
     1
 67
     0
278
    -2
288
     1
 68
     0
279
    -2
289
     1
 69
     0
  7
Standard
140
6.0
170
     5
 62
     0
 63
     7
283
     0
 90
      512
 91
        0
  1

274
    -2
284
     1
 64
     0
275
    -2
285
     1
 65
     0
276
    -2
286
     1
 66
     0
277
    -2
287
     1
 67
     0
278
    -2
288
     1
 68
     0
279
    -2
289
     1
 69
     0
  7
Standard
140
4.5
170
     5
 62
     0
 63
     7
283
     0
 90
      512
 91
        0
  1

274
    -2
284
     1
 64
     0
275
    -2
285
     1
 65
     0
276
    -2
286
     1
 66
     0
277
    -2
287
     1
 67
     0
278
    -2
288
     1
 68
     0
279
    -2
289
     1
 69
     0
  0
VISUALSTYLE
  5
F5
102
{ACAD_REACTORS
330
EF
102
}
330
EF
100
AcDbVisualStyle
  2
2dWireframe
 70
     4
177
     3
291
     0
 70
    58
 90
        0
176
     1
 90
        2
176
     1
 90
        1
176
     1
 90
        0
176
     1
 40
0.6
176
     1
 40
30.0
176
     1
 62
     7
420
 16777215
176
     1
 90
        1
176
     1
 90
        4
176
     1
 62
     7
176
     1
 62
   257
176
     1
 90
        1
176
     1
 90
        1
176
     1
 40
1.0
176
     1
 90
        0
176
     1
 62
   257
176
     1
 40
1.0
176
     1
 90
        1
176
     1
 90
        6
176
     1
 90
        2
176
     1
 62
     7
176
     1
 90
        5
176
     1
 90
        0
176
     1
 90
        0
176
     1
290
     0
176
     1
 90
        1
176
     1
 40
0.0
176
     1
 90
        0
176
     1
290
     1
176
     1
290
     1
176
     1
290
     0
176
     1
290
     0
176
     1
290
     0
176
     1
290
     0
176
     1
290
     0
176
     1
290
     0
176
     1
290
     0
176
     1
 90
       50
176
     1
 40
0.0
176
     1
 40
1.0
176
     1
 90
        0
176
     1
 62
    18
420
        0
176
     1
 90
       50
176
     1
 90
        3
176
     1
 62
     5
420
      255
176
     1
290
     0
176
     1
 90
       50
176
     1
 90
       50
176
     1
 90
       50
176
     1
290
     0
176
     1
 90
       50
176
     1
 62
   256
176
     0
 40
1.0
176
     0
 90
        2
176
     1
  1
strokes_ogs.tif
176
     1
290
     0
176
     1
 40
1.0
176
     1
 40
1.0
176
     1
1001
ACAD
1000
AcDbSavedByObjectVersion
1070
     0
  0
VISUALSTYLE
  5
F4
102
{ACAD_REACTORS
330
EF
102
}
330
EF
100
AcDbVisualStyle
  2
Basic
 70
     7
177
     3
291
     1
 70
    58
 90
        1
176
     1
 90
        0
176
     1
 90
        1
176
     1
 90
        0
176
     1
 40
0.6
176
     1
 40
30.0
176
     1
 62
     7
420
 16777215
176
     1
 90
        0
176
     1
 90
        4
176
     1
 62
     7
176
     1
 62
   257
176
     1
 90
        1
176
     1
 90
        1
176
     1
 40
1.0
176
     1
 90
        8
176
     1
 62
     7
176
     1
 40
1.0
176
     1
 90
        1
176
     1
 90
        6
176
     1
 90
        2
176
     1
 62
     7
176
     1
 90
        5
176
     1
 90
        0
176
     1
 90
        0
176
     1
290
     0
176
     1
 90
        1
176
     1
 40
0.0
176
     1
 90
        0
176
     1
290
     0
176
     1
290
     1
176
     1
290
     1
176
     1
290
     0
176
     1
290
     0
176
     1
290
     0
176
     1
290
     0
176
     1
290
     0
176
     1
290
     0
176
     1
 90
       50
176
     1
 40
0.0
176
     1
 40
1.0
176
     1
 90
        0
176
     1
 62
    18
420
        0
176
     1
 90
       50
176
     1
 90
        3
176
     1
 62
     5
420
      255
176
     1
290
     0
176
     1
 90
       50
176
     1
 90
       50
176
     1
 90
       50
176
     1
290
     0
176
     1
 90
       50
176
     1
 62
   256
176
     0
 40
1.0
176
     0
 90
        2
176
     1
  1
strokes_ogs.tif
176
     1
290
     0
176
     1
 40
1.0
176
     1
 40
1.0
176
     1
1001
ACAD
1000
AcDbSavedByObjectVersion
1070
     0
  0
VISUALSTYLE
  5
FB
102
{ACAD_REACTORS
330
EF
102
}
330
EF
100
AcDbVisualStyle
  2
Brighten
 70
    12
177
     3
291
     1
 70
    58
 90
        2
176
     1
 90
        2
176
     1
 90
        1
176
     1
 90
        0
176
     1
 40
0.6
176
     1
 40
30.0
176
     1
 62
     7
420
 16777215
176
     1
 90
        1
176
     1
 90
        4
176
     1
 62
     7
176
     1
 62
   257
176
     1
 90
        1
176
     1
 90
        1
176
     1
 40
1.0
176
     1
 90
        8
176
     1
 62
     7
176
     1
 40
1.0
176
     1
 90
        1
176
     1
 90
        6
176
     1
 90
        2
176
     1
 62
     7
176
     1
 90
        5
176
     1
 90
        0
176
     1
 90
        0
176
     1
290
     0
176
     1
 90
        1
176
     1
 40
50.0
176
     1
 90
        0
176
     1
290
     0
176
     1
290
     1
176
     1
290
     1
176
     1
290
     0
176
     1
290
     0
176
     1
290
     0
176
     1
290
     0
176
     1
290
     0
176
     1
290
     0
176
     1
 90
       50
176
     1
 40
0.0
176
     1
 40
1.0
176
     1
 90
        0
176
     1
 62
    18
420
        0
176
     1
 90
       50
176
     1
 90
        3
176
     1
 62
     5
420
      255
176
     1
290
     0
176
     1
 90
       50
176
     1
 90
       50
176
     1
 90
       50
176
     1
290
     0
176
     1
 90
       50
176
     1
 62
   256
176
     0
 40
1.0
176
     0
 90
        2
176
     1
  1
strokes_ogs.tif
176
     1
290
     0
176
     1
 40
1.0
176
     1
 40
1.0
176
     1
1001
ACAD
1000
AcDbSavedByObjectVersion
1070
     0
  0
VISUALSTYLE
  5
FF
102
{ACAD_REACTORS
330
EF
102
}
330
EF
100
AcDbVisualStyle
  2
ColorChange
 70
    16
177
     3
291
     1
 70
    58
 90
        2
176
     1
 90
        2
176
     1
 90
        3
176
     1
 90
        0
176
     1
 40
0.6
176
     1
 40
30.0
176
     1
 62
     8
420
  8421504
176
     1
 90
        1
176
     1
 90
        4
176
     1
 62
     7
176
     1
 62
   257
176
     1
 90
        1
176
     1
 90
        1
176
     1
 40
1.0
176
     1
 90
        8
176
     1
 62
     8
420
  8421504
176
     1
 40
1.0
176
     1
 90
        1
176
     1
 90
        6
176
     1
 90
        2
176
     1
 62
     7
176
     1
 90
        5
176
     1
 90
        0
176
     1
 90
        0
176
     1
290
     0
176
     1
 90
        1
176
     1
 40
0.0
176
     1
 90
        0
176
     1
290
     0
176
     1
290
     1
176
     1
290
     1
176
     1
290
     0
176
     1
290
     0
176
     1
290
     0
176
     1
290
     0
176
     1
290
     0
176
     1
290
     0
176
     1
 90
       50
176
     1
 40
0.0
176
     1
 40
1.0
176
     1
 90
        0
176
     1
 62
    18
420
        0
176
     1
 90
       50
176
     1
 90
        3
176
     1
 62
     5
420
      255
176
     1
290
     0
176
     1
 90
       50
176
     1
 90
       50
176
     1
 90
       50
176
     1
290
     0
176
     1
 90
       50
176
     1
 62
   256
176
     0
 40
1.0
176
     0
 90
        2
176
     1
  1
strokes_ogs.tif
176
     1
290
     0
176
     1
 40
1.0
176
     1
 40
1.0
176
     1
1001
ACAD
1000
AcDbSavedByObjectVersion
1070
     0
  0
VISUALSTYLE
  5
F8
102
{ACAD_REACTORS
330
EF
102
}
330
EF
100
AcDbVisualStyle
  2
Conceptual
 70
     9
177
     3
291
     0
 70
    58
 90
        3
176
     1
 90
        2
176
     1
 90
        1
176
     1
 90
        0
176
     1
 40
0.6
176
     1
 40
30.0
176
     1
 62
     7
420
 16777215
176
     1
 90
        2
176
     1
 90
        2
176
     1
 62
     7
176
     1
 62
   257
176
     1
 90
        1
176
     1
 90
        1
176
     1
 40
40.0
176
     1
 90
        8
176
     1
 62
     7
176
     1
 40
1.0
176
     1
 90
        1
176
     1
 90
        6
176
     1
 90
        2
176
     1
 62
     7
176
     1
 90
        3
176
     1
 90
        0
176
     1
 90
        0
176
     1
290
     0
176
     1
 90
        1
176
     1
 40
0.0
176
     1
 90
        0
176
     1
290
     0
176
     1
290
     1
176
     1
290
     1
176
     1
290
     0
176
     1
290
     0
176
     1
290
     0
176
     1
290
     0
176
     1
290
     0
176
     1
290
     0
176
     1
 90
       50
176
     1
 40
0.0
176
     1
 40
1.0
176
     1
 90
        0
176
     1
 62
    18
420
        0
176
     1
 90
       50
176
     1
 90
        3
176
     1
 62
     5
420
      255
176
     1
290
     0
176
     1
 90
       50
176
     1
 90
       50
176
     1
 90
       50
176
     1
290
     0
176
     1
 90
       50
176
     1
 62
   256
176
     0
 40
1.0
176
     0
 90
        2
176
     1
  1
strokes_ogs.tif
176
     1
290
     0
176
     1
 40
1.0
176
     1
 40
1.0
176
     1
1001
ACAD
1000
AcDbSavedByObjectVersion
1070
     0
  0
VISUALSTYLE
  5
FA
102
{ACAD_REACTORS
330
EF
102
}
330
EF
100
AcDbVisualStyle
  2
Dim
 70
    11
177
     3
291
     1
 70
    58
 90
        2
176
     1
 90
        2
176
     1
 90
        1
176
     1
 90
        0
176
     1
 40
0.6
176
     1
 40
30.0
176
     1
 62
     7
420
 16777215
176
     1
 90
        1
176
     1
 90
        4
176
     1
 62
     7
176
     1
 62
   257
176
     1
 90
        1
176
     1
 90
        1
176
     1
 40
1.0
176
     1
 90
        8
176
     1
 62
     7
176
     1
 40
1.0
176
     1
 90
        1
176
     1
 90
        6
176
     1
 90
        2
176
     1
 62
     7
176
     1
 90
        5
176
     1
 90
        0
176
     1
 90
        0
176
     1
290
     0
176
     1
 90
        1
176
     1
 40
-50.0
176
     1
 90
        0
176
     1
290
     0
176
     1
290
     1
176
     1
290
     1
176
     1
290
     0
176
     1
290
     0
176
     1
290
     0
176
     1
290
     0
176
     1
290
     0
176
     1
290
     0
176
     1
 90
       50
176
     1
 40
0.0
176
     1
 40
1.0
176
     1
 90
        0
176
     1
 62
    18
420
        0
176
     1
 90
       50
176
     1
 90
        3
176
     1
 62
     5
420
      255
176
     1
290
     0
176
     1
 90
       50
176
     1
 90
       50
176
     1
 90
       50
176
     1
290
     0
176
     1
 90
       50
176
     1
 62
   256
176
     0
 40
1.0
176
     0
 90
        2
176
     1
  1
strokes_ogs.tif
176
     1
290
     0
176
     1
 40
1.0
176
     1
 40
1.0
176
     1
1001
ACAD
1000
AcDbSavedByObjectVersion
1070
     0
  0
VISUALSTYLE
  5
1E6
102
{ACAD_REACTORS
330
EF
102
}
330
EF
100
AcDbVisualStyle
  2
EdgeColorOff
 70
    22
177
     3
291
     1
 70
    58
 90
        2
176
     0
 90
        2
176
     0
 90
        0
176
     0
 90
        0
176
     0
 40
0.6
176
     0
 40
30.0
176
     0
 62
     7
420
 16777215
176
     0
 90
        1
176
     0
 90
        4
176
     0
 62
     7
176
     0
 62
   257
176
     0
 90
        1
176
     0
 90
        1
176
     0
 40
1.0
176
     0
 90
        8
176
     2
 62
     7
176
     0
 40
1.0
176
     0
 90
        1
176
     0
 90
        6
176
     0
 90
        2
176
     0
 62
     7
176
     0
 90
        5
176
     0
 90
        0
176
     0
 90
        0
176
     0
290
     0
176
     0
 90
        1
176
     0
 40
0.0
176
     0
 90
        0
176
     0
290
     0
176
     1
290
     1
176
     1
290
     1
176
     1
290
     0
176
     1
290
     0
176
     1
290
     0
176
     1
290
     0
176
     1
290
     0
176
     1
290
     0
176
     1
 90
       50
176
     1
 40
0.0
176
     1
 40
1.0
176
     1
 90
        0
176
     1
 62
    18
420
        0
176
     1
 90
       50
176
     1
 90
        3
176
     1
 62
     5
420
      255
176
     1
290
     0
176
     1
 90
       50
176
     1
 90
       50
176
     1
 90
       50
176
     1
290
     0
176
     1
 90
       50
176
     1
 62
   256
176
     0
 40
1.0
176
     0
 90
        2
176
     1
  1
strokes_ogs.tif
176
     1
290
     0
176
     1
 40
1.0
176
     1
 40
1.0
176
     1
1001
ACAD
1000
AcDbSavedByObjectVersion
1070
     0
  0
VISUALSTYLE
  5
FE
102
{ACAD_REACTORS
330
EF
102
}
330
EF
100
AcDbVisualStyle
  2
Facepattern
 70
    15
177
     3
291
     1
 70
    58
 90
        2
176
     1
 90
        2
176
     1
 90
        1
176
     1
 90
        0
176
     1
 40
0.6
176
     1
 40
30.0
176
     1
 62
     7
420
 16777215
176
     1
 90
        1
176
     1
 90
        4
176
     1
 62
     7
176
     1
 62
   257
176
     1
 90
        1
176
     1
 90
        1
176
     1
 40
1.0
176
     1
 90
        8
176
     1
 62
     7
176
     1
 40
1.0
176
     1
 90
        1
176
     1
 90
        6
176
     1
 90
        2
176
     1
 62
     7
176
     1
 90
        5
176
     1
 90
        0
176
     1
 90
        0
176
     1
290
     0
176
     1
 90
        1
176
     1
 40
0.0
176
     1
 90
        0
176
     1
290
     0
176
     1
290
     1
176
     1
290
     1
176
     1
290
     0
176
     1
290
     0
176
     1
290
     0
176
     1
290
     0
176
     1
290
     0
176
     1
290
     0
176
     1
 90
       50
176
     1
 40
0.0
176
     1
 40
1.0
176
     1
 90
        0
176
     1
 62
    18
420
        0
176
     1
 90
       50
176
     1
 90
        3
176
     1
 62
     5
420
      255
176
     1
290
     0
176
     1
 90
       50
176
     1
 90
       50
176
     1
 90
       50
176
     1
290
     0
176
     1
 90
       50
176
     1
 62
   256
176
     0
 40
1.0
176
     0
 90
        2
176
     1
  1
strokes_ogs.tif
176
     1
290
     0
176
     1
 40
1.0
176
     1
 40
1.0
176
     1
1001
ACAD
1000
AcDbSavedByObjectVersion
1070
     0
  0
VISUALSTYLE
  5
F0
102
{ACAD_REACTORS
330
EF
102
}
330
EF
100
AcDbVisualStyle
  2
Flat
 70
     0
177
     3
291
     1
 70
    58
 90
        2
176
     1
 90
        1
176
     1
 90
        1
176
     1
 90
        2
176
     1
 40
0.6
176
     1
 40
30.0
176
     1
 62
     7
420
 16777215
176
     1
 90
        0
176
     1
 90
        0
176
     1
 62
     7
176
     1
 62
   257
176
     1
 90
        1
176
     1
 90
        1
176
     1
 40
1.0
176
     1
 90
        8
176
     1
 62
     7
176
     1
 40
1.0
176
     1
 90
        1
176
     1
 90
        6
176
     1
 90
        2
176
     1
 62
     7
176
     1
 90
        5
176
     1
 90
        0
176
     1
 90
        0
176
     1
290
     0
176
     1
 90
       13
176
     1
 40
0.0
176
     1
 90
        0
176
     1
290
     0
176
     1
290
     1
176
     1
290
     1
176
     1
290
     0
176
     1
290
     0
176
     1
290
     0
176
     1
290
     0
176
     1
290
     0
176
     1
290
     0
176
     1
 90
       50
176
     1
 40
0.0
176
     1
 40
1.0
176
     1
 90
        0
176
     1
 62
    18
420
        0
176
     1
 90
       50
176
     1
 90
        3
176
     1
 62
     5
420
      255
176
     1
290
     0
176
     1
 90
       50
176
     1
 90
       50
176
     1
 90
       50
176
     1
290
     0
176
     1
 90
       50
176
     1
 62
   256
176
     0
 40
1.0
176
     0
 90
        2
176
     1
  1
strokes_ogs.tif
176
     1
290
     0
176
     1
 40
1.0
176
     1
 40
1.0
176
     1
1001
ACAD
1000
AcDbSavedByObjectVersion
1070
     0
  0
VISUALSTYLE
  5
F1
102
{ACAD_REACTORS
330
EF
102
}
330
EF
100
AcDbVisualStyle
  2
FlatWithEdges
 70
     1
177
     3
291
     1
 70
    58
 90
        2
176
     1
 90
        1
176
     1
 90
        1
176
     1
 90
        2
176
     1
 40
0.6
176
     1
 40
30.0
176
     1
 62
     7
420
 16777215
176
     1
 90
        1
176
     1
 90
        0
176
     1
 62
     7
176
     1
 62
   257
176
     1
 90
        1
176
     1
 90
        1
176
     1
 40
1.0
176
     1
 90
        0
176
     1
 62
   257
176
     1
 40
1.0
176
     1
 90
        1
176
     1
 90
        6
176
     1
 90
        2
176
     1
 62
     7
176
     1
 90
        5
176
     1
 90
        0
176
     1
 90
        0
176
     1
290
     0
176
     1
 90
       13
176
     1
 40
0.0
176
     1
 90
        0
176
     1
290
     0
176
     1
290
     1
176
     1
290
     1
176
     1
290
     0
176
     1
290
     0
176
     1
290
     0
176
     1
290
     0
176
     1
290
     0
176
     1
290
     0
176
     1
 90
       50
176
     1
 40
0.0
176
     1
 40
1.0
176
     1
 90
        0
176
     1
 62
    18
420
        0
176
     1
 90
       50
176
     1
 90
        3
176
     1
 62
     5
420
      255
176
     1
290
     0
176
     1
 90
       50
176
     1
 90
       50
176
     1
 90
       50
176
     1
290
     0
176
     1
 90
       50
176
     1
 62
   256
176
     0
 40
1.0
176
     0
 90
        2
176
     1
  1
strokes_ogs.tif
176
     1
290
     0
176
     1
 40
1.0
176
     1
 40
1.0
176
     1
1001
ACAD
1000
AcDbSavedByObjectVersion
1070
     0
  0
VISUALSTYLE
  5
F2
102
{ACAD_REACTORS
330
EF
102
}
330
EF
100
AcDbVisualStyle
  2
Gouraud
 70
     2
177
     3
291
     1
 70
    58
 90
        2
176
     1
 90
        2
176
     1
 90
        1
176
     1
 90
        2
176
     1
 40
0.6
176
     1
 40
30.0
176
     1
 62
     7
420
 16777215
176
     1
 90
        0
176
     1
 90
        0
176
     1
 62
     7
176
     1
 62
   257
176
     1
 90
        1
176
     1
 90
        1
176
     1
 40
1.0
176
     1
 90
        0
176
     1
 62
     7
176
     1
 40
1.0
176
     1
 90
        1
176
     1
 90
        6
176
     1
 90
        2
176
     1
 62
     7
176
     1
 90
        5
176
     1
 90
        0
176
     1
 90
        0
176
     1
290
     0
176
     1
 90
       13
176
     1
 40
0.0
176
     1
 90
        0
176
     1
290
     0
176
     1
290
     1
176
     1
290
     1
176
     1
290
     0
176
     1
290
     0
176
     1
290
     0
176
     1
290
     0
176
     1
290
     0
176
     1
290
     0
176
     1
 90
       50
176
     1
 40
0.0
176
     1
 40
1.0
176
     1
 90
        0
176
     1
 62
    18
420
        0
176
     1
 90
       50
176
     1
 90
        3
176
     1
 62
     5
420
      255
176
     1
290
     0
176
     1
 90
       50
176
     1
 90
       50
176
     1
 90
       50
176
     1
290
     0
176
     1
 90
       50
176
     1
 62
   256
176
     0
 40
1.0
176
     0
 90
        2
176
     1
  1
strokes_ogs.tif
176
     1
290
     0
176
     1
 40
1.0
176
     1
 40
1.0
176
     1
1001
ACAD
1000
AcDbSavedByObjectVersion
1070
     0
  0
VISUALSTYLE
  5
F3
102
{ACAD_REACTORS
330
EF
102
}
330
EF
100
AcDbVisualStyle
  2
GouraudWithEdges
 70
     3
177
     3
291
     1
 70
    58
 90
        2
176
     1
 90
        2
176
     1
 90
        1
176
     1
 90
        2
176
     1
 40
0.6
176
     1
 40
30.0
176
     1
 62
     7
420
 16777215
176
     1
 90
        1
176
     1
 90
        0
176
     1
 62
     7
176
     1
 62
   257
176
     1
 90
        1
176
     1
 90
        1
176
     1
 40
1.0
176
     1
 90
        0
176
     1
 62
   257
176
     1
 40
1.0
176
     1
 90
        1
176
     1
 90
        6
176
     1
 90
        2
176
     1
 62
     7
176
     1
 90
        5
176
     1
 90
        0
176
     1
 90
        0
176
     1
290
     0
176
     1
 90
       13
176
     1
 40
0.0
176
     1
 90
        0
176
     1
290
     0
176
     1
290
     1
176
     1
290
     1
176
     1
290
     0
176
     1
290
     0
176
     1
290
     0
176
     1
290
     0
176
     1
290
     0
176
     1
290
     0
176
     1
 90
       50
176
     1
 40
0.0
176
     1
 40
1.0
176
     1
 90
        0
176
     1
 62
    18
420
        0
176
     1
 90
       50
176
     1
 90
        3
176
     1
 62
     5
420
      255
176
     1
290
     0
176
     1
 90
       50
176
     1
 90
       50
176
     1
 90
       50
176
     1
290
     0
176
     1
 90
       50
176
     1
 62
   256
176
     0
 40
1.0
176
     0
 90
        2
176
     1
  1
strokes_ogs.tif
176
     1
290
     0
176
     1
 40
1.0
176
     1
 40
1.0
176
     1
1001
ACAD
1000
AcDbSavedByObjectVersion
1070
     0
  0
VISUALSTYLE
  5
F7
102
{ACAD_REACTORS
330
EF
102
}
330
EF
100
AcDbVisualStyle
  2
Hidden
 70
     6
177
     3
291
     0
 70
    58
 90
        1
176
     1
 90
        2
176
     1
 90
        2
176
     1
 90
        0
176
     1
 40
0.6
176
     1
 40
30.0
176
     1
 62
     7
420
 16777215
176
     1
 90
        2
176
     1
 90
        2
176
     1
 62
     7
176
     1
 62
   257
176
     1
 90
        2
176
     1
 90
        1
176
     1
 40
40.0
176
     1
 90
        0
176
     1
 62
   257
176
     1
 40
1.0
176
     1
 90
        1
176
     1
 90
        6
176
     1
 90
        2
176
     1
 62
     7
176
     1
 90
        3
176
     1
 90
        0
176
     1
 90
        0
176
     1
290
     0
176
     1
 90
        1
176
     1
 40
0.0
176
     1
 90
        0
176
     1
290
     0
176
     1
290
     1
176
     1
290
     1
176
     1
290
     0
176
     1
290
     0
176
     1
290
     0
176
     1
290
     0
176
     1
290
     0
176
     1
290
     0
176
     1
 90
       50
176
     1
 40
0.0
176
     1
 40
1.0
176
     1
 90
        0
176
     1
 62
    18
420
        0
176
     1
 90
       50
176
     1
 90
        3
176
     1
 62
     5
420
      255
176
     1
290
     0
176
     1
 90
       50
176
     1
 90
       50
176
     1
 90
       50
176
     1
290
     0
176
     1
 90
       50
176
     1
 62
   256
176
     0
 40
1.0
176
     0
 90
        2
176
     1
  1
strokes_ogs.tif
176
     1
290
     0
176
     1
 40
1.0
176
     1
 40
1.0
176
     1
1001
ACAD
1000
AcDbSavedByObjectVersion
1070
     0
  0
VISUALSTYLE
  5
1E4
102
{ACAD_REACTORS
330
EF
102
}
330
EF
100
AcDbVisualStyle
  2
JitterOff
 70
    20
177
     3
291
     1
 70
    58
 90
        2
176
     0
 90
        2
176
     0
 90
        0
176
     0
 90
        0
176
     0
 40
0.6
176
     0
 40
30.0
176
     0
 62
     7
420
 16777215
176
     0
 90
        1
176
     0
 90
        4
176
     0
 62
     7
176
     0
 62
   257
176
     0
 90
        1
176
     0
 90
        1
176
     0
 40
1.0
176
     0
 90
       10
176
     2
 62
     7
176
     0
 40
1.0
176
     0
 90
        1
176
     0
 90
        6
176
     0
 90
        2
176
     0
 62
     7
176
     0
 90
        5
176
     0
 90
        0
176
     0
 90
        0
176
     0
290
     0
176
     0
 90
        1
176
     0
 40
0.0
176
     0
 90
        0
176
     0
290
     0
176
     1
290
     1
176
     1
290
     1
176
     1
290
     0
176
     1
290
     0
176
     1
290
     0
176
     1
290
     0
176
     1
290
     0
176
     1
290
     0
176
     1
 90
       50
176
     1
 40
0.0
176
     1
 40
1.0
176
     1
 90
        0
176
     1
 62
    18
420
        0
176
     1
 90
       50
176
     1
 90
        3
176
     1
 62
     5
420
      255
176
     1
290
     0
176
     1
 90
       50
176
     1
 90
       50
176
     1
 90
       50
176
     1
290
     0
176
     1
 90
       50
176
     1
 62
   256
176
     0
 40
1.0
176
     0
 90
        2
176
     1
  1
strokes_ogs.tif
176
     1
290
     0
176
     1
 40
1.0
176
     1
 40
1.0
176
     1
1001
ACAD
1000
AcDbSavedByObjectVersion
1070
     0
  0
VISUALSTYLE
  5
FD
102
{ACAD_REACTORS
330
EF
102
}
330
EF
100
AcDbVisualStyle
  2
Linepattern
 70
    14
177
     3
291
     1
 70
    58
 90
        2
176
     1
 90
        2
176
     1
 90
        1
176
     1
 90
        0
176
     1
 40
0.6
176
     1
 40
30.0
176
     1
 62
     7
420
 16777215
176
     1
 90
        1
176
     1
 90
        4
176
     1
 62
     7
176
     1
 62
   257
176
     1
 90
        7
176
     1
 90
        7
176
     1
 40
1.0
176
     1
 90
        8
176
     1
 62
     7
176
     1
 40
1.0
176
     1
 90
        1
176
     1
 90
        6
176
     1
 90
        2
176
     1
 62
     7
176
     1
 90
        5
176
     1
 90
        0
176
     1
 90
        0
176
     1
290
     0
176
     1
 90
        1
176
     1
 40
0.0
176
     1
 90
        0
176
     1
290
     0
176
     1
290
     1
176
     1
290
     1
176
     1
290
     0
176
     1
290
     0
176
     1
290
     0
176
     1
290
     0
176
     1
290
     0
176
     1
290
     0
176
     1
 90
       50
176
     1
 40
0.0
176
     1
 40
1.0
176
     1
 90
        0
176
     1
 62
    18
420
        0
176
     1
 90
       50
176
     1
 90
        3
176
     1
 62
     5
420
      255
176
     1
290
     0
176
     1
 90
       50
176
     1
 90
       50
176
     1
 90
       50
176
     1
290
     0
176
     1
 90
       50
176
     1
 62
   256
176
     0
 40
1.0
176
     0
 90
        2
176
     1
  1
strokes_ogs.tif
176
     1
290
     0
176
     1
 40
1.0
176
     1
 40
1.0
176
     1
1001
ACAD
1000
AcDbSavedByObjectVersion
1070
     0
  0
VISUALSTYLE
  5
1E5
102
{ACAD_REACTORS
330
EF
102
}
330
EF
100
AcDbVisualStyle
  2
OverhangOff
 70
    21
177
     3
291
     1
 70
    58
 90
        2
176
     0
 90
        2
176
     0
 90
        0
176
     0
 90
        0
176
     0
 40
0.6
176
     0
 40
30.0
176
     0
 62
     7
420
 16777215
176
     0
 90
        1
176
     0
 90
        4
176
     0
 62
     7
176
     0
 62
   257
176
     0
 90
        1
176
     0
 90
        1
176
     0
 40
1.0
176
     0
 90
        9
176
     2
 62
     7
176
     0
 40
1.0
176
     0
 90
        1
176
     0
 90
        6
176
     0
 90
        2
176
     0
 62
     7
176
     0
 90
        5
176
     0
 90
        0
176
     0
 90
        0
176
     0
290
     0
176
     0
 90
        1
176
     0
 40
0.0
176
     0
 90
        0
176
     0
290
     0
176
     1
290
     1
176
     1
290
     1
176
     1
290
     0
176
     1
290
     0
176
     1
290
     0
176
     1
290
     0
176
     1
290
     0
176
     1
290
     0
176
     1
 90
       50
176
     1
 40
0.0
176
     1
 40
1.0
176
     1
 90
        0
176
     1
 62
    18
420
        0
176
     1
 90
       50
176
     1
 90
        3
176
     1
 62
     5
420
      255
176
     1
290
     0
176
     1
 90
       50
176
     1
 90
       50
176
     1
 90
       50
176
     1
290
     0
176
     1
 90
       50
176
     1
 62
   256
176
     0
 40
1.0
176
     0
 90
        2
176
     1
  1
strokes_ogs.tif
176
     1
290
     0
176
     1
 40
1.0
176
     1
 40
1.0
176
     1
1001
ACAD
1000
AcDbSavedByObjectVersion
1070
     0
  0
VISUALSTYLE
  5
F9
102
{ACAD_REACTORS
330
EF
102
}
330
EF
100
AcDbVisualStyle
  2
Realistic
 70
     8
177
     3
291
     0
 70
    58
 90
        2
176
     1
 90
        3
176
     1
 90
        0
176
     1
 90
        2
176
     1
 40
0.6
176
     1
 40
30.0
176
     1
 62
     7
420
 16777215
176
     1
 90
        0
176
     1
 90
        0
176
     1
 62
     7
176
     1
 62
   257
176
     1
 90
        1
176
     1
 90
        1
176
     1
 40
1.0
176
     1
 90
        8
176
     1
 62
   257
176
     1
 40
1.0
176
     1
 90
        1
176
     1
 90
        6
176
     1
 90
        2
176
     1
 62
     7
176
     1
 90
        3
176
     1
 90
        0
176
     1
 90
        0
176
     1
290
     0
176
     1
 90
       13
176
     1
 40
0.0
176
     1
 90
        0
176
     1
290
     0
176
     1
290
     1
176
     1
290
     1
176
     1
290
     0
176
     1
290
     0
176
     1
290
     0
176
     1
290
     0
176
     1
290
     0
176
     1
290
     0
176
     1
 90
       50
176
     1
 40
0.0
176
     1
 40
1.0
176
     1
 90
        0
176
     1
 62
    18
420
        0
176
     1
 90
       50
176
     1
 90
        3
176
     1
 62
     5
420
      255
176
     1
290
     0
176
     1
 90
       50
176
     1
 90
       50
176
     1
 90
       50
176
     1
290
     0
176
     1
 90
       50
176
     1
 62
   256
176
     0
 40
1.0
176
     0
 90
        2
176
     1
  1
strokes_ogs.tif
176
     1
290
     0
176
     1
 40
1.0
176
     1
 40
1.0
176
     1
1001
ACAD
1000
AcDbSavedByObjectVersion
1070
     0
  0
VISUALSTYLE
  5
1F3
102
{ACAD_REACTORS
330
EF
102
}
330
EF
100
AcDbVisualStyle
  2
Shaded
 70
    27
177
     3
291
     0
 70
    58
 90
        2
176
     1
 90
        2
176
     1
 90
        1
176
     1
 90
        2
176
     1
 40
0.6
176
     1
 40
30.0
176
     1
 62
     7
420
 16777215
176
     1
 90
        0
176
     1
 90
        4
176
     1
 62
     7
176
     1
 62
   257
176
     1
 90
        1
176
     1
 90
        1
176
     1
 40
1.0
176
     1
 90
        8
176
     1
 62
   257
176
     1
 40
1.0
176
     1
 90
        1
176
     1
 90
        6
176
     1
 90
        2
176
     1
 62
     8
420
  7895160
176
     1
 90
        3
176
     1
 90
        0
176
     1
 90
        0
176
     1
290
     0
176
     1
 90
        5
176
     1
 40
0.0
176
     1
 90
        0
176
     1
290
     0
176
     1
290
     1
176
     1
290
     1
176
     1
290
     0
176
     1
290
     0
176
     1
290
     0
176
     1
290
     0
176
     1
290
     0
176
     1
290
     0
176
     1
 90
       50
176
     1
 40
0.0
176
     1
 40
1.0
176
     1
 90
        0
176
     1
 62
    18
420
        0
176
     1
 90
       50
176
     1
 90
        3
176
     1
 62
     5
420
      255
176
     1
290
     0
176
     1
 90
       50
176
     1
 90
       50
176
     1
 90
       50
176
     1
290
     0
176
     1
 90
       50
176
     1
 62
   256
176
     0
 40
1.0
176
     0
 90
        2
176
     1
  1
strokes_ogs.tif
176
     1
290
     0
176
     1
 40
1.0
176
     1
 40
1.0
176
     1
1001
ACAD
1000
AcDbSavedByObjectVersion
1070
     0
  0
VISUALSTYLE
  5
1F2
102
{ACAD_REACTORS
330
EF
102
}
330
EF
100
AcDbVisualStyle
  2
Shaded with edges
 70
    26
177
     3
291
     0
 70
    58
 90
        2
176
     1
 90
        2
176
     1
 90
        1
176
     1
 90
        2
176
     1
 40
0.6
176
     1
 40
30.0
176
     1
 62
     7
420
 16777215
176
     1
 90
        1
176
     1
 90
        2
176
     1
 62
     7
176
     1
 62
   257
176
     1
 90
        2
176
     1
 90
        1
176
     1
 40
1.0
176
     1
 90
        8
176
     1
 62
   257
176
     1
 40
1.0
176
     1
 90
        1
176
     1
 90
        6
176
     1
 90
        2
176
     1
 62
     7
176
     1
 90
        3
176
     1
 90
        0
176
     1
 90
        0
176
     1
290
     0
176
     1
 90
        5
176
     1
 40
0.0
176
     1
 90
        0
176
     1
290
     0
176
     1
290
     1
176
     1
290
     1
176
     1
290
     0
176
     1
290
     0
176
     1
290
     0
176
     1
290
     0
176
     1
290
     0
176
     1
290
     0
176
     1
 90
       50
176
     1
 40
0.0
176
     1
 40
1.0
176
     1
 90
        0
176
     1
 62
    18
420
        0
176
     1
 90
       50
176
     1
 90
        3
176
     1
 62
     5
420
      255
176
     1
290
     0
176
     1
 90
       50
176
     1
 90
       50
176
     1
 90
       50
176
     1
290
     0
176
     1
 90
       50
176
     1
 62
   256
176
     0
 40
1.0
176
     0
 90
        2
176
     1
  1
strokes_ogs.tif
176
     1
290
     0
176
     1
 40
1.0
176
     1
 40
1.0
176
     1
1001
ACAD
1000
AcDbSavedByObjectVersion
1070
     0
  0
VISUALSTYLE
  5
1EF
102
{ACAD_REACTORS
330
EF
102
}
330
EF
100
AcDbVisualStyle
  2
Shades of Gray
 70
    23
177
     3
291
     0
 70
    58
 90
        2
176
     1
 90
        2
176
     1
 90
        3
176
     1
 90
        0
176
     1
 40
0.6
176
     1
 40
30.0
176
     1
 62
     7
420
 16777215
176
     1
 90
        2
176
     1
 90
        2
176
     1
 62
     7
176
     1
 62
     7
176
     1
 90
        1
176
     1
 90
        1
176
     1
 40
40.0
176
     1
 90
        8
176
     1
 62
     7
176
     1
 40
1.0
176
     1
 90
        1
176
     1
 90
        6
176
     1
 90
        2
176
     1
 62
     7
176
     1
 90
        3
176
     1
 90
        0
176
     1
 90
        0
176
     1
290
     0
176
     1
 90
        1
176
     1
 40
0.0
176
     1
 90
        0
176
     1
290
     0
176
     1
290
     1
176
     1
290
     1
176
     1
290
     0
176
     1
290
     0
176
     1
290
     0
176
     1
290
     0
176
     1
290
     0
176
     1
290
     0
176
     1
 90
       50
176
     1
 40
0.0
176
     1
 40
1.0
176
     1
 90
        0
176
     1
 62
    18
420
        0
176
     1
 90
       50
176
     1
 90
        3
176
     1
 62
     5
420
      255
176
     1
290
     0
176
     1
 90
       50
176
     1
 90
       50
176
     1
 90
       50
176
     1
290
     0
176
     1
 90
       50
176
     1
 62
   256
176
     0
 40
1.0
176
     0
 90
        2
176
     1
  1
strokes_ogs.tif
176
     1
290
     0
176
     1
 40
1.0
176
     1
 40
1.0
176
     1
1001
ACAD
1000
AcDbSavedByObjectVersion
1070
     0
  0
VISUALSTYLE
  5
1F0
102
{ACAD_REACTORS
330
EF
102
}
330
EF
100
AcDbVisualStyle
  2
Sketchy
 70
    24
177
     3
291
     0
 70
    58
 90
        1
176
     1
 90
        2
176
     1
 90
        2
176
     1
 90
        0
176
     1
 40
0.6
176
     1
 40
30.0
176
     1
 62
     7
420
 16777215
176
     1
 90
        2
176
     1
 90
        2
176
     1
 62
     7
176
     1
 62
     7
176
     1
 90
        1
176
     1
 90
        1
176
     1
 40
40.0
176
     1
 90
       11
176
     1
 62
     7
176
     1
 40
1.0
176
     1
 90
        1
176
     1
 90
        6
176
     1
 90
        2
176
     1
 62
     7
176
     1
 90
        6
176
     1
 90
        0
176
     1
 90
        0
176
     1
290
     0
176
     1
 90
        1
176
     1
 40
0.0
176
     1
 90
        0
176
     1
290
     0
176
     1
290
     1
176
     1
290
     1
176
     1
290
     0
176
     1
290
     0
176
     1
290
     0
176
     1
290
     0
176
     1
290
     0
176
     1
290
     0
176
     1
 90
       50
176
     1
 40
0.0
176
     1
 40
1.0
176
     1
 90
        0
176
     1
 62
    18
420
        0
176
     1
 90
       50
176
     1
 90
        3
176
     1
 62
     5
420
      255
176
     1
290
     0
176
     1
 90
       50
176
     1
 90
       50
176
     1
 90
       50
176
     1
290
     0
176
     1
 90
       50
176
     1
 62
   256
176
     0
 40
1.0
176
     0
 90
        2
176
     1
  1
strokes_ogs.tif
176
     1
290
     0
176
     1
 40
1.0
176
     1
 40
1.0
176
     1
1001
ACAD
1000
AcDbSavedByObjectVersion
1070
     0
  0
VISUALSTYLE
  5
FC
102
{ACAD_REACTORS
330
EF
102
}
330
EF
100
AcDbVisualStyle
  2
Thicken
 70
    13
177
     3
291
     1
 70
    58
 90
        2
176
     1
 90
        2
176
     1
 90
        1
176
     1
 90
        0
176
     1
 40
0.6
176
     1
 40
30.0
176
     1
 62
     7
420
 16777215
176
     1
 90
        1
176
     1
 90
        4
176
     1
 62
     7
176
     1
 62
   257
176
     1
 90
        1
176
     1
 90
        1
176
     1
 40
1.0
176
     1
 90
       12
176
     1
 62
     7
176
     1
 40
1.0
176
     1
 90
        1
176
     1
 90
        6
176
     1
 90
        2
176
     1
 62
     7
176
     1
 90
        5
176
     1
 90
        0
176
     1
 90
        0
176
     1
290
     0
176
     1
 90
        1
176
     1
 40
0.0
176
     1
 90
        0
176
     1
290
     0
176
     1
290
     1
176
     1
290
     1
176
     1
290
     0
176
     1
290
     0
176
     1
290
     0
176
     1
290
     0
176
     1
290
     0
176
     1
290
     0
176
     1
 90
       50
176
     1
 40
0.0
176
     1
 40
1.0
176
     1
 90
        0
176
     1
 62
    18
420
        0
176
     1
 90
       50
176
     1
 90
        3
176
     1
 62
     5
420
      255
176
     1
290
     0
176
     1
 90
       50
176
     1
 90
       50
176
     1
 90
       50
176
     1
290
     0
176
     1
 90
       50
176
     1
 62
   256
176
     0
 40
1.0
176
     0
 90
        2
176
     1
  1
strokes_ogs.tif
176
     1
290
     0
176
     1
 40
1.0
176
     1
 40
1.0
176
     1
1001
ACAD
1000
AcDbSavedByObjectVersion
1070
     0
  0
VISUALSTYLE
  5
F6
102
{ACAD_REACTORS
330
EF
102
}
330
EF
100
AcDbVisualStyle
  2
Wireframe
 70
     5
177
     3
291
     0
 70
    58
 90
        0
176
     1
 90
        2
176
     1
 90
        0
176
     1
 90
        0
176
     1
 40
0.6
176
     1
 40
30.0
176
     1
 62
     7
420
 16777215
176
     1
 90
        1
176
     1
 90
        4
176
     1
 62
     7
176
     1
 62
   257
176
     1
 90
        1
176
     1
 90
        1
176
     1
 40
1.0
176
     1
 90
        0
176
     1
 62
   257
176
     1
 40
1.0
176
     1
 90
        1
176
     1
 90
        6
176
     1
 90
        2
176
     1
 62
     7
176
     1
 90
        3
176
     1
 90
        0
176
     1
 90
        0
176
     1
290
     0
176
     1
 90
        1
176
     1
 40
0.0
176
     1
 90
        0
176
     1
290
     0
176
     1
290
     1
176
     1
290
     1
176
     1
290
     0
176
     1
290
     0
176
     1
290
     0
176
     1
290
     0
176
     1
290
     0
176
     1
290
     0
176
     1
 90
       50
176
     1
 40
0.0
176
     1
 40
1.0
176
     1
 90
        0
176
     1
 62
    18
420
        0
176
     1
 90
       50
176
     1
 90
        3
176
     1
 62
     5
420
      255
176
     1
290
     0
176
     1
 90
       50
176
     1
 90
       50
176
     1
 90
       50
176
     1
290
     0
176
     1
 90
       50
176
     1
 62
   256
176
     0
 40
1.0
176
     0
 90
        2
176
     1
  1
strokes_ogs.tif
176
     1
290
     0
176
     1
 40
1.0
176
     1
 40
1.0
176
     1
1001
ACAD
1000
AcDbSavedByObjectVersion
1070
     0
  0
VISUALSTYLE
  5
1F1
102
{ACAD_REACTORS
330
EF
102
}
330
EF
100
AcDbVisualStyle
  2
X-Ray
 70
    25
177
     3
291
     0
 70
    58
 90
        2
176
     1
 90
        2
176
     1
 90
        1
176
     1
 90
        1
176
     1
 40
0.5
176
     1
 40
30.0
176
     1
 62
     7
420
 16777215
176
     1
 90
        1
176
     1
 90
        0
176
     1
 62
     7
176
     1
 62
   257
176
     1
 90
        1
176
     1
 90
        1
176
     1
 40
1.0
176
     1
 90
        8
176
     1
 62
     7
176
     1
 40
1.0
176
     1
 90
        1
176
     1
 90
        6
176
     1
 90
        2
176
     1
 62
     7
176
     1
 90
        3
176
     1
 90
        0
176
     1
 90
        0
176
     1
290
     0
176
     1
 90
       13
176
     1
 40
0.0
176
     1
 90
        0
176
     1
290
     0
176
     1
290
     1
176
     1
290
     1
176
     1
290
     0
176
     1
290
     0
176
     1
290
     0
176
     1
290
     0
176
     1
290
     0
176
     1
290
     0
176
     1
 90
       50
176
     1
 40
0.0
176
     1
 40
1.0
176
     1
 90
        0
176
     1
 62
    18
420
        0
176
     1
 90
       50
176
     1
 90
        3
176
     1
 62
     5
420
      255
176
     1
290
     0
176
     1
 90
       50
176
     1
 90
       50
176
     1
 90
       50
176
     1
290
     0
176
     1
 90
       50
176
     1
 62
   256
176
     0
 40
1.0
176
     0
 90
        2
176
     1
  1
strokes_ogs.tif
176
     1
290
     0
176
     1
 40
1.0
176
     1
 40
1.0
176
     1
1001
ACAD
1000
AcDbSavedByObjectVersion
1070
     0
  0
DICTIONARYVAR
  5
146
102
{ACAD_REACTORS
330
5E
102
}
330
5E
100
DictionaryVariables
280
     0
  1
1:1
  0
DICTIONARYVAR
  5
259
102
{ACAD_REACTORS
330
5E
102
}
330
5E
100
DictionaryVariables
280
     0
  1
3.500000
  0
DICTIONARYVAR
  5
25A
102
{ACAD_REACTORS
330
5E
102
}
330
5E
100
DictionaryVariables
280
     0
  1
acadiso.lin
  0
DICTIONARYVAR
  5
145
102
{ACAD_REACTORS
330
5E
102
}
330
5E
100
DictionaryVariables
280
     0
  1
STANDARD
  0
DICTIONARYVAR
  5
84
102
{ACAD_REACTORS
330
5E
102
}
330
5E
100
DictionaryVariables
280
     0
  1
STANDARD
  0
DICTIONARYVAR
  5
227
102
{ACAD_REACTORS
330
5E
102
}
330
5E
100
DictionaryVariables
280
     0
  1
Metric50
  0
DICTIONARYVAR
  5
228
102
{ACAD_REACTORS
330
5E
102
}
330
5E
100
DictionaryVariables
280
     0
  1
Metric50
  0
DICTIONARYVAR
  5
5F
102
{ACAD_REACTORS
330
5E
102
}
330
5E
100
DictionaryVariables
280
     0
  1
2
  0
DICTIONARYVAR
  5
63
102
{ACAD_REACTORS
330
5E
102
}
330
5E
100
DictionaryVariables
280
     0
  1
1
  0
DICTIONARYVAR
  5
1AE
102
{ACAD_REACTORS
330
5E
102
}
330
5E
100
DictionaryVariables
280
     0
  1
0
  0
DICTIONARYVAR
  5
1AF
102
{ACAD_REACTORS
330
5E
102
}
330
5E
100
DictionaryVariables
280
     0
  1
0
  0
DICTIONARY
  5
58F
102
{ACAD_REACTORS
330
58D
102
}
330
58D
100
AcDbDictionary
281
     1
  0
DICTIONARY
  5
58E
102
{ACAD_REACTORS
330
58D
102
}
330
58D
100
AcDbDictionary
281
     1
  3
1984274947584
350
588
  3
1984274947600
350
589
  3
1984274947616
350
58A
  3
1984274947632
350
58B
  3
1984274947648
350
58C
  0
DICTIONARY
  5
592
330
21C
100
AcDbDictionary
280
     1
281
     1
  3
ACAD_XREC_ROUNDTRIP
360
593
  0
DICTIONARY
  5
205
330
22
100
AcDbDictionary
280
     1
281
     1
  0
DICTIONARY
  5
1F9
330
ED
100
AcDbDictionary
280
     1
281
     1
  3
FBXASSET
360
1FA
  0
DICTIONARY
  5
1F7
330
EC
100
AcDbDictionary
280
     1
281
     1
  3
FBXASSET
360
1F8
  0
DICTIONARY
  5
173
330
EE
100
AcDbDictionary
280
     1
281
     1
  3
BUMPTILE
360
175
  3
DIFFUSETILE
360
174
  3
FBXASSET
360
1FB
  3
OPACITYTILE
360
176
  3
REFLECTIONTILE
360
177
  0
DICTIONARY
  5
590
330
21A
100
AcDbDictionary
280
     1
281
     1
  3
ACAD_XREC_ROUNDTRIP
360
591
  0
DICTIONARY
  5
162
330
7F
100
AcDbDictionary
280
     1
281
     1
  3
ACAD_ROUNDTRIP_2008_TABLESTYLE_CELLSTYLEMAP
360
586
  0
XRECORD
  5
588
102
{ACAD_REACTORS
330
58E
102
}
330
58E
100
AcDbXrecord
280
     1
  1
AcDb_Thumbnail_Schema
102
{ATTRRECORD
341
589
  2
AcDbDs::TreatedAsObjectData
280
     1
291
     1
102
ATTRRECORD}
102
{ATTRRECORD
341
58A
  2
AcDbDs::Legacy
280
     1
291
     1
102
ATTRRECORD}
  2
AcDbDs::ID
280
    10
 91
        8
102
{ATTRRECORD
341
58B
  2
AcDs:Indexable
280
     1
291
     1
102
ATTRRECORD}
102
{ATTRRECORD
341
58C
  2
AcDbDs::HandleAttribute
280
     7
282
     1
102
ATTRRECORD}
  2
Thumbnail_Data
280
    15
 91
        0
  0
XRECORD
  5
589
102
{ACAD_REACTORS
330
58E
102
}
330
58E
100
AcDbXrecord
280
     1
  1
AcDbDs::TreatedAsObjectDataSchema
  2
AcDbDs::TreatedAsObjectData
280
     1
 91
        0
  0
XRECORD
  5
58A
102
{ACAD_REACTORS
330
58E
102
}
330
58E
100
AcDbXrecord
280
     1
  1
AcDbDs::LegacySchema
  2
AcDbDs::Legacy
280
     1
 91
        0
  0
XRECORD
  5
58B
102
{ACAD_REACTORS
330
58E
102
}
330
58E
100
AcDbXrecord
280
     1
  1
AcDbDs::IndexedPropertySchema
  2
AcDs:Indexable
280
     1
 91
        0
  0
XRECORD
  5
58C
102
{ACAD_REACTORS
330
58E
102
}
330
58E
100
AcDbXrecord
280
     1
  1
AcDbDs::HandleAttributeSchema
  2
AcDbDs::HandleAttribute
280
     7
 91
        1
284
     1
  0
XRECORD
  5
593
102
{ACAD_REACTORS
330
592
102
}
330
592
100
AcDbXrecord
280
     1
102
DISPLAYNAME
  1
Metric50
102
FLAGS
 90
        0
  0
XRECORD
  5
1FA
102
{ACAD_REACTORS
330
1F9
102
}
330
1F9
100
AcDbXrecord
280
     1
 70
     1
 90
429727718
  1
D62C5603-E3A1-4AEA-B7FB-FE5D8D0755AF
310
504B03040A0000080000CC70623B3DEE336E79000000790000001B0000006175746F6465736B2D64657369676E2D7061636B6167652E786D6C3C3F786D6C2076657273696F6E3D22312E302220656E636F64696E673D227574662D3822203F3E3C666F726D6174733E3C666F726D61743E687474703A2F2F736368656D612E
310
6175746F6465736B2E636F6D2F64657369676E2D7061636B6167652F323030393C2F666F726D61743E3C2F666F726D6174733E504B0304140006080800CC70623BD486FD9CA0000000F4000000130000005B436F6E74656E745F54797065735D2E786D6C7D8EC10E82300C865F65E91D8A1E8C310C0EEA1BF002731658846E
310
D98AC1B77784ABF1D8FE5FBFBF75BBCE937A534CCEB38643598122B6FEE978D0B0485F9C41B54DDD7D022595594E1A469170414C76A4D9A4D207E29CF43ECE46F218070CC6BECC4078ACAA135ACF422C856C0E68EA1BF5669944DDD7BCDE7B1F8E415D77AECB980613C2E4AC91FC167A2B244592486606FC29C8FD7F045B9A
310
EF7053A7E60B504B0304140006080800CC70623B853B8169EB0000007C01000008000000636F72652E786D6C8D90416EC3201045AF62CDB6C206821CC7C244919D9CA01740401C94182C03558F5F9C3852BBEB6A467FFE9B197D7EFC9E1EC5975982F5AE035262288C535E5B377690E21535501C055FBC8FBF6C503839990E
310
5619041F179FE64D52DE45E362569DD7661365082642A11EB9E920A89B99642953CC8E702F67A9EE7234257977194EC9EAE275C4EABCCF5EAD5940D4AC6F0E35A568B8F43562CD7046CD199FD07E60174276A7BE677B5EADB0E0D14EEFFB6A31321A0D82627C4084204C3F096B71DD52F6819B16635EADF63F509AF53FA164
310
5DDCD1EDDD17164090FCC8732078B56691CB33A85CD7DCC40F504B0304140006080800CC70623B55019EA25F0000007C00000007000000636E782E786D6C4DCB3B0E80201045D1AD90E915ED2CF8AC45050C11660C8261F98AB1B07AC9C97D42D718D865D3E909258CFD00CCE24AC6E326A164D74DC0B4128928FF32603847
310
2BA13128B1252AC747C6BAB984FC68F0B87FE8960A5C09FE86CFB69FBA01504B0304140006080800CC70623BDBABAAF470010000D40300000C0000006662782F636F72652E786D6CC553D16E823014FD95A6AF4B694182CC941A83FA05FB810A9511A125A5257EFE2E82712ECEB8A7F100CD39F7F69E734AF9FADC366850B6
310
AF8DCE7018308C942E4C59EB2AC3DE1D498AD15A706B8CFB56869196ADCAF00863C12B6B7C374385D14E6907A836A59A41D9F7CA615434B0C8705F7CAA5606D23BA8E84F41278B93AC54100640439DE0BDB320004D43C63716C7C399D30917DCFBBA9CD9BA8469F5B156168B24CED3F7248AC8769F27244EB73B92EED8862C
310
B7F13E0C179B3C8F979C8ECD82BBBABDAA2BAC924E9558448CBD9330242CFA08E3154B5651FCC6D215639C8EE5774DBE2B5F6CF2B5768B68963BB5F5588420E442FC700B1139D4CB01F450C1E918227C2E09DF070D8140C84E1E9AAB8F1340832A9CB13130A5F1376A908D57309505ECF2A0DF179C4E9D30F5B239B87E3823
310
7A79C6F31DE1A8A5AEC08474B03C7837EAE4938639B44E5932B833D2C6B6B279CDC613877FA26EE21F4A2A4C63EC7F29A2F301D1F9F7A0E37D145F504B0304140006080800CC70623B9C113CC27E0000009D0000000B0000006662782F636E782E786D6C4DCCDF0A83201C86E15B91DFB94BFB330DD428C8FB886521330DA7
310
6397BF1A1DECE883878F57749FCDA1B7892F1BBC047A23808C7F84D9FA55424E0BE6803A256208E9EF06C84F9B91703228B1C690F78B66B34CD9A5439DF5CF0BFBF65E35BCA1B8D6A5C6F540381E886698B5741C695F9503EBA150A2F8958E3DC3EA0B504B0304140006080800CC70623B7DF2F77C2A010000120200003100
310
00006662782F41393633353835312D344632462D344230382D423046372D3739314545314133324237412F636F72652E786D6C8D51DB8EC22014FC15C2939B0D2DB4B45643319AE817EC0F6041255A68B86CFCFC856D4D76DF7CE190393373060EDB3DC707F856CE6B6B7A480A0C81328395DA5C7B18C3057510EC3873D686
310
3F34088C18550F330C39BB3A1BA7051AAC09CA84841A2BD5020AEF55806078A44B0FFD7053A328440C89E1EFC52486BBB8AA8214A99D789CF9E05200300FC927E4FB4D5B375D43103D5527440FB843077C5AA3F5861C8F645F5787F59E95B390B318B55CE45AA638FAA2957BD7248B390B7A7CC51F9C124149C82B8C378810
310
84AB2F42B7B8DD56F413775B8C5999E9FF4471926F8AA236A1AE96B8B3CC434E5839373893369E1FAF30EA395917409EB7F26AF8801C171837A4A6AC9C89E9F9C9B1A58BA30FD6A5EF5DDDCF894B9AD9B6A59C957943A9FCAE2FD5BC4DFE03504B0304140006080800CC70623BAD7543B64E01000033030000300000006662
310
782F41393633353835312D344632462D344230382D423046372D3739314545314133324237412F636E782E786D6CD593CD6EC32010845F0571AD6CE3D48AD20813A9873E410FBD12D82434182C7EAAE6EDBB2424CD25871E7B41D6EC30B3FA84F9E67BB2E40B4234DE8DB46F1925E094D7C6ED479AD3AE5951B2113C789FEE
310
6C943839C1488B4C05DF079FE72A69D8C96C13AAD6B8631503449F83828872B949AC57D26200B826A308D316B4064D6E46FCDA41C05550DC9E483A00797BFD207EFB092A45DE9514C1BBD22178396BD39D891265658C238DEA00936C654E5E433CB65A26D9F6EDB5EBC14EBF49A45CB856E66048291F6939A9A81BB5C89177
310
38143CA680F4AA299D66A042CEB3354A2684DC9D8D178FE0D9B8B41CAAD720F880EE7EF93C0C18769E099ECC04D5A102C8049A8A05632F4DDF376CF1DE0F6BB65C2F8627B65A33C6BB62177CEBBDAD973006829F89F22E814B54F4BC2BE347F8AA8F681390B50FA73F804400B5F542E796F19FF974E7F78DB802FE05E20750
310
4B0304140006080800CC70623BE75B7789680500003C100000340000006662782F41393633353835312D344632462D344230382D423046372D3739314545314133324237412F6F626A656374732E786D6CAD575B8F9B3818FD2B887D06C22499CB8AA1CA655245D5B455A356FB305264C061D8018C6C3393D95FBFC7600890
310
A4CD5EF210B0B1BFEBF98E3F7B1FF6596ABC522E1296DF9BAE3D320D9A872C4AF2F8DE2CE5CEBA358D0FBEC719939D65A691938CDE9B6ADAF4BD98B3B2D05311DD91329583D9D5FC0F438434A7A611A644887B5384CF34233629258BA878B12322891DEFF6B66BD70BFB62634E8AE781D082709A4B588AF91C528CDA28B73F
310
1C998EEF39EABBEFA97FBD6A7C7E9553F9D3D79FE442923C3C523610337627CB87ABE99D359D4CC6D6E4FACAB5E6ABF9D2726FC6A3C5F56271377BB88362213924694B38DD99FE47C48627A1E7D49F5A8BB5E1A74C0A599ED3B0F21F1E56366B89112D681E218F0915D0D6F17AD41FBA2A369DCF6335D62ABBD39779D5DDD1
310
11D4D8DE3CBB96B2E04FB8202E41051754A1AA8E8F76B4C6DFE810B580B1547F4B84911149794252234D024EF8BBE963A95AE27B3D310A9D5C215C7960FAEE415ED75694C6AFB17BCACA5D99A60A9AA65F217B0BFC53292ACB92BF283FAD0D3621576592CB5BED907C2FA8E9DF794E35E97BEA31BED21FEB401ABB94C44839
310
DCACBF0E1C5DA8DA5B2F4DFFD32AD86F543D9E565E7056502E157C00AD2671CD534549AB752FCA9CDA00677A313F04E51B22FF19E57B300579E3C97EB29F682D92935CEC18CF901B7B54FD8C51F362B56FC72FE0B3C1EAE335EDCCBF5AEC39ADB17DC238973F804BA5E6F6BFE7AF1FB32E523BE9F3BD571418E3631DCA4D48
310
5250CF639223210A9446CA30052EDF057BD35F8329C1ECD84552BF0DC8D18BE7BCE23BFE6BD960AB4A7DE79923A103BEBD80F911CBAA2C60DB19B01CF164A5583B772EE6D3FFA56666CBCDA74DC97724A48F9A58967497E489C4D979006FD7A05E227A1EBDD0F737C623387A9C844D3709995625106D157315F8B8392CD4E0
310
A0B9A720C4BE9829CEF37EA1E13111214D53925356365ADA634861B52519DD27A00AEB808EAF0628E6F435519D446F45CF2C9CF5214F0A15B2F6D06B79DA3EE3CBF7F56780D2F4E7EF73A0F5E5B02A38D07DC852C6B7C1FBB6664213E0C39E3EBA7FF4E1AD23EA2829407C85E586727488B751B2DB9502BC7B228A3FD68B6E
310
A65A22397E690AA8D158D7E404EC8CDA235CC3B7D1898680131CEC2CDF2638C65196279577750F15884AEE19F94199155B92B13297978469D4F8D358DF0AEF7631E28DC8F0D9F437D5D39A83B2231A1D52D543813A824EF8D44BCFF2FA6A31BD1E8DAD87F1CCB526B3879935BF59CDADD5C37479BB1CDD4CA7B3556B516589
310
EF352754B706114D9C885EC9131DE6EFEB43D99AFE2391C2F958179413D7CFEF6B1B6DB1E7600F00DE6E5C67454A339A4BA2E0FBA85ED26F045D454F463DBFCE484C2F90F2E5E3666003662ED8F755951A7D1BECD5B30B550B2785C8E7320B7292A4838DDA71BBC863ED7613CAF659337A3354231D4FF4A182A54904C2898C
310
98B28C4AD0CE056CCF332A80986E571EE9DBC305BB5FEB7E509220A58D25CF042D712A806AC0AD0C657FDEF80D2D9CEAA2EE4D1C76F60BFE74219A06527D6F82DF6412526107381E55E353090704D085B52408A8913C4ED159D79BDA71BB4BC506F4831350EB6F975CD22D69BF7AC49B91A2C0A9DDA3D5CA36AD20FC478E37
310
E61844E2352865EBCB61A275A65283CAAA9DD27703B4102F5AF51EF5F573B75CBB5AD38BC845F7A49F82A0966A49C2E3EA5EA0ECD326CD965F1DB402C6FA8B51A4658C5C5E2EC9E214602E55810345408596591009A82E7E7FFACA19EEA299B14A0081A705CB3296EBC14CDF658DCD336EA6D1136881AAEB87B81AB9EE53D5
310
F5EB8BC8362082DA24122F98680A4E7930C01A0079749CEA14382A0783E5EBA5A10F8C098456A03D6A4AEB6BB881E2513747552A5DB22C7EDAF83BD5528081A365F7FF06504B0304140006080000CC70623B000000000000000000000000350000006662782F41393633353835312D344632462D344230382D423046372D37
310
39314545314133324237412F76657274696365732E62696E504B0304140006080800CC70623BF270F1330600000004000000360000006662782F41393633353835312D344632462D344230382D423046372D3739314545314133324237412F747269616E676C65732E62696E636660600000504B0304140006080000CC7062
310
3B000000000000000000000000370000006662782F41393633353835312D344632462D344230382D423046372D3739314545314133324237412F617474726962757465732E62696E504B0304140006080800CC70623B08DA0BD19000000041010000360000006662782F41393633353835312D344632462D344230382D4230
310
46372D3739314545314133324237412F6469726563746F72792E786D6C858F410AC3201045AF22B36F53E9A60B35CBEEBAE80D244E44489C6234F4F835464A48035D0DF398FF9F8AF63D0E6CC63039F212F8F9020C7D47C6792B21C5FE7403D62A1188E2E60C98D7234A5830286103A55745067B9D86B8A3CF9C7F90C11DE6
310
07FB144396D7B6A82D282E9A152AD114D5EF2CB866EEE831B8EEA07A7BB5A8D7D61A2BAAEB7FD5F70921FF497D00504B0304140006080800CC70623BEDD1DC58FD000000A00100003B0000006662782F41393633353835312D344632462D344230382D423046372D3739314545314133324237412F7265736F75726365732F
310
636F72652E786D6C8D504B6E833010BD0A9A6D65B00922041947112427E8052C33A156828DFCA97AFC9A40A576D7CDCCE87D344F8F9FBFE667F689CE6B6B3A6039850C8DB2A336530731DC4903D95970676DF82583CCC8193B5861107C72362E3BA4AC096842428D1D7107A5F7182053CF7474E0D507CE32973124857FE48B
310
540F3961CEF244279DE03EB81420DB9EAC1384436FA353E879B1B182C7A8C75DA3C7F453DF353A1075D537A7BA6464B8F535A99AE14A9A2BBD90E350DD183B5CFABE3AF262350B1EF4FC9351399401471025A527C218A1E53BAB5A5AB765F5469B96525EACF23FA6B88CFF34456DC2A1DCE36E360F82A5202F42F062ED2BAD
310
579969AFDD8A6F504B010214000A0000080000CC70623B3DEE336E79000000790000001B00000000000000000000000000000000006175746F6465736B2D64657369676E2D7061636B6167652E786D6C504B01021400140006080800CC70623BD486FD9CA0000000F40000001300000000000000000000000000B20000005B
310
436F6E74656E745F54797065735D2E786D6C504B01021400140006080800CC70623B853B8169EB0000007C010000080000000000000000000000000083010000636F72652E786D6C504B01021400140006080800CC70623B55019EA25F0000007C000000070000000000000000000000000094020000636E782E786D6C504B
310
01021400140006080800CC70623BDBABAAF470010000D40300000C00000000000000000000000000180300006662782F636F72652E786D6C504B01021400140006080800CC70623B9C113CC27E0000009D0000000B00000000000000000000000000B20400006662782F636E782E786D6C504B01021400140006080800CC70
310
623B7DF2F77C2A010000120200003100000000000000000000000000590500006662782F41393633353835312D344632462D344230382D423046372D3739314545314133324237412F636F72652E786D6C504B01021400140006080800CC70623BAD7543B64E010000330300003000000000000000000000000000D2060000
310
6662782F41393633353835312D344632462D344230382D423046372D3739314545314133324237412F636E782E786D6C504B01021400140006080800CC70623BE75B7789680500003C10000034000000000000000000000000006E0800006662782F41393633353835312D344632462D344230382D423046372D3739314545
310
314133324237412F6F626A656374732E786D6C504B01021400140006080000CC70623B0000000000000000000000003500000000000000000000000000280E00006662782F41393633353835312D344632462D344230382D423046372D3739314545314133324237412F76657274696365732E62696E504B01021400140006
310
080800CC70623BF270F133060000000400000036000000000000000000000000007B0E00006662782F41393633353835312D344632462D344230382D423046372D3739314545314133324237412F747269616E676C65732E62696E504B01021400140006080000CC70623B0000000000000000000000003700000000000000
310
000000000000D50E00006662782F41393633353835312D344632462D344230382D423046372D3739314545314133324237412F617474726962757465732E62696E504B01021400140006080800CC70623B08DA0BD1900000004101000036000000000000000000000000002A0F00006662782F41393633353835312D344632
310
462D344230382D423046372D3739314545314133324237412F6469726563746F72792E786D6C504B01021400140006080800CC70623BEDD1DC58FD000000A00100003B000000000000000000000000000E1000006662782F41393633353835312D344632462D344230382D423046372D3739314545314133324237412F7265
310
736F75726365732F636F72652E786D6C504B0506000000000E000E0080040000641100000000
  0
XRECORD
  5
1F8
102
{ACAD_REACTORS
330
1F7
102
}
330
1F7
100
AcDbXrecord
280
     1
 70
     1
 90
429727718
  1
30362254-06B7-45E0-A893-8CFA70E3D6BC
310
504B03040A0000080000CC70623B3DEE336E79000000790000001B0000006175746F6465736B2D64657369676E2D7061636B6167652E786D6C3C3F786D6C2076657273696F6E3D22312E302220656E636F64696E673D227574662D3822203F3E3C666F726D6174733E3C666F726D61743E687474703A2F2F736368656D612E
310
6175746F6465736B2E636F6D2F64657369676E2D7061636B6167652F323030393C2F666F726D61743E3C2F666F726D6174733E504B0304140006080800CC70623BD486FD9CA0000000F4000000130000005B436F6E74656E745F54797065735D2E786D6C7D8EC10E82300C865F65E91D8A1E8C310C0EEA1BF002731658846E
310
D98AC1B77784ABF1D8FE5FBFBF75BBCE937A534CCEB38643598122B6FEE978D0B0485F9C41B54DDD7D022595594E1A469170414C76A4D9A4D207E29CF43ECE46F218070CC6BECC4078ACAA135ACF422C856C0E68EA1BF5669944DDD7BCDE7B1F8E415D77AECB980613C2E4AC91FC167A2B244592486606FC29C8FD7F045B9A
310
EF7053A7E60B504B0304140006080800CC70623B1EC5D7A3EB0000007C01000008000000636F72652E786D6C8D90416EC3201045AF82665B6103C6756C6122AB4D4ED00B204C5C94182C03558F5F9C3852BBEB6A467FFE9B197D71FC9E6FE8CBACC17AD7032D0820E3B41FAD9B7A48F1820F808E52ACDEC75F36404ECDA687
310
4D0629A6D5A76597B477D1B89855E747B38B2A041301E95B6E7A08FAD3CCAA50296647B8168BD2573599823EBB0CA76447F43862C7BCCF5EAC59410E4DDD9C7973C2755553CCCFA4C603E3040F1565ED3B1FDE4E432BCA0D9622DAF9795FAF464533826484B498524CD807E51D79ED187F21878E10516EF63F505AC67F42C9
310
BA58B1FDDD071640D2FCC87D2045B96591CB3DA85CB7DCE40F504B0304140006080800CC70623B55019EA25F0000007C00000007000000636E782E786D6C4DCB3B0E80201045D1AD90E915ED2CF8AC45050C11660C8261F98AB1B07AC9C97D42D718D865D3E909258CFD00CCE24AC6E326A164D74DC0B4128928FF32603847
310
2BA13128B1252AC747C6BAB984FC68F0B87FE8960A5C09FE86CFB69FBA01504B0304140006080800CC70623B8C9102E971010000D40300000C0000006662782F636F72652E786D6CC5535B6E833010BC8AE5DF0A6C08340F1947A84D4ED00B38C6A128602363A31CBFCB234A53A551FA553EC09AD9F5CE8C31DB9E9B1AF5CA
310
7695D1198E428A91D2D214952E33ECDD315861B4E5CC1AE3BE9561A445A3323CC098B3D21ADFCE9034DA29ED00D5A6503328BA4E398C640D8B0C77F253352214DE4145770A5B214FA2546114020D759C75CE8200340D19DE981F0F6746269C33EFAB6266AB02A655C74A59CCF365BADC27CB5D902ED22848F6340DF238A141
310
BE88E2F57B92BFEDF23523433367AE6A2EEAA455C2A902F398D2751045018D3FA264435F3771F242571B4A1919CA6F9A7C5B3CD9E42BED16F12C776AEB308F40C848FC700B1139D4891EF410CEC810227CC6846F8386402064270EF5C5C709A05E49676C024C61FC95EA45ED154CA5211D1FF4FB8291A913A68E9B83EBBB33
310
E2A7673CDE118E5AE8124C0807CB8377834E366998436B950D7A7746DAD846D4CFD978E0F04FD455FC5D49D2D4C6FE9722321F10997F0F32DC47FE05504B0304140006080800CC70623BFFEA85907E0000009D0000000B0000006662782F636E782E786D6C4DCCD10A83201886E15B91FFDC95D95A811AB6F23E625948A6C3
310
E9D8E5AF46073BFAE0E1E365ED67B3E8ADC3CB78C7815C7240DA3DFC64DCC221C519D7805AC182F7F1EF06C88D9BE6703008B6049F9E274D7A1E938DBB5AE3D6131B2589BA0D3D965551E0B2EA732C9B9A624AAEB41E3A557677029960D9AFB4EF11165F504B0304140006080800CC70623B4FEEA4082C0100001202000031
310
0000006662782F39464131463745442D413632322D343644302D413938332D3331353338454246344243312F636F72652E786D6C8D515B6EC32010BC0AE2AB55850DD871ED0813254D72825EC00192A2C460F1A872FC42ED48ED5F7E00CDCECCCEB26C731F6FE05B39AFADE921293004CA082BB5B9F43086336A21D870E6AC
310
0D7F68109861543DCC30E4ECE26C9C164858139409093556AA051CBC570102714B8F1E7AF1A5C6A11862480C7F2DA6415C878B2A4891CA89C7990F2E050073937C42DE1DB7E4F87ED8A36D4329AA9B3D46DBAEAD504556557BD81DEBDD0761E52CE42C462D17B996298E3E6BE59E35C962CE821E1FF18553435012728A7187
310
0841987E927A8D9B35ADDF70BBC6989599FE4F1427F9A4286A132ABAC49D651EF234CD5CE04CDA78BA3DC2A8FB645D00B9DF8B57E215725C60BCA2A463E54C4CE327C7A65E1C7DB02E7DEFCBF594B864C5CA6CDBD49C957943E9FA5D5FBAF336F90F504B0304140006080800CC70623BAD7543B64E01000033030000300000
310
006662782F39464131463745442D413632322D343644302D413938332D3331353338454246344243312F636E782E786D6CD593CD6EC32010845F0571AD6CE3D48AD20813A9873E410FBD12D82434182C7EAAE6EDBB2424CD25871E7B41D6EC30B3FA84F9E67BB2E40B4234DE8DB46F1925E094D7C6ED479AD3AE5951B2113C
310
789FEE6C943839C1488B4C05DF079FE72A69D8C96C13AAD6B8631503449F83828872B949AC57D26200B826A308D316B4064D6E46FCDA41C05550DC9E483A00797BFD207EFB092A45DE9514C1BBD22178396BD39D891265658C238DEA00936C654E5E433CB65A26D9F6EDB5EBC14EBF49A45CB856E66048291F6939A9A81BB5
310
C8917738143CA680F4AA299D66A042CEB3354A2684DC9D8D178FE0D9B8B41CAAD720F880EE7EF93C0C18769E099ECC04D5A102C8049A8A05632F4DDF376CF1DE0F6BB65C2F8627B65A33C6BB62177CEBBDAD973006829F89F22E814B54F4BC2BE347F8AA8F681390B50FA73F804400B5F542E796F19FF974E7F78DB802FE05
310
E207504B0304140006080800CC70623B16AB87BA640500003C100000340000006662782F39464131463745442D413632322D343644302D413938332D3331353338454246344243312F6F626A656374732E786D6CAD575B6FA33818FD2B887DE6924B3BED8A326A92B68A663B534DD4D13E548A0C38942D60649B369D5FBFC7
310
600890A493BDE42160637FD7F31D7FF63E6FB3D478A55C242CBF3247B66B1A340F5994E4F19559CA8D75611A9F7D8F33263BCB4C232719BD32D5B4E97B316765A1A722BA21652A07B3B7B33F0D11D29C9A46981221AE4C113ED38CD8A4942CA2E2C58E882476BCD9DA23BB5ED8171B73523C0F841684D35CC252CCE79062D4
310
468DFA43D7747CCF51DF7D4FFDEB5593E3AB9CCA9FBEFE241792E4E19EB28198C968BAB8199F5D5A67D3E9C49A9E8F47D6EC76B6B0469F26EEFC7C3EBFBCBEB98462213924694B38DD98FE1D62C393D073EA4FADC5DAF04326852CCF6958F90F0F2B9BB5C48816348F90C7840A68EB78EDF68723159BCEE7891A6B95DDE9D3
310
BCEAEEE8086A6C6F9E5D4B59F0175C10A7A0820BAA5055C7473B5AE3CFDD452D602CD5DF12616444529E90D448938013FE6EFA58AA96F85E4F8C42275708571E98FE6827AF6B2B4AE3D7D83D64E5A64C53054DD3AF90BD06FEA9149565C94FCA0F6B834DC85599E4F2423B24DF0B6AFA979E534DFA9E7A4CC6FA631D486393
310
921829879BF5D781A373557BCB85E97FB90DB62B558F8795179C15944B051F40AB495CF35451D26A4727654E6D8033BD98EF82F21D91FF8AF2DD9982BCF1643BDD4EB516C9492E368C67C88DED563FC36D5EACF66DFF057C3658BDBFA69DF9578B3DA735B64F18C7F20770A9D45CFCF7FCF563D6456A277DBEF78A02637CA2
310
43B90A490AEAB94F72244481D24819A6C0E59B606BFA4B3025981DBB48EAB701D97BF19C577CC77F2D1B6C55A9EF3C732474C0B727303F625995056C3B02963D9EAC146BE78EC5FCEC7FA999EBC5EACBAAE41B12D27B4D2C0BBA49F244E2ECDC81B76B502F113D8F5EE8FB1BE3111CDD4FC2AA9B844CAB1288B68AB90A7CDC
310
1C166AB0D3DC5310625FCC14E779BFD0709F8890A629C9292B1B2DED31A4B0DA928CEE135085754027E3018A397D4D5427D15BD1330B677DC8934285AC3DF45A9EB68FF8F2B8FC0A509AFEECFD0FF2DE25CC6047F7214B195F07EFEB9A094D800F7BFAE8FED187B78EA8A3A400F115961BCAD1215E47C966530AF0EE8128FE
310
58CEBB996A8964FFA529A046635D9353B0336A8F700DDF46271A024E70B0B37C9DE01847591E54DED53D54202AB947E4076556AC49C6CA5C9E1226B7F1A7B1BE15DEED62C41B91E1B3E9AFAAA735036547343A925075041DF0A9979E893B391F8FCFA6967B3EFB644DCF6E5CEBFAE272625DCC6FAF3FB93793C5F90CE1EF57
310
407342756B10D1C489E8953CD1617E5CEECAD6F4EF8914CE5D5D504E5C3F1F9736DA62CFC11E00BCDDB8CC8A9466349744C1F75EBDA4DF09BA8A9E8C7A7E9991989E20E5DBDD6A6003664ED8F7A04A8DBE0DF6EAD9B9AA858342E47399053949D2C146EDB85DE4B176BB0965FBAC19BD19AA918E27FA50C1D22402E144464C
310
59462568E704B6E71915404CB72B8FF4EDE184DDAF753F284990D2C6926782963815403548A70C657FDEF80D2D9CEAA2AE4C1C76F60BFE74219A06527D6582DF6412526107381E55E353090704D085B52408D0933C4ED159D79BDA71BB4BC506F4831350EB6F979CD22D69BF7AC49B91A2C0A9DDA3D5CA36AD20FC478E37E6
310
1844E2352865EBCB6EA275A652E3836BE04EFB400BF1A2556F515F1FBB35B2AB35BD889C744FFA1004B5544B121E57F70215746DD2F5E2C1412B602CBF19455AC6C8E5E9922C4E01E65215385004546899059180EAFCF7A707CE7017CD8CDB0410789AB32C63B91E5CEBBBACB17AC6CD347A022D5075FD106377347AAABA7E
310
7D11590744509B44E205134DC1290F06580320F78E537D3D73540E06CB970B431F185308AD40BBD794D6D77003C5A36E8EAA54BA64597CD8F83BD552A080A365F7FF06504B0304140006080000CC70623B000000000000000000000000350000006662782F39464131463745442D413632322D343644302D413938332D3331
310
353338454246344243312F76657274696365732E62696E504B0304140006080800CC70623BF270F1330600000004000000360000006662782F39464131463745442D413632322D343644302D413938332D3331353338454246344243312F747269616E676C65732E62696E636660600000504B0304140006080000CC70623B
310
000000000000000000000000370000006662782F39464131463745442D413632322D343644302D413938332D3331353338454246344243312F617474726962757465732E62696E504B0304140006080800CC70623B08DA0BD19000000041010000360000006662782F39464131463745442D413632322D343644302D413938
310
332D3331353338454246344243312F6469726563746F72792E786D6C858F410AC3201045AF22B36F53E9A60B35CBEEBAE80D244E44489C6234F4F835464A48035D0DF398FF9F8AF63D0E6CC63039F212F8F9020C7D47C6792B21C5FE7403D62A1188E2E60C98D7234A5830286103A55745067B9D86B8A3CF9C7F90C11DE607
310
FB144396D7B6A82D282E9A152AD114D5EF2CB866EEE831B8EEA07A7BB5A8D7D61A2BAAEB7FD5F70921FF497D00504B0304140006080800CC70623B0D6EF93BFE000000A00100003B0000006662782F39464131463745442D413632322D343644302D413938332D3331353338454246344243312F7265736F75726365732F63
310
6F72652E786D6C8D50596E833010BD0A9ADFCA60B334011947A8694ED00B586642AC041B79A97AFC9A40A5F6AF3F33A3B7689E1E3F7DCD8FEC139DD7D6F4C0720A191A65476DA61E62B892236427C19DB5E1970C322367EC618541F0C9D9B8EC90B226A009093576C41D94DE63804C3DD2D18357379C652E63480A7FCF17A9
310
EE72C29CE5894E3AC17D702940B63D59270887DE46A7D0F36263058F518FBB468FE9A7BE6A7420864373B8D4873369AA8691FA421B3294352543C5CAF65C0F6FEF43CB8BD52C78D0F34F46E550061C419494B6843142CB0F5677F4B52BEB177AEC28E5C52AFF638ACBF84F53D42654E51E77B379102C05791282176B5F693D
310
CB4C7BED567C03504B010214000A0000080000CC70623B3DEE336E79000000790000001B00000000000000000000000000000000006175746F6465736B2D64657369676E2D7061636B6167652E786D6C504B01021400140006080800CC70623BD486FD9CA0000000F40000001300000000000000000000000000B20000005B
310
436F6E74656E745F54797065735D2E786D6C504B01021400140006080800CC70623B1EC5D7A3EB0000007C010000080000000000000000000000000083010000636F72652E786D6C504B01021400140006080800CC70623B55019EA25F0000007C000000070000000000000000000000000094020000636E782E786D6C504B
310
01021400140006080800CC70623B8C9102E971010000D40300000C00000000000000000000000000180300006662782F636F72652E786D6C504B01021400140006080800CC70623BFFEA85907E0000009D0000000B00000000000000000000000000B30400006662782F636E782E786D6C504B01021400140006080800CC70
310
623B4FEEA4082C0100001202000031000000000000000000000000005A0500006662782F39464131463745442D413632322D343644302D413938332D3331353338454246344243312F636F72652E786D6C504B01021400140006080800CC70623BAD7543B64E010000330300003000000000000000000000000000D5060000
310
6662782F39464131463745442D413632322D343644302D413938332D3331353338454246344243312F636E782E786D6C504B01021400140006080800CC70623B16AB87BA640500003C1000003400000000000000000000000000710800006662782F39464131463745442D413632322D343644302D413938332D3331353338
310
454246344243312F6F626A656374732E786D6C504B01021400140006080000CC70623B0000000000000000000000003500000000000000000000000000270E00006662782F39464131463745442D413632322D343644302D413938332D3331353338454246344243312F76657274696365732E62696E504B01021400140006
310
080800CC70623BF270F133060000000400000036000000000000000000000000007A0E00006662782F39464131463745442D413632322D343644302D413938332D3331353338454246344243312F747269616E676C65732E62696E504B01021400140006080000CC70623B0000000000000000000000003700000000000000
310
000000000000D40E00006662782F39464131463745442D413632322D343644302D413938332D3331353338454246344243312F617474726962757465732E62696E504B01021400140006080800CC70623B08DA0BD190000000410100003600000000000000000000000000290F00006662782F39464131463745442D413632
310
322D343644302D413938332D3331353338454246344243312F6469726563746F72792E786D6C504B01021400140006080800CC70623B0D6EF93BFE000000A00100003B000000000000000000000000000D1000006662782F39464131463745442D413632322D343644302D413938332D3331353338454246344243312F7265
310
736F75726365732F636F72652E786D6C504B0506000000000E000E0080040000641100000000
  0
XRECORD
  5
175
102
{ACAD_REACTORS
330
173
102
}
330
173
100
AcDbXrecord
280
     1
270
     1
271
     1
  0
XRECORD
  5
174
102
{ACAD_REACTORS
330
173
102
}
330
173
100
AcDbXrecord
280
     1
270
     1
271
     1
  0
XRECORD
  5
1FB
102
{ACAD_REACTORS
330
173
102
}
330
173
100
AcDbXrecord
280
     1
 70
     0
 90
1673772943
  1
ECE7A1D2-D628-4531-984C-D00F80459256
310
504B03040A0000080000CC70623B3DEE336E79000000790000001B0000006175746F6465736B2D64657369676E2D7061636B6167652E786D6C3C3F786D6C2076657273696F6E3D22312E302220656E636F64696E673D227574662D3822203F3E3C666F726D6174733E3C666F726D61743E687474703A2F2F736368656D612E
310
6175746F6465736B2E636F6D2F64657369676E2D7061636B6167652F323030393C2F666F726D61743E3C2F666F726D6174733E504B0304140006080800CC70623BD486FD9CA0000000F4000000130000005B436F6E74656E745F54797065735D2E786D6C7D8EC10E82300C865F65E91D8A1E8C310C0EEA1BF002731658846E
310
D98AC1B77784ABF1D8FE5FBFBF75BBCE937A534CCEB38643598122B6FEE978D0B0485F9C41B54DDD7D022595594E1A469170414C76A4D9A4D207E29CF43ECE46F218070CC6BECC4078ACAA135ACF422C856C0E68EA1BF5669944DDD7BCDE7B1F8E415D77AECB980613C2E4AC91FC167A2B244592486606FC29C8FD7F045B9A
310
EF7053A7E60B504B0304140006080800CC70623BD9DDAED0EC0000007C01000008000000636F72652E786D6C8D90416EC3201045AF82665B61836D9CD8C2444DD39CA01740405C94182C03558F5F9C3852BBEB6A467FFE9B197D7EF89E6EE8CB2CC17A37002D0820E394D7D68D03A478C17B4007C117EFE32F1B20272733C0
310
2A83E0E3E2D3BC49CABB685CCCAAF3DA6CA20CC14440EA969B0182FA34932C648AD911AEC52CD5558EA6A0CF2EC329598D1E47ACCEFBECC59A050463A7EA5833865FEBDD0E37353BE3EE8DBDE3F6786A48D375FBF6CC78B9C282473B3DEFABC5C86834888A900E538A49F5419B9EB47DD5BC907D4F082F57FB1F28CDFA9F50
310
B22ED6D5F6EE030B20687EE43E10BC5CB3C8E51E54AE6B6EE207504B0304140006080800CC70623B55019EA25F0000007C00000007000000636E782E786D6C4DCB3B0E80201045D1AD90E915ED2CF8AC45050C11660C8261F98AB1B07AC9C97D42D718D865D3E909258CFD00CCE24AC6E326A164D74DC0B4128928FF326038
310
472BA13128B1252AC747C6BAB984FC68F0B87FE8960A5C09FE86CFB69FBA01504B0304140006080800CC70623BA24EB22D72010000D40300000C0000006662782F636F72652E786D6CC5535B6E833010BC8AE5DF0A6C5E49888CA3A6694ED00B38E05014B091B1518EDFE511A5A9D228FD2A1F60CDEC7A67C6986DCE4D8D7A
310
69BA4AAB0C073EC548AA5C17952A33ECECD15B61B4E1CC686DBF9561A44423333CC098B3D268D7CE50AE9595CA02AA74216750749DB418E5352C32DCE59FB211BE70162ABA93DF8AFC244AE9073ED050C759670D0840D390E18DF9F1706664C23973AE2A66B62A605A75ACA4C13C4976E1364A12EF355A2EBD384AF65EFA96
310
BC7B8BED2EA6719AAE16FB8491A199335B351775B991C2CA02F390D2D40B028F861F41BCA68B7518BFD0D59A524686F29B26D7164F36B94AD9289CE54E6D1DE6010819891F6E21228B3AD1831EC219194284CF98F06DD01008846CC5A1BEF83801D4CBDC6A1303536877A57A513B0953A94FC707FDBE6064EA84A9E3E6E0FA
310
EE8CF0E9198F7784A316AA0413C2C2F2E0ECA0934D1AE6D05A69BCDE9E91D2A611F573361E38FC1375157F5752AE6B6DFE4B11990F88CCBF0719EE23FF02504B0304140006080800CC70623B408A7D3B7C0000009D0000000B0000006662782F636E782E786D6C4DCCD10A83201886E15B91FFDC552A92A0064DBC8F581632
310
D3703A76F9ABD1C18E3E78F878E5F0D9027ABBFCF2292AE86E2D20171F69F6715550CB827B40839639A5F2770314A7CD293819B45C73AAFB45B35BA61ACAA1C1C7E7855C58C15BC331339661262CC762340413D68D77DA5B42298546CBE6573AF60CEB2F504B0304140006080800CC70623B449FB9BD290100001202000031
310
0000006662782F36394639363044362D344446342D343946362D394244322D3234314243333846323333332F636F72652E786D6C8D515B6EC32010BC0AE22B55850D98B871848994463E412FE002495162B07854397EA176A4F62F3F2C9A9D991D587EB84F37F0AD7D30CEF6905418026DA553C65E7A98E219ED203808EE9D
310
8B7F6810D871D23D2C3014FCE25D9A57483A1BB58D19B54EE9151C43D0110279CB971E06F9A5A7B11A53CC8C70ADE6515EC78BAE4895DB992778883E0700CB907242D17643D7E2538BD869608875438BBAE38922CAC8F1BDD90DB4691A5E2F42C153326A951B95E398B3D1FE599322163C9AE9115F7A3D46ADA0A018778810
310
84E907617BDCEE297BC5BB3DC6BC2EF47FA234AB2745C9D8D8D035EE220B50105E2F0DC1954B9FB747187D9F9D8FA0CCDB042D5FA0C015C65B42DF78BD10F3F3B363CB56C7109DCFDFBBB97E662ED92EB62D13BC2E1BCAE5777DB9966D8A1F504B0304140006080800CC70623BAD7543B64E01000033030000300000006662
310
782F36394639363044362D344446342D343946362D394244322D3234314243333846323333332F636E782E786D6CD593CD6EC32010845F0571AD6CE3D48AD20813A9873E410FBD12D82434182C7EAAE6EDBB2424CD25871E7B41D6EC30B3FA84F9E67BB2E40B4234DE8DB46F1925E094D7C6ED479AD3AE5951B2113C789FEE
310
6C943839C1488B4C05DF079FE72A69D8C96C13AAD6B8631503449F83828872B949AC57D26200B826A308D316B4064D6E46FCDA41C05550DC9E483A00797BFD207EFB092A45DE9514C1BBD22178396BD39D891265658C238DEA00936C654E5E433CB65A26D9F6EDB5EBC14EBF49A45CB856E66048291F6939A9A81BB5C89177
310
38143CA680F4AA299D66A042CEB3354A2684DC9D8D178FE0D9B8B41CAAD720F880EE7EF93C0C18769E099ECC04D5A102C8049A8A05632F4DDF376CF1DE0F6BB65C2F8627B65A33C6BB62177CEBBDAD973006829F89F22E814B54F4BC2BE347F8AA8F681390B50FA73F804400B5F542E796F19FF974E7F78DB802FE05E20750
310
4B0304140006080800CC70623B8D05915C650500003B100000340000006662782F36394639363044362D344446342D343946362D394244322D3234314243333846323333332F6F626A656374732E786D6CAD575B6FA33814FE2B887D06429276DA1565D4266D158D3A339A6846FB502932E050B66023DB74D2FDF5FB190C01
310
9276B2973C046C8ECFF53B17071F77456EBD502133CEAE6CDF9DD81665314F32965ED995DA3A17B6F5310C04E7AA47665B8C14F4CAD6DB7618A48257A5D94AE89654B91AEDDEDDFC61C998326A5B714EA4BCB265FC440BE2924AF184CA6737218AB8E976E7FA6E4338649B0A523E8D98964450A6A029F619B8588D52FE7039
310
B1BD30F0F4F730D0FF866AF6369557DB33949F31A9088B0F848DD8CCFCF9F2767A76E99CCDE733677E3EF59D9BBB9BA5E37F984D16E78BC5E5F5ED25044B25C0C96822E8D60EEFE11B91C581D77CEA34368A1F5329E68CD1B8B61F16D63A1B8E092D294B10C78C4A48EB593D192E7DED9BDEE7995E1B91FDEDD3ACEA9FE831
310
6A756F9F7D4D79F4274C90A7A04248AA51D5F8C718DAE06FB2F75AC4796EBE65D22A88A22223B995679120E2D50E41AA49C260C046A35368846B0BECD0DFF3EBEB8AD4F835768F69B9ADF25C43D30E6B646F807FAA64AD59F61715C7A54127C4AACA98BA3006A9D792DAE165E0D59B61A01FB3A9F9D838D2DAE62445C86166
310
F37564E842E7DE6A69879FEEA2DD5AE7E371E1A5E025154AC307D06A03D73EB5978C58FFA4C8E9033066E0F3BD53BEC1F39F91BE7B55103791EDE6BBB991A2046172CB4581D8B893FA674DDA17A77B3B7C413D1B511FD2743BFF8A38F03A658705E3ADF8015C3A3417FF3D7E439FF591DA0B5F18BC20C1B8981957AE6392A3
310
F43C640C01D1A0B4728E2DD4F26DB4B3C3152A252A3B4E913CEC1C72F012782FF88EFF8637AA552DBEF76408E8A8DE9E50F9E1CB3A2DA0DB1B6039A893B56063DC5B3E3FFB5F72E67AB9FEB4AEC496C4F4C1149625DD662C53E89D7BF0F6151A046260D1337DFDC94502430F83B0EE07A130A224BCAD7DAE1D9FB6CD422FF6
310
920702629C4BB9AE79C12F243C6432A6794E18E5552BA56B431AAB5D91317302B2B071E86C3A42B1A02F999E24061403B5D0EB639195DA655DD3EBEAB4FB862DDF579F014AD0E73C22F99E28DA57FB98E75C6CA2D74D53086D600F4786E0FE3144B771A8A7B900F03594DB8A633CBC49B2EDB69228BB479CF863B5E807AAAB
310
23872F6DFEB4129B949CA33823F58830E86D65621E10047D9DB34D862E8EAC3C2ABC2F7B2C40D67CDFE01F5545B92105AF983AC54D93D69E56FB8E797F88913F898A9FEC705D3F9D1B54EC8426FB500D40A03BD0119B06E1B95DDC7EB8F6975367793EBD70E66733DFB9BC982F9CE564727731999F5D4ECFCE3B8D6A4DC2A0
310
6D50FD148437D110834A64C6CDDF57FBACB5C307A2A477DFE4939736CFEF2B175371E0E10CF0DD1D5C15654E0BCA14D1E87DD02FF93782A162C0A3D95F1524A52770F972BF1EE9809D13CE7DD599467F8ECE9ADD85CE85A34CD45355448C64F9E8A031DC2D596ACC6E5DD93D9B82DE2EF5CAF81363A8E47996A0DE24564A79
310
4115AACE09C55E14540231FDA13C319787134EBF34E3A022514E5B4D9E0826E25C02D5805B15ABE1BEF51B26383D445DD9E875EE33FE4C22DA16427D65A3BCA92CA6D28DD01DF5DC53330704308475351050232CCD31583787BA75774AFB06E5070DD0C8EF484E19968C5D83BA5B90B244D31E54D55A372320FE4786B7EA58
310
44E135AA5467CB7EA333A61683CC6A8C3257034C10CF46F40EF9F5BE59BE5BD30C3C72D235E95D10345C1D45445A5F0BB47E46A5EBE5570F9380B5FA629579952296A773720405982B9DE04011506178964401AA8BDF1FBF0A8EAB6861DD6580C0E38217056766716DAEB2D6FA0917D3E4116581EADB879C4E7CFFB11EFACD
310
3D641311495D92C8676CB409A72D18610D803CE8A626049E8EC1887CB5B44CC39883690DDA8399B4B9855B481E7D71D4A9D22F96E5BB73BF5793020C02137BF837504B0304140006080000CC70623B000000000000000000000000350000006662782F36394639363044362D344446342D343946362D394244322D32343142
310
43333846323333332F76657274696365732E62696E504B0304140006080800CC70623BF270F1330600000004000000360000006662782F36394639363044362D344446342D343946362D394244322D3234314243333846323333332F747269616E676C65732E62696E636660600000504B0304140006080000CC70623B0000
310
00000000000000000000370000006662782F36394639363044362D344446342D343946362D394244322D3234314243333846323333332F617474726962757465732E62696E504B0304140006080800CC70623B08DA0BD19000000041010000360000006662782F36394639363044362D344446342D343946362D394244322D
310
3234314243333846323333332F6469726563746F72792E786D6C858F410AC3201045AF22B36F53E9A60B35CBEEBAE80D244E44489C6234F4F835464A48035D0DF398FF9F8AF63D0E6CC63039F212F8F9020C7D47C6792B21C5FE7403D62A1188E2E60C98D7234A5830286103A55745067B9D86B8A3CF9C7F90C11DE607FB14
310
4396D7B6A82D282E9A152AD114D5EF2CB866EEE831B8EEA07A7BB5A8D7D61A2BAAEB7FD5F70921FF497D00504B0304140006080800CC70623BCA768048FE000000A00100003B0000006662782F36394639363044362D344446342D343946362D394244322D3234314243333846323333332F7265736F75726365732F636F72
310
652E786D6C8D50596E833010BD0A9ADFCA60D600328E9AA639412F609909B1126CE4A5EAF16B0295DABFFECC8CDEA2797AECF8353F924FB44E193D409E5248504B332A3D0D10FC95B4901C39B3C6F85F3248B49871801506CE266BC2B243D2688FDA47549B11775038871E12F988C7004EDE7016A9083E2ADC3D5D84BC8B09
310
D33C8D74D471E6BC8D0192EDC93A815B742658898E651BCB59086ADC356A8C3FD555A1055ED7E7E254D615792D0F075295F585746FF53B694EE78A565DD736979A65AB9933AFE69F8CD2A2F038022F28ED489E135A7CE4554F9BBEA85E68DB53CAB255FEC71496F19FA6A0B42F8B3DEE6673C0F318E4497096AD7DC5F52C33
310
EEB55BFE0D504B010214000A0000080000CC70623B3DEE336E79000000790000001B00000000000000000000000000000000006175746F6465736B2D64657369676E2D7061636B6167652E786D6C504B01021400140006080800CC70623BD486FD9CA0000000F40000001300000000000000000000000000B20000005B436F
310
6E74656E745F54797065735D2E786D6C504B01021400140006080800CC70623BD9DDAED0EC0000007C010000080000000000000000000000000083010000636F72652E786D6C504B01021400140006080800CC70623B55019EA25F0000007C000000070000000000000000000000000095020000636E782E786D6C504B0102
310
1400140006080800CC70623BA24EB22D72010000D40300000C00000000000000000000000000190300006662782F636F72652E786D6C504B01021400140006080800CC70623B408A7D3B7C0000009D0000000B00000000000000000000000000B50400006662782F636E782E786D6C504B01021400140006080800CC70623B
310
449FB9BD290100001202000031000000000000000000000000005A0500006662782F36394639363044362D344446342D343946362D394244322D3234314243333846323333332F636F72652E786D6C504B01021400140006080800CC70623BAD7543B64E010000330300003000000000000000000000000000D20600006662
310
782F36394639363044362D344446342D343946362D394244322D3234314243333846323333332F636E782E786D6C504B01021400140006080800CC70623B8D05915C650500003B10000034000000000000000000000000006E0800006662782F36394639363044362D344446342D343946362D394244322D32343142433338
310
46323333332F6F626A656374732E786D6C504B01021400140006080000CC70623B0000000000000000000000003500000000000000000000000000250E00006662782F36394639363044362D344446342D343946362D394244322D3234314243333846323333332F76657274696365732E62696E504B010214001400060808
310
00CC70623BF270F13306000000040000003600000000000000000000000000780E00006662782F36394639363044362D344446342D343946362D394244322D3234314243333846323333332F747269616E676C65732E62696E504B01021400140006080000CC70623B00000000000000000000000037000000000000000000
310
00000000D20E00006662782F36394639363044362D344446342D343946362D394244322D3234314243333846323333332F617474726962757465732E62696E504B01021400140006080800CC70623B08DA0BD190000000410100003600000000000000000000000000270F00006662782F36394639363044362D344446342D
310
343946362D394244322D3234314243333846323333332F6469726563746F72792E786D6C504B01021400140006080800CC70623BCA768048FE000000A00100003B000000000000000000000000000B1000006662782F36394639363044362D344446342D343946362D394244322D3234314243333846323333332F7265736F
310
75726365732F636F72652E786D6C504B0506000000000E000E0080040000621100000000
  0
XRECORD
  5
176
102
{ACAD_REACTORS
330
173
102
}
330
173
100
AcDbXrecord
280
     1
270
     1
271
     1
  0
XRECORD
  5
177
102
{ACAD_REACTORS
330
173
102
}
330
173
100
AcDbXrecord
280
     1
270
     1
271
     1
  0
XRECORD
  5
591
102
{ACAD_REACTORS
330
590
102
}
330
590
100
AcDbXrecord
280
     1
102
DISPLAYNAME
  1
Metric50
102
FLAGS
 90
        0
  0
CELLSTYLEMAP
  5
586
102
{ACAD_REACTORS
330
162
102
}
330
162
100
AcDbCellStyleMap
 90
        3
300
CELLSTYLE
  1
TABLEFORMAT_BEGIN
 90
        5
170
     1
 91
        0
 92
    32768
 62
   257
 93
        1
300
CONTENTFORMAT
  1
CONTENTFORMAT_BEGIN
 90
        0
 91
        0
 92
      512
 93
        0
300

 40
0.0
140
1.0
 94
        5
 62
     0
340
11
144
6.0
309
CONTENTFORMAT_END
171
     1
301
MARGIN
  1
CELLMARGIN_BEGIN
 40
1.5
 40
1.5
 40
1.5
 40
1.5
 40
4.5
 40
4.5
309
CELLMARGIN_END
 94
        6
 95
        1
302
GRIDFORMAT
  1
GRIDFORMAT_BEGIN
 90
        0
 91
        1
 62
     0
 92
       -2
340
14
 93
        0
 40
1.125
309
GRIDFORMAT_END
 95
        2
302
GRIDFORMAT
  1
GRIDFORMAT_BEGIN
 90
        0
 91
        1
 62
     0
 92
       -2
340
14
 93
        0
 40
1.125
309
GRIDFORMAT_END
 95
        4
302
GRIDFORMAT
  1
GRIDFORMAT_BEGIN
 90
        0
 91
        1
 62
     0
 92
       -2
340
14
 93
        0
 40
1.125
309
GRIDFORMAT_END
 95
        8
302
GRIDFORMAT
  1
GRIDFORMAT_BEGIN
 90
        0
 91
        1
 62
     0
 92
       -2
340
14
 93
        0
 40
1.125
309
GRIDFORMAT_END
 95
       16
302
GRIDFORMAT
  1
GRIDFORMAT_BEGIN
 90
        0
 91
        1
 62
     0
 92
       -2
340
14
 93
        0
 40
1.125
309
GRIDFORMAT_END
 95
       32
302
GRIDFORMAT
  1
GRIDFORMAT_BEGIN
 90
        0
 91
        1
 62
     0
 92
       -2
340
14
 93
        0
 40
1.125
309
GRIDFORMAT_END
309
TABLEFORMAT_END
  1
CELLSTYLE_BEGIN
 90
        1
 91
        1
300
_TITLE
309
CELLSTYLE_END
300
CELLSTYLE
  1
TABLEFORMAT_BEGIN
 90
        5
170
     1
 91
        0
 92
        0
 62
   257
 93
        1
300
CONTENTFORMAT
  1
CONTENTFORMAT_BEGIN
 90
        0
 91
        0
 92
      512
 93
        0
300

 40
0.0
140
1.0
 94
        5
 62
     0
340
11
144
4.5
309
CONTENTFORMAT_END
171
     1
301
MARGIN
  1
CELLMARGIN_BEGIN
 40
1.5
 40
1.5
 40
1.5
 40
1.5
 40
4.5
 40
4.5
309
CELLMARGIN_END
 94
        6
 95
        1
302
GRIDFORMAT
  1
GRIDFORMAT_BEGIN
 90
        0
 91
        1
 62
     0
 92
       -2
340
14
 93
        0
 40
1.125
309
GRIDFORMAT_END
 95
        2
302
GRIDFORMAT
  1
GRIDFORMAT_BEGIN
 90
        0
 91
        1
 62
     0
 92
       -2
340
14
 93
        0
 40
1.125
309
GRIDFORMAT_END
 95
        4
302
GRIDFORMAT
  1
GRIDFORMAT_BEGIN
 90
        0
 91
        1
 62
     0
 92
       -2
340
14
 93
        0
 40
1.125
309
GRIDFORMAT_END
 95
        8
302
GRIDFORMAT
  1
GRIDFORMAT_BEGIN
 90
        0
 91
        1
 62
     0
 92
       -2
340
14
 93
        0
 40
1.125
309
GRIDFORMAT_END
 95
       16
302
GRIDFORMAT
  1
GRIDFORMAT_BEGIN
 90
        0
 91
        1
 62
     0
 92
       -2
340
14
 93
        0
 40
1.125
309
GRIDFORMAT_END
 95
       32
302
GRIDFORMAT
  1
GRIDFORMAT_BEGIN
 90
        0
 91
        1
 62
     0
 92
       -2
340
14
 93
        0
 40
1.125
309
GRIDFORMAT_END
309
TABLEFORMAT_END
  1
CELLSTYLE_BEGIN
 90
        2
 91
        1
300
_HEADER
309
CELLSTYLE_END
300
CELLSTYLE
  1
TABLEFORMAT_BEGIN
 90
        5
170
     1
 91
        0
 92
        0
 62
   257
 93
        1
300
CONTENTFORMAT
  1
CONTENTFORMAT_BEGIN
 90
        0
 91
        0
 92
      512
 93
        0
300

 40
0.0
140
1.0
 94
        2
 62
     0
340
11
144
4.5
309
CONTENTFORMAT_END
171
     1
301
MARGIN
  1
CELLMARGIN_BEGIN
 40
1.5
 40
1.5
 40
1.5
 40
1.5
 40
4.5
 40
4.5
309
CELLMARGIN_END
 94
        6
 95
        1
302
GRIDFORMAT
  1
GRIDFORMAT_BEGIN
 90
        0
 91
        1
 62
     0
 92
       -2
340
14
 93
        0
 40
1.125
309
GRIDFORMAT_END
 95
        2
302
GRIDFORMAT
  1
GRIDFORMAT_BEGIN
 90
        0
 91
        1
 62
     0
 92
       -2
340
14
 93
        0
 40
1.125
309
GRIDFORMAT_END
 95
        4
302
GRIDFORMAT
  1
GRIDFORMAT_BEGIN
 90
        0
 91
        1
 62
     0
 92
       -2
340
14
 93
        0
 40
1.125
309
GRIDFORMAT_END
 95
        8
302
GRIDFORMAT
  1
GRIDFORMAT_BEGIN
 90
        0
 91
        1
 62
     0
 92
       -2
340
14
 93
        0
 40
1.125
309
GRIDFORMAT_END
 95
       16
302
GRIDFORMAT
  1
GRIDFORMAT_BEGIN
 90
        0
 91
        1
 62
     0
 92
       -2
340
14
 93
        0
 40
1.125
309
GRIDFORMAT_END
 95
       32
302
GRIDFORMAT
  1
GRIDFORMAT_BEGIN
 90
        0
 91
        1
 62
     0
 92
       -2
340
14
 93
        0
 40
1.125
309
GRIDFORMAT_END
309
TABLEFORMAT_END
  1
CELLSTYLE_BEGIN
 90
        3
 91
        2
300
_DATA
309
CELLSTYLE_END
  0
ENDSEC
  0
SECTION
  2
ACDSDATA
 70
     2
 71
     8
  0
ACDSSCHEMA
 90
        0
  1
AcDb_Thumbnail_Schema
  2
AcDbDs::ID
280
    10
 91
        8
  2
Thumbnail_Data
280
    15
 91
        0
101
ACDSRECORD
 95
        0
 90
        1
  2
AcDbDs::TreatedAsObjectData
280
     1
291
     1
101
ACDSRECORD
 95
        0
 90
        2
  2
AcDbDs::Legacy
280
     1
291
     1
101
ACDSRECORD
  1
AcDbDs::ID
 90
        3
  2
AcDs:Indexable
280
     1
291
     1
101
ACDSRECORD
  1
AcDbDs::ID
 90
        4
  2
AcDbDs::HandleAttribute
280
     7
282
     1
  0
ACDSSCHEMA
 90
        1
  1
AcDbDs::TreatedAsObjectDataSchema
  2
AcDbDs::TreatedAsObjectData
280
     1
 91
        0
  0
ACDSSCHEMA
 90
        2
  1
AcDbDs::LegacySchema
  2
AcDbDs::Legacy
280
     1
 91
        0
  0
ACDSSCHEMA
 90
        3
  1
AcDbDs::IndexedPropertySchema
  2
AcDs:Indexable
280
     1
 91
        0
  0
ACDSSCHEMA
 90
        4
  1
AcDbDs::HandleAttributeSchema
  2
AcDbDs::HandleAttribute
280
     7
 91
        1
284
     1
  0
ACDSRECORD
 90
        0
  2
AcDbDs::ID
280
    10
320
22
  2
Thumbnail_Data
280
    15
 94
      896
310
89504E470D0A1A0A0000000D49484452000001000000009108030000001BE1960600000300504C5445212830FFFFFF2128300000000000000000000000000000000000000000000000000000330000660000990000CC0000FF0033000033330033660033990033CC0033FF0066000066330066660066990066CC0066FF0099
310
000099330099660099990099CC0099FF00CC0000CC3300CC6600CC9900CCCC00CCFF00FF0000FF3300FF6600FF9900FFCC00FFFF3300003300333300663300993300CC3300FF3333003333333333663333993333CC3333FF3366003366333366663366993366CC3366FF3399003399333399663399993399CC3399FF33CC00
310
33CC3333CC6633CC9933CCCC33CCFF33FF0033FF3333FF6633FF9933FFCC33FFFF6600006600336600666600996600CC6600FF6633006633336633666633996633CC6633FF6666006666336666666666996666CC6666FF6699006699336699666699996699CC6699FF66CC0066CC3366CC6666CC9966CCCC66CCFF66FF0066
310
FF3366FF6666FF9966FFCC66FFFF9900009900339900669900999900CC9900FF9933009933339933669933999933CC9933FF9966009966339966669966999966CC9966FF9999009999339999669999999999CC9999FF99CC0099CC3399CC6699CC9999CCCC99CCFF99FF0099FF3399FF6699FF9999FFCC99FFFFCC0000CC00
310
33CC0066CC0099CC00CCCC00FFCC3300CC3333CC3366CC3399CC33CCCC33FFCC6600CC6633CC6666CC6699CC66CCCC66FFCC9900CC9933CC9966CC9999CC99CCCC99FFCCCC00CCCC33CCCC66CCCC99CCCCCCCCCCFFCCFF00CCFF33CCFF66CCFF99CCFFCCCCFFFFFF0000FF0033FF0066FF0099FF00CCFF00FFFF3300FF3333
310
FF3366FF3399FF33CCFF33FFFF6600FF6633FF6666FF6699FF66CCFF66FFFF9900FF9933FF9966FF9999FF99CCFF99FFFFCC00FFCC33FFCC66FFCC99FFCCCCFFCCFFFFFF00FFFF33FFFF66FFFF99FFFFCCFFFFFF0000000D0D0D1A1A1A2828283535354343435050505D5D5D6B6B6B787878868686939393A1A1A1AEAEAEBB
310
BBBBC9C9C9D6D6D6E4E4E4F1F1F1FFFFFF0000000000000000000000000000000000000000000000000000000000002E4550F10000003B4944415478DAEDC13101000000C2A0F54F6D0B2FA0000000000000000000000000000000000000000000000000000000000000000000000000CE06919100016C9A5B1B0000000049
310
454E44AE426082
  0
ENDSEC
  0
EOF
