  0
SECTION
  2
HEADER
  9
$ACADVER
  1
AC1027
  9
$ACADMAINTVER
 70
   125
  9
$DWGCODEPAGE
  3
ANSI_1252
  9
$LASTSAVEDBY
  1
ufficio.tecnico
  9
$REQUIREDVERSIONS
160
                 0
  9
$INSBASE
 10
0.0
 20
0.0
 30
0.0
  9
$EXTMIN
 10
1892.230505902233
 20
1124.645811924042
 30
0.0
  9
$EXTMAX
 10
2832.354431925342
 20
1478.263388723066
 30
0.0
  9
$LIMMIN
 10
0.0
 20
0.0
  9
$LIMMAX
 10
420.0
 20
297.0
  9
$ORTHOMODE
 70
     0
  9
$REGENMODE
 70
     1
  9
$FILLMODE
 70
     1
  9
$QTEXTMODE
 70
     0
  9
$MIRRTEXT
 70
     0
  9
$LTSCALE
 40
1.0
  9
$ATTMODE
 70
     1
  9
$TEXTSIZE
 40
2.5
  9
$TRACEWID
 40
1.0
  9
$TEXTSTYLE
  7
Standard
  9
$CLAYER
  8
0
  9
$CELTYPE
  6
ByLayer
  9
$CECOLOR
 62
   256
  9
$CELTSCALE
 40
1.0
  9
$DISPSILH
 70
     0
  9
$DIMSCALE
 40
1.0
  9
$DIMASZ
 40
10.0
  9
$DIMEXO
 40
3.0
  9
$DIMDLI
 40
3.75
  9
$DIMRND
 40
0.0
  9
$DIMDLE
 40
0.0
  9
$DIMEXE
 40
2.0
  9
$DIMTP
 40
0.0
  9
$DIMTM
 40
0.0
  9
$DIMTXT
 40
10.0
  9
$DIMCEN
 40
0.0
  9
$DIMTSZ
 40
0.0
  9
$DIMTOL
 70
     0
  9
$DIMLIM
 70
     0
  9
$DIMTIH
 70
     1
  9
$DIMTOH
 70
     1
  9
$DIMSE1
 70
     1
  9
$DIMSE2
 70
     1
  9
$DIMTAD
 70
     0
  9
$DIMZIN
 70
     8
  9
$DIMBLK
  1

  9
$DIMASO
 70
     1
  9
$DIMSHO
 70
     1
  9
$DIMPOST
  1

  9
$DIMAPOST
  1

  9
$DIMALT
 70
     0
  9
$DIMALTD
 70
     3
  9
$DIMALTF
 40
0.03937007874016
  9
$DIMLFAC
 40
1.0
  9
$DIMTOFL
 70
     0
  9
$DIMTVP
 40
0.0
  9
$DIMTIX
 70
     0
  9
$DIMSOXD
 70
     0
  9
$DIMSAH
 70
     0
  9
$DIMBLK1
  1

  9
$DIMBLK2
  1

  9
$DIMSTYLE
  2
6倍
  9
$DIMCLRD
 70
     0
  9
$DIMCLRE
 70
     0
  9
$DIMCLRT
 70
     0
  9
$DIMTFAC
 40
1.0
  9
$DIMGAP
 40
0.5
  9
$DIMJUST
 70
     0
  9
$DIMSD1
 70
     0
  9
$DIMSD2
 70
     0
  9
$DIMTOLJ
 70
     0
  9
$DIMTZIN
 70
     8
  9
$DIMALTZ
 70
     0
  9
$DIMALTTZ
 70
     0
  9
$DIMUPT
 70
     0
  9
$DIMDEC
 70
     1
  9
$DIMTDEC
 70
     1
  9
$DIMALTU
 70
     2
  9
$DIMALTTD
 70
     3
  9
$DIMTXSTY
  7
Standard
  9
$DIMAUNIT
 70
     0
  9
$DIMADEC
 70
     0
  9
$DIMALTRND
 40
0.0
  9
$DIMAZIN
 70
     0
  9
$DIMDSEP
 70
    46
  9
$DIMATFIT
 70
     3
  9
$DIMFRAC
 70
     0
  9
$DIMLDRBLK
  1

  9
$DIMLUNIT
 70
     2
  9
$DIMLWD
 70
    18
  9
$DIMLWE
 70
     9
  9
$DIMTMOVE
 70
     0
  9
$DIMFXL
 40
1.0
  9
$DIMFXLON
 70
     0
  9
$DIMJOGANG
 40
0.7853981633974483
  9
$DIMTFILL
 70
     0
  9
$DIMTFILLCLR
 70
     0
  9
$DIMARCSYM
 70
     0
  9
$DIMLTYPE
  6

  9
$DIMLTEX1
  6

  9
$DIMLTEX2
  6

  9
$DIMTXTDIRECTION
 70
     0
  9
$LUNITS
 70
     2
  9
$LUPREC
 70
     4
  9
$SKETCHINC
 40
1.0
  9
$FILLETRAD
 40
0.0
  9
$AUNITS
 70
     0
  9
$AUPREC
 70
     0
  9
$MENU
  1
.
  9
$ELEVATION
 40
0.0
  9
$PELEVATION
 40
0.0
  9
$THICKNESS
 40
0.0
  9
$LIMCHECK
 70
     0
  9
$CHAMFERA
 40
0.0
  9
$CHAMFERB
 40
0.0
  9
$CHAMFERC
 40
0.0
  9
$CHAMFERD
 40
0.0
  9
$SKPOLY
 70
     0
  9
$TDCREATE
 40
2459777.168726852
  9
$TDUCREATE
 40
2459777.085399734
  9
$TDUPDATE
 40
2459810.418425926
  9
$TDUUPDATE
 40
2459810.335092593
  9
$TDINDWG
 40
0.0612699074
  9
$TDUSRTIMER
 40
0.0612698843
  9
$USRTIMER
 70
     1
  9
$ANGBASE
 50
0.0
  9
$ANGDIR
 70
     0
  9
$PDMODE
 70
     0
  9
$PDSIZE
 40
0.0
  9
$PLINEWID
 40
0.0
  9
$SPLFRAME
 70
     0
  9
$SPLINETYPE
 70
     6
  9
$SPLINESEGS
 70
     8
  9
$HANDSEED
  5
75E
  9
$SURFTAB1
 70
     6
  9
$SURFTAB2
 70
     6
  9
$SURFTYPE
 70
     6
  9
$SURFU
 70
     6
  9
$SURFV
 70
     6
  9
$UCSBASE
  2

  9
$UCSNAME
  2

  9
$UCSORG
 10
0.0
 20
0.0
 30
0.0
  9
$UCSXDIR
 10
1.0
 20
0.0
 30
0.0
  9
$UCSYDIR
 10
0.0
 20
1.0
 30
0.0
  9
$UCSORTHOREF
  2

  9
$UCSORTHOVIEW
 70
     0
  9
$UCSORGTOP
 10
0.0
 20
0.0
 30
0.0
  9
$UCSORGBOTTOM
 10
0.0
 20
0.0
 30
0.0
  9
$UCSORGLEFT
 10
0.0
 20
0.0
 30
0.0
  9
$UCSORGRIGHT
 10
0.0
 20
0.0
 30
0.0
  9
$UCSORGFRONT
 10
0.0
 20
0.0
 30
0.0
  9
$UCSORGBACK
 10
0.0
 20
0.0
 30
0.0
  9
$PUCSBASE
  2

  9
$PUCSNAME
  2

  9
$PUCSORG
 10
0.0
 20
0.0
 30
0.0
  9
$PUCSXDIR
 10
1.0
 20
0.0
 30
0.0
  9
$PUCSYDIR
 10
0.0
 20
1.0
 30
0.0
  9
$PUCSORTHOREF
  2

  9
$PUCSORTHOVIEW
 70
     0
  9
$PUCSORGTOP
 10
0.0
 20
0.0
 30
0.0
  9
$PUCSORGBOTTOM
 10
0.0
 20
0.0
 30
0.0
  9
$PUCSORGLEFT
 10
0.0
 20
0.0
 30
0.0
  9
$PUCSORGRIGHT
 10
0.0
 20
0.0
 30
0.0
  9
$PUCSORGFRONT
 10
0.0
 20
0.0
 30
0.0
  9
$PUCSORGBACK
 10
0.0
 20
0.0
 30
0.0
  9
$USERI1
 70
     0
  9
$USERI2
 70
     0
  9
$USERI3
 70
     0
  9
$USERI4
 70
     0
  9
$USERI5
 70
     0
  9
$USERR1
 40
0.0
  9
$USERR2
 40
0.0
  9
$USERR3
 40
0.0
  9
$USERR4
 40
0.0
  9
$USERR5
 40
0.0
  9
$WORLDVIEW
 70
     1
  9
$SHADEDGE
 70
     3
  9
$SHADEDIF
 70
    70
  9
$TILEMODE
 70
     1
  9
$MAXACTVP
 70
    64
  9
$PINSBASE
 10
0.0
 20
0.0
 30
0.0
  9
$PLIMCHECK
 70
     0
  9
$PEXTMIN
 10
0.0
 20
0.0
 30
0.0
  9
$PEXTMAX
 10
0.0
 20
0.0
 30
0.0
  9
$PLIMMIN
 10
0.0
 20
0.0
  9
$PLIMMAX
 10
12.0
 20
9.0
  9
$UNITMODE
 70
     0
  9
$VISRETAIN
 70
     1
  9
$PLINEGEN
 70
     0
  9
$PSLTSCALE
 70
     1
  9
$TREEDEPTH
 70
  3020
  9
$CMLSTYLE
  2
Standard
  9
$CMLJUST
 70
     0
  9
$CMLSCALE
 40
20.0
  9
$PROXYGRAPHICS
 70
     1
  9
$MEASUREMENT
 70
     1
  9
$CELWEIGHT
370
    -1
  9
$ENDCAPS
280
     0
  9
$JOINSTYLE
280
     0
  9
$LWDISPLAY
290
     0
  9
$INSUNITS
 70
     4
  9
$HYPERLINKBASE
  1

  9
$STYLESHEET
  1

  9
$XEDIT
290
     1
  9
$CEPSNTYPE
380
     0
  9
$PSTYLEMODE
290
     1
  9
$FINGERPRINTGUID
  2
{7BAA2248-4F87-414E-8A0E-3FC8BFF71E17}
  9
$VERSIONGUID
  2
{5FB4FC37-6D03-1749-9F8C-E4470C90D34C}
  9
$EXTNAMES
290
     1
  9
$PSVPSCALE
 40
0.0
  9
$OLESTARTUP
290
     0
  9
$SORTENTS
280
   127
  9
$INDEXCTL
280
     0
  9
$HIDETEXT
280
     1
  9
$XCLIPFRAME
280
     2
  9
$HALOGAP
280
     0
  9
$OBSCOLOR
 70
   257
  9
$OBSLTYPE
280
     0
  9
$INTERSECTIONDISPLAY
280
     0
  9
$INTERSECTIONCOLOR
 70
   257
  9
$DIMASSOC
280
     2
  9
$PROJECTNAME
  1

  9
$CAMERADISPLAY
290
     0
  9
$LENSLENGTH
 40
50.0
  9
$CAMERAHEIGHT
 40
0.0
  9
$STEPSPERSEC
 40
2.0
  9
$STEPSIZE
 40
6.0
  9
$3DDWFPREC
 40
2.0
  9
$PSOLWIDTH
 40
5.0
  9
$PSOLHEIGHT
 40
80.0
  9
$LOFTANG1
 40
1.570796326794896
  9
$LOFTANG2
 40
1.570796326794896
  9
$LOFTMAG1
 40
0.0
  9
$LOFTMAG2
 40
0.0
  9
$LOFTPARAM
 70
     7
  9
$LOFTNORMALS
280
     1
  9
$LATITUDE
 40
37.795
  9
$LONGITUDE
 40
-122.394
  9
$NORTHDIRECTION
 40
0.0
  9
$TIMEZONE
 70
 -8000
  9
$LIGHTGLYPHDISPLAY
280
     1
  9
$TILEMODELIGHTSYNCH
280
     1
  9
$CMATERIAL
347
EC
  9
$SOLIDHIST
280
     0
  9
$SHOWHIST
280
     1
  9
$DWFFRAME
280
     2
  9
$DGNFRAME
280
     0
  9
$REALWORLDSCALE
290
     1
  9
$INTERFERECOLOR
 62
     1
  9
$INTERFEREOBJVS
345
F9
  9
$INTERFEREVPVS
346
F6
  9
$CSHADOW
280
     0
  9
$SHADOWPLANELOCATION
 40
0.0
  0
ENDSEC
  0
SECTION
  2
CLASSES
  0
CLASS
  1
ACDBDICTIONARYWDFLT
  2
AcDbDictionaryWithDefault
  3
ObjectDBX Classes
 90
        0
 91
        1
280
     0
281
     0
  0
CLASS
  1
DICTIONARYVAR
  2
AcDbDictionaryVar
  3
ObjectDBX Classes
 90
        0
 91
       10
280
     0
281
     0
  0
CLASS
  1
TABLESTYLE
  2
AcDbTableStyle
  3
ObjectDBX Classes
 90
     4095
 91
        1
280
     0
281
     0
  0
CLASS
  1
MATERIAL
  2
AcDbMaterial
  3
ObjectDBX Classes
 90
     1153
 91
        3
280
     0
281
     0
  0
CLASS
  1
VISUALSTYLE
  2
AcDbVisualStyle
  3
ObjectDBX Classes
 90
     4095
 91
       24
280
     0
281
     0
  0
CLASS
  1
SCALE
  2
AcDbScale
  3
ObjectDBX Classes
 90
     1153
 91
       17
280
     0
281
     0
  0
CLASS
  1
MLEADERSTYLE
  2
AcDbMLeaderStyle
  3
ACDB_MLEADERSTYLE_CLASS
 90
     4095
 91
        2
280
     0
281
     0
  0
CLASS
  1
CELLSTYLEMAP
  2
AcDbCellStyleMap
  3
ObjectDBX Classes
 90
     1152
 91
        2
280
     0
281
     0
  0
CLASS
  1
EXACXREFPANELOBJECT
  2
ExAcXREFPanelObject
  3
EXAC_ESW
 90
     1025
 91
        0
280
     0
281
     0
  0
CLASS
  1
NPOCOLLECTION
  2
AcDbImpNonPersistentObjectsCollection
  3
ObjectDBX Classes
 90
     1153
 91
        0
280
     0
281
     0
  0
CLASS
  1
LAYER_INDEX
  2
AcDbLayerIndex
  3
ObjectDBX Classes
 90
        0
 91
        0
280
     0
281
     0
  0
CLASS
  1
SPATIAL_INDEX
  2
AcDbSpatialIndex
  3
ObjectDBX Classes
 90
        0
 91
        0
280
     0
281
     0
  0
CLASS
  1
IDBUFFER
  2
AcDbIdBuffer
  3
ObjectDBX Classes
 90
        0
 91
        0
280
     0
281
     0
  0
CLASS
  1
ACDBSECTIONVIEWSTYLE
  2
AcDbSectionViewStyle
  3
ObjectDBX Classes
 90
     1025
 91
        1
280
     0
281
     0
  0
CLASS
  1
ACDBDETAILVIEWSTYLE
  2
AcDbDetailViewStyle
  3
ObjectDBX Classes
 90
     1025
 91
        1
280
     0
281
     0
  0
CLASS
  1
SORTENTSTABLE
  2
AcDbSortentsTable
  3
ObjectDBX Classes
 90
        0
 91
        4
280
     0
281
     0
  0
CLASS
  1
DIMASSOC
  2
AcDbDimAssoc
  3
"AcDbDimAssoc|Product Desc:     AcDim ARX App For Dimension|Company:          Autodesk, Inc.|WEB Address:      www.autodesk.com"
 90
        0
 91
       13
280
     0
281
     0
  0
ENDSEC
  0
SECTION
  2
TABLES
  0
TABLE
  2
VPORT
  5
8
330
0
100
AcDbSymbolTable
 70
     1
1001
ACAD
1000
DbSaveVer
1071
      249
  0
VPORT
  5
EA
330
8
100
AcDbSymbolTableRecord
100
AcDbViewportTableRecord
  2
*Active
 70
     0
 10
0.0
 20
0.0
 11
1.0
 21
1.0
 12
2526.275408515172
 22
1268.209827384743
 13
0.0
 23
0.0
 14
10.0
 24
10.0
 15
10.0
 25
10.0
 16
0.0
 26
0.0
 36
1.0
 17
0.0
 27
0.0
 37
0.0
 40
814.1114031042375
 41
1.662952646239554
 42
50.0
 43
0.0
 44
0.0
 50
0.0
 51
0.0
 71
     0
 72
  1000
 73
     1
 74
     3
 75
     0
 76
     1
 77
     0
 78
     0
281
     0
 65
     1
110
0.0
120
0.0
130
0.0
111
1.0
121
0.0
131
0.0
112
0.0
122
1.0
132
0.0
 79
     0
146
0.0
348
F5
 60
     3
 61
     5
292
     1
282
     1
141
0.0
142
0.0
 63
   250
421
  3355443
1001
ACAD_NAV_VCDISPLAY
1070
     3
  0
ENDTAB
  0
TABLE
  2
LTYPE
  5
5
330
0
100
AcDbSymbolTable
 70
     2
  0
LTYPE
  5
14
330
5
100
AcDbSymbolTableRecord
100
AcDbLinetypeTableRecord
  2
ByBlock
 70
     0
  3

 72
    65
 73
     0
 40
0.0
  0
LTYPE
  5
15
330
5
100
AcDbSymbolTableRecord
100
AcDbLinetypeTableRecord
  2
ByLayer
 70
     0
  3

 72
    65
 73
     0
 40
0.0
  0
LTYPE
  5
16
330
5
100
AcDbSymbolTableRecord
100
AcDbLinetypeTableRecord
  2
Continuous
 70
     0
  3
Solid line
 72
    65
 73
     0
 40
0.0
  0
LTYPE
  5
376
330
5
100
AcDbSymbolTableRecord
100
AcDbLinetypeTableRecord
  2
ACAD_ISO02W100
 70
     0
  3
ISO dash __ __ __ __ __ __ __ __ __ __ __ __ __
 72
    65
 73
     2
 40
15.0
 49
12.0
 74
     0
 49
-3.0
 74
     0
  0
ENDTAB
  0
TABLE
  2
LAYER
  5
2
102
{ACAD_XDICTIONARY
360
1FF
102
}
330
0
100
AcDbSymbolTable
 70
     2
  0
LAYER
  5
10
102
{ACAD_XDICTIONARY
360
13C
102
}
330
2
100
AcDbSymbolTableRecord
100
AcDbLayerTableRecord
  2
0
 70
     0
 62
     7
  6
Continuous
370
    -3
390
F
347
EE
348
0
  0
LAYER
  5
377
330
2
100
AcDbSymbolTableRecord
100
AcDbLayerTableRecord
  2
Defpoints
 70
     0
 62
     7
  6
Continuous
290
     0
370
    -3
390
F
347
EE
348
0
  0
ENDTAB
  0
TABLE
  2
STYLE
  5
3
330
0
100
AcDbSymbolTable
 70
     4
  0
STYLE
  5
11
330
3
100
AcDbSymbolTableRecord
100
AcDbTextStyleTableRecord
  2
Standard
 70
     0
 40
0.0
 41
1.0
 50
0.0
 71
     0
 42
2.5
  3
arial.ttf
  4

1001
ACAD
1000
Arial
1071
       34
  0
STYLE
  5
132
330
3
100
AcDbSymbolTableRecord
100
AcDbTextStyleTableRecord
  2
Annotative
 70
     0
 40
0.0
 41
1.0
 50
0.0
 71
     0
 42
2.5
  3
arial.ttf
  4

1001
AcadAnnotative
1000
AnnotativeData
1002
{
1070
     1
1070
     1
1002
}
1001
ACAD
1000
Arial
1071
       34
  0
STYLE
  5
378
330
3
100
AcDbSymbolTableRecord
100
AcDbTextStyleTableRecord
  2
宋体
 70
     0
 40
0.0
 41
1.0
 50
0.0
 71
     0
 42
2.5
  3

  4

1001
ACAD
1000
SimSun
1071
    34306
1001
AcadStringInfo
1000
MIFCodePage
1070
     5
  0
STYLE
  5
379
330
3
100
AcDbSymbolTableRecord
100
AcDbTextStyleTableRecord
  2
times
 70
     0
 40
0.0
 41
1.0
 50
0.0
 71
     0
 42
4.0
  3
times.ttf
  4

1001
ACAD
1000
Times New Roman
1071
       18
  0
ENDTAB
  0
TABLE
  2
VIEW
  5
6
330
0
100
AcDbSymbolTable
 70
     0
  0
ENDTAB
  0
TABLE
  2
UCS
  5
7
330
0
100
AcDbSymbolTable
 70
     0
  0
ENDTAB
  0
TABLE
  2
APPID
  5
9
330
0
100
AcDbSymbolTable
 70
    12
  0
APPID
  5
12
330
9
100
AcDbSymbolTableRecord
100
AcDbRegAppTableRecord
  2
ACAD
 70
     0
  0
APPID
  5
9E
330
9
100
AcDbSymbolTableRecord
100
AcDbRegAppTableRecord
  2
ACAD_PSEXT
 70
     0
  0
APPID
  5
133
330
9
100
AcDbSymbolTableRecord
100
AcDbRegAppTableRecord
  2
AcadAnnoPO
 70
     0
  0
APPID
  5
134
330
9
100
AcDbSymbolTableRecord
100
AcDbRegAppTableRecord
  2
AcadAnnotative
 70
     0
  0
APPID
  5
135
330
9
100
AcDbSymbolTableRecord
100
AcDbRegAppTableRecord
  2
ACAD_DSTYLE_DIMJAG
 70
     0
  0
APPID
  5
136
330
9
100
AcDbSymbolTableRecord
100
AcDbRegAppTableRecord
  2
ACAD_DSTYLE_DIMTALN
 70
     0
  0
APPID
  5
165
330
9
100
AcDbSymbolTableRecord
100
AcDbRegAppTableRecord
  2
ACAD_MLEADERVER
 70
     0
  0
APPID
  5
217
330
9
100
AcDbSymbolTableRecord
100
AcDbRegAppTableRecord
  2
ACAD_NAV_VCDISPLAY
 70
     0
  0
APPID
  5
380
330
9
100
AcDbSymbolTableRecord
100
AcDbRegAppTableRecord
  2
AcDbDynamicBlockGUID
 70
     0
  0
APPID
  5
381
330
9
100
AcDbSymbolTableRecord
100
AcDbRegAppTableRecord
  2
ACAD_DSTYLE_DIMJOGGED_JOGANGLE_SYMBOL
 70
     0
  0
APPID
  5
382
330
9
100
AcDbSymbolTableRecord
100
AcDbRegAppTableRecord
  2
ACAD_DSTYLE_DIMBREAK
 70
     0
  0
APPID
  5
750
330
9
100
AcDbSymbolTableRecord
100
AcDbRegAppTableRecord
  2
AcadStringInfo
 70
     0
  0
ENDTAB
  0
TABLE
  2
DIMSTYLE
  5
A
330
0
100
AcDbSymbolTable
 70
     9
100
AcDbDimStyleTable
 71
     4
340
37E
340
37B
340
27
340
137
  0
DIMSTYLE
105
1B0
330
A
100
AcDbSymbolTableRecord
100
AcDbDimStyleTableRecord
  2
Standard
 70
     0
340
11
  0
DIMSTYLE
105
137
330
A
100
AcDbSymbolTableRecord
100
AcDbDimStyleTableRecord
  2
Annotative
 70
     0
 40
0.0
 41
2.5
 42
0.625
 43
3.75
 44
1.25
 73
     0
 74
     0
 77
     1
 78
     8
140
2.5
141
2.5
143
0.03937007874016
147
0.625
171
     3
172
     1
271
     2
272
     2
274
     3
278
    44
283
     0
284
     8
340
11
1001
AcadAnnotative
1000
AnnotativeData
1002
{
1070
     1
1070
     1
1002
}
1001
ACAD_DSTYLE_DIMJAG
1070
   388
1040
1.5
1001
ACAD_DSTYLE_DIMTALN
1070
   392
1070
     0
  0
DIMSTYLE
105
27
330
A
100
AcDbSymbolTableRecord
100
AcDbDimStyleTableRecord
  2
ISO-25
 70
     0
 41
2.5
 42
0.625
 43
3.75
 44
1.25
 73
     0
 74
     0
 77
     1
 78
     8
140
2.5
141
2.5
143
0.03937007874016
147
0.625
171
     3
172
     1
271
     2
272
     2
274
     3
278
    44
283
     0
284
     8
340
11
  0
DIMSTYLE
105
37A
330
A
100
AcDbSymbolTableRecord
100
AcDbDimStyleTableRecord
  2
0.5
 70
     0
 41
0.5
 42
0.5
 43
0.5
 44
0.5
 50
90.0
 78
     8
140
1.0
141
0.0
143
0.03937007874016
147
0.625
171
     3
176
   256
177
   256
178
   256
271
     2
272
     2
274
     3
283
     0
284
     8
288
     1
289
     0
340
378
345
15
346
15
347
15
371
    25
372
    25
1001
ACAD_DSTYLE_DIMBREAK
1070
   391
1040
3.75
1001
ACAD_DSTYLE_DIMJAG
1070
   388
1040
1.5
1001
ACAD_DSTYLE_DIMTALN
1070
   392
1070
     0
1001
ACAD_DSTYLE_DIMJOGGED_JOGANGLE_SYMBOL
1070
   384
1040
1.570796326794896
  0
DIMSTYLE
105
37B
330
A
100
AcDbSymbolTableRecord
100
AcDbDimStyleTableRecord
  2
1.8C
 70
     0
 41
2.0
 42
2.0
 43
4.0
 44
1.0
 77
     1
 78
     8
140
3.0
141
0.0
143
0.03937007874016
147
0.625
171
     3
176
   256
178
   256
271
     2
272
     2
274
     3
283
     0
284
     8
288
     1
340
379
345
15
371
     9
372
     9
1001
ACAD_DSTYLE_DIMBREAK
1070
   391
1040
3.75
1001
ACAD_DSTYLE_DIMJAG
1070
   388
1040
1.5
1001
ACAD_DSTYLE_DIMTALN
1070
   392
1070
     0
  0
DIMSTYLE
105
37C
330
A
100
AcDbSymbolTableRecord
100
AcDbDimStyleTableRecord
  2
0.3
 70
     0
 41
0.3
 42
0.5
 43
0.5
 44
0.5
 50
90.0
 78
     8
140
0.6
141
0.0
143
0.03937007874016
147
0.625
171
     3
176
   256
177
   256
178
   256
271
     2
272
     2
274
     3
283
     0
284
     8
288
     1
289
     0
340
378
345
15
346
15
347
15
371
    25
372
    25
1001
ACAD_DSTYLE_DIMBREAK
1070
   391
1040
3.75
1001
ACAD_DSTYLE_DIMJAG
1070
   388
1040
1.5
1001
ACAD_DSTYLE_DIMTALN
1070
   392
1070
     0
1001
ACAD_DSTYLE_DIMJOGGED_JOGANGLE_SYMBOL
1070
   384
1040
1.570796326794896
  0
DIMSTYLE
105
37D
330
A
100
AcDbSymbolTableRecord
100
AcDbDimStyleTableRecord
  2
0.3B
 70
     0
 41
0.3
 42
0.5
 43
0.5
 44
0.5
 50
90.0
 73
     0
 74
     0
 78
     8
140
0.6
141
0.0
143
0.03937007874016
147
0.625
171
     3
176
   256
177
   256
178
   256
271
     2
272
     2
274
     3
283
     0
284
     8
288
     1
289
     0
340
378
345
15
346
15
347
15
371
    25
372
    25
1001
ACAD_DSTYLE_DIMBREAK
1070
   391
1040
3.75
1001
ACAD_DSTYLE_DIMJAG
1070
   388
1040
1.5
1001
ACAD_DSTYLE_DIMTALN
1070
   392
1070
     0
1001
ACAD_DSTYLE_DIMJOGGED_JOGANGLE_SYMBOL
1070
   384
1040
1.570796326794896
  0
DIMSTYLE
105
37E
102
{ACAD_REACTORS
330
3DF
330
3E0
330
3E6
330
3F5
102
}
330
A
100
AcDbSymbolTableRecord
100
AcDbDimStyleTableRecord
  2
6倍
 70
     0
 41
10.0
 42
3.0
 43
3.75
 44
2.0
 75
     1
 76
     1
 78
     8
140
10.0
141
0.0
143
0.03937007874016
147
0.5
171
     3
271
     1
272
     1
274
     3
283
     0
284
     8
340
11
371
    18
372
     9
1001
ACAD_DSTYLE_DIMBREAK
1070
   391
1040
3.75
1001
ACAD_DSTYLE_DIMJAG
1070
   388
1040
1.5
1001
ACAD_DSTYLE_DIMTALN
1070
   392
1070
     0
1001
AcadStringInfo
1000
MIFCodePage
1070
     5
  0
DIMSTYLE
105
37F
330
A
100
AcDbSymbolTableRecord
100
AcDbDimStyleTableRecord
  2
0.5B
 70
     0
 41
0.5
 42
0.5
 43
0.5
 44
0.5
 50
90.0
 73
     0
 74
     0
 78
     8
140
1.0
141
0.0
143
0.03937007874016
147
0.625
171
     3
176
   256
177
   256
178
   256
271
     2
272
     2
274
     3
283
     0
284
     8
288
     1
289
     0
340
378
345
15
346
15
347
15
371
    25
372
    25
1001
ACAD_DSTYLE_DIMBREAK
1070
   391
1040
3.75
1001
ACAD_DSTYLE_DIMJAG
1070
   388
1040
1.5
1001
ACAD_DSTYLE_DIMTALN
1070
   392
1070
     0
1001
ACAD_DSTYLE_DIMJOGGED_JOGANGLE_SYMBOL
1070
   384
1040
1.570796326794896
  0
ENDTAB
  0
TABLE
  2
BLOCK_RECORD
  5
1
330
0
100
AcDbSymbolTable
 70
    46
  0
BLOCK_RECORD
  5
1F
102
{ACAD_XDICTIONARY
360
1CE
102
}
330
1
100
AcDbSymbolTableRecord
100
AcDbBlockTableRecord
  2
*Model_Space
340
22
 70
     0
280
     1
281
     0
  0
BLOCK_RECORD
  5
D2
330
1
100
AcDbSymbolTableRecord
100
AcDbBlockTableRecord
  2
*Paper_Space
340
D3
 70
     0
280
     1
281
     0
  0
BLOCK_RECORD
  5
D6
330
1
100
AcDbSymbolTableRecord
100
AcDbBlockTableRecord
  2
*Paper_Space0
340
D7
 70
     0
280
     1
281
     0
  0
BLOCK_RECORD
  5
25E
330
1
100
AcDbSymbolTableRecord
100
AcDbBlockTableRecord
  2
bgf fd gfg
340
0
310
2800000020000000200000000100080000000000000400000000000000000000000000000000000000000000000080000080000000808000800000008000800080800000C0C0C000C0DCC000F0CAA6000020400000206000002080000020A0000020C0000020E00000400000004020000040400000406000004080000040A0
310
000040C0000040E00000600000006020000060400000606000006080000060A0000060C0000060E00000800000008020000080400000806000008080000080A0000080C0000080E00000A0000000A0200000A0400000A0600000A0800000A0A00000A0C00000A0E00000C0000000C0200000C0400000C0600000C0800000C0
310
A00000C0C00000C0E00000E0000000E0200000E0400000E0600000E0800000E0A00000E0C00000E0E00040000000400020004000400040006000400080004000A0004000C0004000E00040200000402020004020400040206000402080004020A0004020C0004020E000404000004040200040404000404060004040800040
310
40A0004040C0004040E00040600000406020004060400040606000406080004060A0004060C0004060E00040800000408020004080400040806000408080004080A0004080C0004080E00040A0000040A0200040A0400040A0600040A0800040A0A00040A0C00040A0E00040C0000040C0200040C0400040C0600040C08000
310
40C0A00040C0C00040C0E00040E0000040E0200040E0400040E0600040E0800040E0A00040E0C00040E0E00080000000800020008000400080006000800080008000A0008000C0008000E00080200000802020008020400080206000802080008020A0008020C0008020E00080400000804020008040400080406000804080
310
008040A0008040C0008040E00080600000806020008060400080606000806080008060A0008060C0008060E00080800000808020008080400080806000808080008080A0008080C0008080E00080A0000080A0200080A0400080A0600080A0800080A0A00080A0C00080A0E00080C0000080C0200080C0400080C0600080C0
310
800080C0A00080C0C00080C0E00080E0000080E0200080E0400080E0600080E0800080E0A00080E0C00080E0E000C0000000C0002000C0004000C0006000C0008000C000A000C000C000C000E000C0200000C0202000C0204000C0206000C0208000C020A000C020C000C020E000C0400000C0402000C0404000C0406000C0
310
408000C040A000C040C000C040E000C0600000C0602000C0604000C0606000C0608000C060A000C060C000C060E000C0800000C0802000C0804000C0806000C0808000C080A000C080C000C080E000C0A00000C0A02000C0A04000C0A06000C0A08000C0A0A000C0A0C000C0A0E000C0C00000C0C02000C0C04000C0C06000
310
C0C08000C0C0A000F0FBFF00A4A0A000808080000000FF0000FF000000FFFF00FF000000FF00FF00FFFF0000FFFFFF004949494949494949494949494949494949494949494949494949494949494949494949494949FFFFFFFFFFFFFFFFFFFFFFFFFFFFFFFFFFFFFFFF494949494949494949494949FF4949494949494949
310
49494949494949494949FF494949494949494949494949FF494949494949494949494949494949494949FF494949494949494949494949FF494949494949494949494949494949494949FF494949494949494949494949FF494949494949494949494949494949494949FF494949494949494949494949FF49494949494949
310
4949494949494949494949FF494949494949494949494949FF494949494949494949494949494949494949FF494949494949494949494949FF494949494949494949494949494949494949FF494949494949494949494949FF494949494949494949494949494949494949FF494949494949494949494949FF494949494949
310
494949494949494949494949FF494949494949494949494949FF494949494949494949494949494949494949FF494949494949494949494949FF494949494949494949494949494949494949FF494949494949494949494949FF494949494949494949494949494949494949FF494949494949494949494949FF4949494949
310
49494949494949494949494949FF494949494949494949494949FF494949494949494949494949494949494949FF494949494949494949494949FF49FFFFFFFFFFFFFFFFFFFFFFFFFFFFFFFF49FF494949494949494949494949FF49FF4949494949494949494949494949FF49FF494949494949494949494949FF49FF4949
310
494949494949494949494949FF49FF494949494949494949494949FF49FF4949494949494949494949494949FF49FF494949494949494949494949FF49FF4949494949494949494949494949FF49FF494949494949494949494949FF49FF4949494949494949494949494949FF49FF494949494949494949494949FF49FF49
310
49494949494949494949494949FF49FF494949494949494949494949FF49FF4949494949494949494949494949FF49FF494949494949494949494949FF49FF4949494949494949494949494949FF49FF494949494949494949494949FF49FF4949494949494949494949494949FF49FF494949494949494949494949FF49FF
310
4949494949494949494949494949FF49FF494949494949494949494949FF49FF4949494949494949494949494949FF49FF494949494949494949494949FF49FF4949494949494949494949494949FF49FF494949494949494949494949FF49FF4949494949494949494949494949FF49FF494949494949494949494949FFFF
310
FFFFFFFFFFFFFFFFFFFFFFFFFFFFFFFFFFFF4949494949494949494949494949494949494949494949494949494949494949494949494949
102
{BLKREFS
331
2E1
102
}
 70
     4
280
     1
281
     0
  0
BLOCK_RECORD
  5
268
102
{ACAD_XDICTIONARY
360
269
102
}
330
1
100
AcDbSymbolTableRecord
100
AcDbBlockTableRecord
  2
fg fdg fdgfg
340
0
310
2800000020000000200000000100080000000000000400000000000000000000000000000000000000000000000080000080000000808000800000008000800080800000C0C0C000C0DCC000F0CAA6000020400000206000002080000020A0000020C0000020E00000400000004020000040400000406000004080000040A0
310
000040C0000040E00000600000006020000060400000606000006080000060A0000060C0000060E00000800000008020000080400000806000008080000080A0000080C0000080E00000A0000000A0200000A0400000A0600000A0800000A0A00000A0C00000A0E00000C0000000C0200000C0400000C0600000C0800000C0
310
A00000C0C00000C0E00000E0000000E0200000E0400000E0600000E0800000E0A00000E0C00000E0E00040000000400020004000400040006000400080004000A0004000C0004000E00040200000402020004020400040206000402080004020A0004020C0004020E000404000004040200040404000404060004040800040
310
40A0004040C0004040E00040600000406020004060400040606000406080004060A0004060C0004060E00040800000408020004080400040806000408080004080A0004080C0004080E00040A0000040A0200040A0400040A0600040A0800040A0A00040A0C00040A0E00040C0000040C0200040C0400040C0600040C08000
310
40C0A00040C0C00040C0E00040E0000040E0200040E0400040E0600040E0800040E0A00040E0C00040E0E00080000000800020008000400080006000800080008000A0008000C0008000E00080200000802020008020400080206000802080008020A0008020C0008020E00080400000804020008040400080406000804080
310
008040A0008040C0008040E00080600000806020008060400080606000806080008060A0008060C0008060E00080800000808020008080400080806000808080008080A0008080C0008080E00080A0000080A0200080A0400080A0600080A0800080A0A00080A0C00080A0E00080C0000080C0200080C0400080C0600080C0
310
800080C0A00080C0C00080C0E00080E0000080E0200080E0400080E0600080E0800080E0A00080E0C00080E0E000C0000000C0002000C0004000C0006000C0008000C000A000C000C000C000E000C0200000C0202000C0204000C0206000C0208000C020A000C020C000C020E000C0400000C0402000C0404000C0406000C0
310
408000C040A000C040C000C040E000C0600000C0602000C0604000C0606000C0608000C060A000C060C000C060E000C0800000C0802000C0804000C0806000C0808000C080A000C080C000C080E000C0A00000C0A02000C0A04000C0A06000C0A08000C0A0A000C0A0C000C0A0E000C0C00000C0C02000C0C04000C0C06000
310
C0C08000C0C0A000F0FBFF00A4A0A000808080000000FF0000FF000000FFFF00FF000000FF00FF00FFFF0000FFFFFF00494949494949494949494949494949494949494949494949494949494949494949494949494949FFFFFFFFFFFFFFFFFFFFFFFFFFFFFFFFFFFF49494949494949494949494949FFFF4949FFFF494949
310
4949494949FFFF4949FFFF494949494949494949494949FFFFFF49FFFF4949494949494949FFFF49FFFFFF494949494949494949494949FF49FF4949FF4949494949494949FF4949FF49FF494949494949494949494949FF49FF49FFFF4949494949494949FFFF49FF49FF494949494949494949494949FF49FF49FFFF4949
310
494949494949FFFF49FF49FF494949494949494949494949FF49FF49FFFF4949494949494949FFFF49FF49FF4949494949494949494949FFFF49FFFFFFFFFFFFFFFFFFFFFFFFFFFFFFFF49FFFF4949494949494949494949FF494949494949494949494949494949494949FF4949494949494949494949FFFF494949494949
310
494949494949494949494949FFFF4949494949494949494949FF494949494949494949494949494949494949FF4949494949494949494949FFFF494949494949494949494949494949494949FFFF4949494949494949494949FF494949494949494949494949494949494949FFFF4949494949494949494949FF4949494949
310
49494949494949494949494949FF4949494949494949494949FFFF494949494949494949494949494949494949FFFF4949494949494949494949FF494949494949494949494949494949494949FF4949494949494949494949FFFF494949494949494949494949494949494949FFFF4949494949494949494949FF49494949
310
4949494949494949494949494949FF4949494949494949494949FFFF494949494949494949494949494949494949FFFF4949494949494949494949FF494949494949494949494949494949494949FF4949494949494949494949FFFF494949494949494949494949494949494949FFFF4949494949494949494949FF494949
310
494949494949494949494949494949FF4949494949494949494949FFFF494949494949494949494949494949494949FFFF4949494949494949494949FF494949494949494949494949494949494949FF4949494949494949494949FFFF494949494949494949494949494949494949FFFF4949494949494949494949FF4949
310
49494949494949494949494949494949FF4949494949494949494949FFFF494949494949494949494949494949494949FFFF4949494949494949494949FF494949494949494949494949494949494949FFFF4949494949494949494949FF494949494949494949494949494949494949FF4949494949494949494949FFFFFF
310
FFFFFFFFFFFFFFFFFFFFFFFFFFFFFFFFFFFFFF49494949494949494949494949494949494949494949494949494949494949494949494949
102
{BLKREFS
331
2E2
102
}
 70
     4
280
     1
281
     0
1001
AcDbDynamicBlockGUID
1000
{B53B7B00-AA6B-43C7-990B-FE6E22DE32A2}
  0
BLOCK_RECORD
  5
2BE
330
1
100
AcDbSymbolTableRecord
100
AcDbBlockTableRecord
  2
vfd fdg dgfdgf
340
0
310
2800000020000000200000000100080000000000000400000000000000000000000000000000000000000000000080000080000000808000800000008000800080800000C0C0C000C0DCC000F0CAA6000020400000206000002080000020A0000020C0000020E00000400000004020000040400000406000004080000040A0
310
000040C0000040E00000600000006020000060400000606000006080000060A0000060C0000060E00000800000008020000080400000806000008080000080A0000080C0000080E00000A0000000A0200000A0400000A0600000A0800000A0A00000A0C00000A0E00000C0000000C0200000C0400000C0600000C0800000C0
310
A00000C0C00000C0E00000E0000000E0200000E0400000E0600000E0800000E0A00000E0C00000E0E00040000000400020004000400040006000400080004000A0004000C0004000E00040200000402020004020400040206000402080004020A0004020C0004020E000404000004040200040404000404060004040800040
310
40A0004040C0004040E00040600000406020004060400040606000406080004060A0004060C0004060E00040800000408020004080400040806000408080004080A0004080C0004080E00040A0000040A0200040A0400040A0600040A0800040A0A00040A0C00040A0E00040C0000040C0200040C0400040C0600040C08000
310
40C0A00040C0C00040C0E00040E0000040E0200040E0400040E0600040E0800040E0A00040E0C00040E0E00080000000800020008000400080006000800080008000A0008000C0008000E00080200000802020008020400080206000802080008020A0008020C0008020E00080400000804020008040400080406000804080
310
008040A0008040C0008040E00080600000806020008060400080606000806080008060A0008060C0008060E00080800000808020008080400080806000808080008080A0008080C0008080E00080A0000080A0200080A0400080A0600080A0800080A0A00080A0C00080A0E00080C0000080C0200080C0400080C0600080C0
310
800080C0A00080C0C00080C0E00080E0000080E0200080E0400080E0600080E0800080E0A00080E0C00080E0E000C0000000C0002000C0004000C0006000C0008000C000A000C000C000C000E000C0200000C0202000C0204000C0206000C0208000C020A000C020C000C020E000C0400000C0402000C0404000C0406000C0
310
408000C040A000C040C000C040E000C0600000C0602000C0604000C0606000C0608000C060A000C060C000C060E000C0800000C0802000C0804000C0806000C0808000C080A000C080C000C080E000C0A00000C0A02000C0A04000C0A06000C0A08000C0A0A000C0A0C000C0A0E000C0C00000C0C02000C0C04000C0C06000
310
C0C08000C0C0A000F0FBFF00A4A0A000808080000000FF0000FF000000FFFF00FF000000FF00FF00FFFF0000FFFFFF004949494949494949494949494949494949494949494949494949494949494949494949494949494949494949494949494949494949494949494949494949494949494949494949494949494949FFFF
310
FFFFFFFF4949494949494949494949494949494949494949494949494949FF49FFFF49FF4949494949494949494949494949494949494949494949494949FFFFFFFFFFFF494949494949494949494949494949494949494949494949494949FFFFFFFF49494949494949494949494949494949494949494949494949494949
310
FFFFFFFF4949494949494949494949494949494949494949494949494949FFFFFFFFFFFFFFFF494949494949494949494949494949494949494949494949FF4949FFFF4949FF494949494949494949494949494949494949494949494949FF4949FFFF4949FF494949494949494949494949494949494949494949494949FF
310
FFFFFFFFFFFFFF494949494949494949494949494949494949494949494949FF4949FFFF4949FF494949494949494949494949494949494949494949494949FF4949FFFF4949FF494949494949494949494949494949494949494949494949FF49FFFFFFFF49FF494949494949494949494949494949494949494949494949
310
FF49FFFFFFFF49FF494949494949494949494949494949494949494949494949FF49FFFFFFFF49FF494949494949494949494949494949494949494949494949FF49FFFFFFFF49FF494949494949494949494949494949494949494949494949FF49FFFFFFFF49FF4949494949494949494949494949494949494949494949
310
49FFFFFFFFFFFFFFFF494949494949494949494949494949494949494949494949FF494949494949FF494949494949494949494949494949494949494949494949FF494949494949FF494949494949494949494949494949494949494949494949FF494949494949FF49494949494949494949494949494949494949494949
310
4949FF494949494949FF494949494949494949494949494949494949494949494949FF494949494949FF494949494949494949494949494949494949494949494949FF494949494949FF494949494949494949494949494949494949494949494949FF494949494949FF494949494949494949494949494949494949494949
310
494949FF494949494949FF494949494949494949494949494949494949494949494949FFFFFFFFFFFFFFFF494949494949494949494949494949494949494949494949494949FFFF494949494949494949494949494949494949494949494949494949494949FFFF4949494949494949494949494949494949494949494949
310
49494949494949FFFF4949494949494949494949494949494949494949494949494949494949494949494949494949494949494949494949
102
{BLKREFS
331
2E3
102
}
 70
     4
280
     1
281
     0
  0
BLOCK_RECORD
  5
2DE
102
{ACAD_XDICTIONARY
360
2DF
102
}
330
1
100
AcDbSymbolTableRecord
100
AcDbBlockTableRecord
  2
vbfds fdgfdgf
340
0
310
2800000020000000200000000100080000000000000400000000000000000000000000000000000000000000000080000080000000808000800000008000800080800000C0C0C000C0DCC000F0CAA6000020400000206000002080000020A0000020C0000020E00000400000004020000040400000406000004080000040A0
310
000040C0000040E00000600000006020000060400000606000006080000060A0000060C0000060E00000800000008020000080400000806000008080000080A0000080C0000080E00000A0000000A0200000A0400000A0600000A0800000A0A00000A0C00000A0E00000C0000000C0200000C0400000C0600000C0800000C0
310
A00000C0C00000C0E00000E0000000E0200000E0400000E0600000E0800000E0A00000E0C00000E0E00040000000400020004000400040006000400080004000A0004000C0004000E00040200000402020004020400040206000402080004020A0004020C0004020E000404000004040200040404000404060004040800040
310
40A0004040C0004040E00040600000406020004060400040606000406080004060A0004060C0004060E00040800000408020004080400040806000408080004080A0004080C0004080E00040A0000040A0200040A0400040A0600040A0800040A0A00040A0C00040A0E00040C0000040C0200040C0400040C0600040C08000
310
40C0A00040C0C00040C0E00040E0000040E0200040E0400040E0600040E0800040E0A00040E0C00040E0E00080000000800020008000400080006000800080008000A0008000C0008000E00080200000802020008020400080206000802080008020A0008020C0008020E00080400000804020008040400080406000804080
310
008040A0008040C0008040E00080600000806020008060400080606000806080008060A0008060C0008060E00080800000808020008080400080806000808080008080A0008080C0008080E00080A0000080A0200080A0400080A0600080A0800080A0A00080A0C00080A0E00080C0000080C0200080C0400080C0600080C0
310
800080C0A00080C0C00080C0E00080E0000080E0200080E0400080E0600080E0800080E0A00080E0C00080E0E000C0000000C0002000C0004000C0006000C0008000C000A000C000C000C000E000C0200000C0202000C0204000C0206000C0208000C020A000C020C000C020E000C0400000C0402000C0404000C0406000C0
310
408000C040A000C040C000C040E000C0600000C0602000C0604000C0606000C0608000C060A000C060C000C060E000C0800000C0802000C0804000C0806000C0808000C080A000C080C000C080E000C0A00000C0A02000C0A04000C0A06000C0A08000C0A0A000C0A0C000C0A0E000C0C00000C0C02000C0C04000C0C06000
310
C0C08000C0C0A000F0FBFF00A4A0A000808080000000FF0000FF000000FFFF00FF000000FF00FF00FFFF0000FFFFFF004949494949494949494949494949494949494949494949494949494949494949494949494949494949494949FFFFFFFFFFFFFFFF494949494949494949494949494949494949494949494949FF49FF
310
4949FF49FF4949494949494949494949494949494949494949494949FFFFFFFFFFFFFFFFFFFF49494949494949494949494949494949494949494949FFFFFFFF4949FFFFFFFF49494949494949494949494949494949494949494949FFFFFFFFFFFFFFFFFFFF49494949494949494949494949494949494949494949FFFF49
310
4949494949FFFF49494949494949494949494949494949494949494949FFFFFFFFFFFFFFFFFFFF49494949494949494949494949494949494949494949FFFF494949494949FFFF49494949494949494949494949494949494949494949FFFF49FFFFFFFF49FFFF49494949494949494949494949494949494949494949FFFF
310
49FFFFFFFF49FFFF49494949494949494949494949494949494949494949FFFF49FFFFFFFF49FFFF49494949494949494949494949494949494949494949FFFF49FFFFFFFF49FFFF49494949494949494949494949494949494949494949FFFFFFFFFFFFFFFFFFFF49494949494949494949494949494949494949494949FF
310
FFFFFFFFFFFFFFFFFF4949494949494949494949494949494949494949494949FFFFFFFFFFFFFFFF494949494949494949494949494949494949494949494949FFFF49FFFF49FFFF494949494949494949494949494949494949494949494949FFFFFFFFFFFFFFFF4949494949494949494949494949494949494949494949
310
49FFFFFFFFFFFFFFFF49494949494949494949494949494949494949494949494949FFFFFFFFFFFF4949494949494949494949494949494949494949494949494949FFFFFFFFFFFF4949494949494949494949494949494949494949494949494949FFFFFFFFFFFF4949494949494949494949494949494949494949494949
310
494949FF49494949FF4949494949494949494949494949494949494949494949494949FF49494949FF4949494949494949494949494949494949494949494949494949FF49494949FF4949494949494949494949494949494949494949494949494949FF49494949FF49494949494949494949494949494949494949494949
310
49494949FF49494949FF4949494949494949494949494949494949494949494949494949FF49494949FF4949494949494949494949494949494949494949494949494949FFFFFFFFFFFF49494949494949494949494949494949494949494949494949494949FFFF4949494949494949494949494949494949494949494949
310
49494949494949FFFF4949494949494949494949494949494949494949494949494949494949494949494949494949494949494949494949
102
{BLKREFS
331
6AD
102
}
 70
     4
280
     1
281
     1
1001
AcDbDynamicBlockGUID
1000
{DAABD09B-620E-45C4-94BC-41F20FE50817}
  0
BLOCK_RECORD
  5
2E5
102
{ACAD_XDICTIONARY
360
2E6
102
}
330
1
100
AcDbSymbolTableRecord
100
AcDbBlockTableRecord
  2
bfds gfds gf
340
0
310
2800000020000000200000000100080000000000000400000000000000000000000000000000000000000000000080000080000000808000800000008000800080800000C0C0C000C0DCC000F0CAA6000020400000206000002080000020A0000020C0000020E00000400000004020000040400000406000004080000040A0
310
000040C0000040E00000600000006020000060400000606000006080000060A0000060C0000060E00000800000008020000080400000806000008080000080A0000080C0000080E00000A0000000A0200000A0400000A0600000A0800000A0A00000A0C00000A0E00000C0000000C0200000C0400000C0600000C0800000C0
310
A00000C0C00000C0E00000E0000000E0200000E0400000E0600000E0800000E0A00000E0C00000E0E00040000000400020004000400040006000400080004000A0004000C0004000E00040200000402020004020400040206000402080004020A0004020C0004020E000404000004040200040404000404060004040800040
310
40A0004040C0004040E00040600000406020004060400040606000406080004060A0004060C0004060E00040800000408020004080400040806000408080004080A0004080C0004080E00040A0000040A0200040A0400040A0600040A0800040A0A00040A0C00040A0E00040C0000040C0200040C0400040C0600040C08000
310
40C0A00040C0C00040C0E00040E0000040E0200040E0400040E0600040E0800040E0A00040E0C00040E0E00080000000800020008000400080006000800080008000A0008000C0008000E00080200000802020008020400080206000802080008020A0008020C0008020E00080400000804020008040400080406000804080
310
008040A0008040C0008040E00080600000806020008060400080606000806080008060A0008060C0008060E00080800000808020008080400080806000808080008080A0008080C0008080E00080A0000080A0200080A0400080A0600080A0800080A0A00080A0C00080A0E00080C0000080C0200080C0400080C0600080C0
310
800080C0A00080C0C00080C0E00080E0000080E0200080E0400080E0600080E0800080E0A00080E0C00080E0E000C0000000C0002000C0004000C0006000C0008000C000A000C000C000C000E000C0200000C0202000C0204000C0206000C0208000C020A000C020C000C020E000C0400000C0402000C0404000C0406000C0
310
408000C040A000C040C000C040E000C0600000C0602000C0604000C0606000C0608000C060A000C060C000C060E000C0800000C0802000C0804000C0806000C0808000C080A000C080C000C080E000C0A00000C0A02000C0A04000C0A06000C0A08000C0A0A000C0A0C000C0A0E000C0C00000C0C02000C0C04000C0C06000
310
C0C08000C0C0A000F0FBFF00A4A0A000808080000000FF0000FF000000FFFF00FF000000FF00FF00FFFF0000FFFFFF004949494949494949494949494949494949494949494949494949494949494949494949494949494949494949494949FFFF494949494949494949494949494949494949494949494949494949494949
310
FFFF49494949494949494949494949494949494949494949494949494949FFFFFFFFFFFF4949494949494949494949494949494949494949494949494949FF49494949FF4949494949494949494949494949494949494949494949494949FF49494949FF4949494949494949494949494949494949494949494949494949FF
310
49494949FF4949494949494949494949494949494949494949494949494949FF49494949FF4949494949494949494949494949494949494949494949494949FFFFFFFF49FF4949494949494949494949494949494949494949494949494949FFFFFFFFFFFF4949494949494949494949494949494949494949494949494949
310
FFFFFFFF49FF4949494949494949494949494949494949494949494949494949FFFFFFFFFFFF4949494949494949494949494949494949494949494949494949FF49FFFF49FF4949494949494949494949494949494949494949494949494949FFFFFFFFFFFF49494949494949494949494949494949494949494949494949
310
FFFFFFFFFFFFFFFF494949494949494949494949494949494949494949494949FFFFFFFFFFFFFFFF494949494949494949494949494949494949494949494949FFFFFFFFFFFFFFFF494949494949494949494949494949494949494949494949FFFFFFFFFFFFFFFF4949494949494949494949494949494949494949494949
310
49FFFFFFFFFFFFFFFF494949494949494949494949494949494949494949494949FFFFFFFFFFFFFFFF494949494949494949494949494949494949494949494949FF494949494949FF49494949494949494949494949494949494949FFFF494949FFFFFFFFFFFFFFFF494949FFFF49494949494949494949494949494949FF
310
FFFFFFFFFF4949FFFFFFFFFFFF494949494949494949494949494949494949494949FFFFFFFFFFFFFFFF49494949494949494949494949494949494949494949494949FFFF4949FFFF4949494949494949494949494949494949494949494949FFFFFFFFFF4949FFFF49494949494949494949494949494949494949494949
310
49FFFFFFFFFF4949FFFF4949494949494949494949494949494949494949494949FF494949494949FFFF4949494949494949494949494949494949494949494949FF494949494949FFFF4949494949494949494949494949494949494949494949FFFFFFFFFFFFFFFFFF494949494949494949494949494949494949494949
310
4949FFFFFFFFFFFFFFFFFF494949494949494949494949494949494949494949494949494949494949494949494949494949494949494949
102
{BLKREFS
331
3F2
331
3F3
331
6A9
331
6AA
102
}
 70
     4
280
     1
281
     1
1001
AcDbDynamicBlockGUID
1000
{83A74D6C-62EF-4E5A-A6F8-D1A65D7D6452}
  0
BLOCK_RECORD
  5
2F2
102
{ACAD_XDICTIONARY
360
2F3
102
}
330
1
100
AcDbSymbolTableRecord
100
AcDbBlockTableRecord
  2
bfs dgsdf gf
340
0
310
2800000020000000200000000100080000000000000400000000000000000000000000000000000000000000000080000080000000808000800000008000800080800000C0C0C000C0DCC000F0CAA6000020400000206000002080000020A0000020C0000020E00000400000004020000040400000406000004080000040A0
310
000040C0000040E00000600000006020000060400000606000006080000060A0000060C0000060E00000800000008020000080400000806000008080000080A0000080C0000080E00000A0000000A0200000A0400000A0600000A0800000A0A00000A0C00000A0E00000C0000000C0200000C0400000C0600000C0800000C0
310
A00000C0C00000C0E00000E0000000E0200000E0400000E0600000E0800000E0A00000E0C00000E0E00040000000400020004000400040006000400080004000A0004000C0004000E00040200000402020004020400040206000402080004020A0004020C0004020E000404000004040200040404000404060004040800040
310
40A0004040C0004040E00040600000406020004060400040606000406080004060A0004060C0004060E00040800000408020004080400040806000408080004080A0004080C0004080E00040A0000040A0200040A0400040A0600040A0800040A0A00040A0C00040A0E00040C0000040C0200040C0400040C0600040C08000
310
40C0A00040C0C00040C0E00040E0000040E0200040E0400040E0600040E0800040E0A00040E0C00040E0E00080000000800020008000400080006000800080008000A0008000C0008000E00080200000802020008020400080206000802080008020A0008020C0008020E00080400000804020008040400080406000804080
310
008040A0008040C0008040E00080600000806020008060400080606000806080008060A0008060C0008060E00080800000808020008080400080806000808080008080A0008080C0008080E00080A0000080A0200080A0400080A0600080A0800080A0A00080A0C00080A0E00080C0000080C0200080C0400080C0600080C0
310
800080C0A00080C0C00080C0E00080E0000080E0200080E0400080E0600080E0800080E0A00080E0C00080E0E000C0000000C0002000C0004000C0006000C0008000C000A000C000C000C000E000C0200000C0202000C0204000C0206000C0208000C020A000C020C000C020E000C0400000C0402000C0404000C0406000C0
310
408000C040A000C040C000C040E000C0600000C0602000C0604000C0606000C0608000C060A000C060C000C060E000C0800000C0802000C0804000C0806000C0808000C080A000C080C000C080E000C0A00000C0A02000C0A04000C0A06000C0A08000C0A0A000C0A0C000C0A0E000C0C00000C0C02000C0C04000C0C06000
310
C0C08000C0C0A000F0FBFF00A4A0A000808080000000FF0000FF000000FFFF00FF000000FF00FF00FFFF0000FFFFFF0049494949494949494949494949494949494949494949494949494949494949494949494949494949494949494949494949494949494949494949494949494949494949494949494949494949494949
310
494949494949494949494949494949494949494949494949494949494949494949494949494949494949494949494949494949494949494949494949494949494949494949494949494949494949494949494949494949494949494949494949FFFF494949494949494949494949494949494949494949494949FFFFFFFFFF
310
FFFFFFFFFFFFFFFFFF4949494949494949494949494949494949FFFFFFFF4949494949494949FFFFFFFF4949494949494949494949494949FFFFFF4949494949494949494949494949FFFFFF49494949494949494949FFFFFF494949494949494949494949494949494949FFFFFF49494949494949FFFFFF49494949494949
310
49494949494949494949494949FFFFFF494949494949FFFF49494949494949494949494949494949494949494949FFFF4949494949FFFF494949494949494949494949494949494949494949494949FFFF49494949FFFF494949494949494949494949494949494949494949494949FFFF49494949FF494949494949494949
310
4949494949494949494949494949494949FF494949FFFF4949494949494949494949494949494949494949494949494949FFFF4949FFFF4949494949494949494949494949494949494949494949494949FFFF494949FF4949494949494949494949494949494949494949494949494949FF49494949FFFF49494949494949
310
4949494949494949494949494949494949FFFF49494949FFFF494949494949494949494949494949494949494949494949FFFF4949494949FFFF49494949494949494949494949494949494949494949FFFF494949494949FFFFFF4949494949494949494949494949494949494949FFFFFF49494949494949FFFFFF494949
310
494949494949494949494949494949FFFFFF49494949494949494949FFFFFF4949494949494949494949494949FFFFFF4949494949494949494949494949FFFFFFFF4949494949494949FFFFFFFF4949494949494949494949494949494949FFFFFFFFFFFFFFFFFFFFFFFFFFFF494949494949494949494949494949494949
310
494949494949FFFF4949494949494949494949494949494949494949494949494949494949494949494949494949494949494949494949494949494949494949494949494949494949494949494949494949494949494949494949494949494949494949494949494949494949494949494949494949494949494949494949
310
4949494949494949494949494949494949494949494949494949494949494949494949494949494949494949494949494949494949494949
102
{BLKREFS
331
3F1
331
3F4
331
6A8
331
6AB
102
}
 70
     4
280
     1
281
     1
1001
AcDbDynamicBlockGUID
1000
{B52440C3-43E8-432A-BA20-3B5045316F69}
  0
BLOCK_RECORD
  5
405
330
1
100
AcDbSymbolTableRecord
100
AcDbBlockTableRecord
  2
*D18
340
0
 70
     0
280
     1
281
     0
  0
BLOCK_RECORD
  5
410
330
1
100
AcDbSymbolTableRecord
100
AcDbBlockTableRecord
  2
*D19
340
0
 70
     0
280
     1
281
     0
  0
BLOCK_RECORD
  5
426
330
1
100
AcDbSymbolTableRecord
100
AcDbBlockTableRecord
  2
*D21
340
0
 70
     0
280
     1
281
     0
  0
BLOCK_RECORD
  5
439
330
1
100
AcDbSymbolTableRecord
100
AcDbBlockTableRecord
  2
*D22
340
0
 70
     0
280
     1
281
     0
  0
BLOCK_RECORD
  5
444
330
1
100
AcDbSymbolTableRecord
100
AcDbBlockTableRecord
  2
*D23
340
0
 70
     0
280
     1
281
     0
  0
BLOCK_RECORD
  5
457
330
1
100
AcDbSymbolTableRecord
100
AcDbBlockTableRecord
  2
*D24
340
0
 70
     0
280
     1
281
     0
  0
BLOCK_RECORD
  5
462
330
1
100
AcDbSymbolTableRecord
100
AcDbBlockTableRecord
  2
*D25
340
0
 70
     0
280
     1
281
     0
  0
BLOCK_RECORD
  5
5A6
330
1
100
AcDbSymbolTableRecord
100
AcDbBlockTableRecord
  2
*D32
340
0
 70
     0
280
     1
281
     0
  0
BLOCK_RECORD
  5
5DC
330
1
100
AcDbSymbolTableRecord
100
AcDbBlockTableRecord
  2
*D33
340
0
 70
     0
280
     1
281
     0
  0
BLOCK_RECORD
  5
5F2
330
1
100
AcDbSymbolTableRecord
100
AcDbBlockTableRecord
  2
*D34
340
0
 70
     0
280
     1
281
     0
  0
BLOCK_RECORD
  5
60F
330
1
100
AcDbSymbolTableRecord
100
AcDbBlockTableRecord
  2
*D35
340
0
 70
     0
280
     1
281
     0
  0
BLOCK_RECORD
  5
61A
330
1
100
AcDbSymbolTableRecord
100
AcDbBlockTableRecord
  2
*D36
340
0
 70
     0
280
     1
281
     0
  0
BLOCK_RECORD
  5
625
330
1
100
AcDbSymbolTableRecord
100
AcDbBlockTableRecord
  2
*D37
340
0
 70
     0
280
     1
281
     0
  0
BLOCK_RECORD
  5
630
330
1
100
AcDbSymbolTableRecord
100
AcDbBlockTableRecord
  2
*D38
340
0
 70
     0
280
     1
281
     0
  0
BLOCK_RECORD
  5
63B
330
1
100
AcDbSymbolTableRecord
100
AcDbBlockTableRecord
  2
*D39
340
0
 70
     0
280
     1
281
     0
  0
BLOCK_RECORD
  5
646
330
1
100
AcDbSymbolTableRecord
100
AcDbBlockTableRecord
  2
*D40
340
0
 70
     0
280
     1
281
     0
  0
BLOCK_RECORD
  5
651
330
1
100
AcDbSymbolTableRecord
100
AcDbBlockTableRecord
  2
*D41
340
0
 70
     0
280
     1
281
     0
  0
BLOCK_RECORD
  5
65C
330
1
100
AcDbSymbolTableRecord
100
AcDbBlockTableRecord
  2
*D42
340
0
 70
     0
280
     1
281
     0
  0
BLOCK_RECORD
  5
667
330
1
100
AcDbSymbolTableRecord
100
AcDbBlockTableRecord
  2
*D43
340
0
 70
     0
280
     1
281
     0
  0
BLOCK_RECORD
  5
672
330
1
100
AcDbSymbolTableRecord
100
AcDbBlockTableRecord
  2
*D44
340
0
 70
     0
280
     1
281
     0
  0
BLOCK_RECORD
  5
67F
102
{ACAD_XDICTIONARY
360
6B9
102
}
330
1
100
AcDbSymbolTableRecord
100
AcDbBlockTableRecord
  2
A$C68CF1112
340
0
 70
     4
280
     1
281
     0
  0
ENDTAB
  0
ENDSEC
  0
SECTION
  2
BLOCKS
  0
BLOCK
  5
20
330
1F
100
AcDbEntity
  8
0
100
AcDbBlockBegin
  2
*Model_Space
 70
     0
 10
0.0
 20
0.0
 30
0.0
  3
*Model_Space
  1

  0
ENDBLK
  5
21
330
1F
100
AcDbEntity
  8
0
100
AcDbBlockEnd
  0
BLOCK
  5
D4
330
D2
100
AcDbEntity
 67
     1
  8
0
100
AcDbBlockBegin
  2
*Paper_Space
 70
     0
 10
0.0
 20
0.0
 30
0.0
  3
*Paper_Space
  1

  0
ENDBLK
  5
D5
330
D2
100
AcDbEntity
 67
     1
  8
0
100
AcDbBlockEnd
  0
BLOCK
  5
D8
330
D6
100
AcDbEntity
 67
     1
  8
0
100
AcDbBlockBegin
  2
*Paper_Space0
 70
     0
 10
0.0
 20
0.0
 30
0.0
  3
*Paper_Space0
  1

  0
ENDBLK
  5
D9
330
D6
100
AcDbEntity
 67
     1
  8
0
100
AcDbBlockEnd
  0
BLOCK
  5
25F
330
25E
100
AcDbEntity
  8
0
 48
0.1
100
AcDbBlockBegin
  2
bgf fd gfg
 70
     0
 10
0.0
 20
0.0
 30
0.0
  3
bgf fd gfg
  1

  0
LINE
  5
260
330
25E
100
AcDbEntity
  8
0
 48
0.1
100
AcDbLine
 10
60262.70177837561
 20
-72270.09636603745
 30
0.0
 11
60280.40177837561
 21
-72270.09636603745
 31
0.0
  0
LINE
  5
261
330
25E
100
AcDbEntity
  8
0
 48
0.1
100
AcDbLine
 10
60280.40177837561
 20
-72270.09636603745
 30
0.0
 11
60280.40177837561
 21
-72244.59636603746
 31
0.0
  0
LINE
  5
262
330
25E
100
AcDbEntity
  8
0
 48
0.1
100
AcDbLine
 10
60278.40177837561
 20
-72256.59636603745
 30
0.0
 11
60278.40177837561
 21
-72244.59636603746
 31
0.0
  0
LINE
  5
263
330
25E
100
AcDbEntity
  8
0
 48
0.1
100
AcDbLine
 10
60280.40177837561
 20
-72244.59636603746
 30
0.0
 11
60262.7017783756
 21
-72244.59636603746
 31
0.0
  0
LINE
  5
264
330
25E
100
AcDbEntity
  8
0
 48
0.1
100
AcDbLine
 10
60278.40177837561
 20
-72256.59636603745
 30
0.0
 11
60264.70177837562
 21
-72256.59636603745
 31
0.0
  0
LINE
  5
265
330
25E
100
AcDbEntity
  8
0
 48
0.1
100
AcDbLine
 10
60262.70177837561
 20
-72270.09636603745
 30
0.0
 11
60262.7017783756
 21
-72244.59636603746
 31
0.0
  0
LINE
  5
266
330
25E
100
AcDbEntity
  8
0
 48
0.1
100
AcDbLine
 10
60264.70177837562
 20
-72256.59636603745
 30
0.0
 11
60264.70177837561
 21
-72244.59636603746
 31
0.0
  0
ENDBLK
  5
267
330
25E
100
AcDbEntity
  8
0
 48
0.1
100
AcDbBlockEnd
  0
BLOCK
  5
26B
330
268
100
AcDbEntity
  8
0
 48
0.1
100
AcDbBlockBegin
  2
fg fdg fdgfg
 70
     0
 10
0.0
 20
0.0
 30
0.0
  3
fg fdg fdgfg
  1

  0
LINE
  5
26C
330
268
100
AcDbEntity
  8
0
 48
0.1
100
AcDbLine
 10
60132.88880083427
 20
-72287.88158621143
 30
0.0
 11
60147.88880083426
 21
-72287.88158621141
 31
0.0
  0
ARC
  5
26D
330
268
100
AcDbEntity
  8
0
 48
0.1
100
AcDbCircle
 10
60132.88880083427
 20
-72285.88158621143
 30
0.0
 40
2.0
100
AcDbArc
 50
179.9999999999234
 51
270.0000000000439
  0
LINE
  5
26E
330
268
100
AcDbEntity
  8
0
 48
0.1
100
AcDbLine
 10
60131.38880083427
 20
-72285.88158621141
 30
0.0
 11
60133.38880083427
 21
-72285.88158621141
 31
0.0
  0
LINE
  5
26F
330
268
100
AcDbEntity
  8
0
 48
0.1
100
AcDbLine
 10
60147.38880083427
 20
-72285.88158621141
 30
0.0
 11
60149.38880083427
 21
-72285.88158621141
 31
0.0
  0
LINE
  5
270
330
268
100
AcDbEntity
  8
0
 48
0.1
100
AcDbLine
 10
60133.38880083427
 20
-72281.3815862114
 30
0.0
 11
60147.38880083428
 21
-72281.38158621143
 31
0.0
  0
LINE
  5
271
330
268
100
AcDbEntity
  8
0
 48
0.1
100
AcDbLine
 10
60149.38880083427
 20
-72285.8815862114
 30
0.0
 11
60149.38880083427
 21
-72260.78158621141
 31
0.0
  0
LINE
  5
272
330
268
100
AcDbEntity
  8
0
 48
0.1
100
AcDbLine
 10
60149.88880083427
 20
-72285.88158621141
 30
0.0
 11
60149.88880083427
 21
-72282.43783621142
 31
0.0
  0
ARC
  5
273
330
268
100
AcDbEntity
  8
0
 48
0.1
100
AcDbCircle
 10
60147.88880083426
 20
-72285.88158621141
 30
0.0
 40
2.0
100
AcDbArc
 50
270.000000000049
 51
0.0
  0
LINE
  5
274
330
268
100
AcDbEntity
  8
0
 48
0.1
100
AcDbLine
 10
60131.38880083428
 20
-72285.88158621141
 30
0.0
 11
60131.38880083428
 21
-72260.78158621142
 31
0.0
  0
LINE
  5
275
330
268
100
AcDbEntity
  8
0
 48
0.1
100
AcDbLine
 10
60130.88880083428
 20
-72285.88158621143
 30
0.0
 11
60130.88880083429
 21
-72282.43783621141
 31
0.0
  0
LINE
  5
276
330
268
100
AcDbEntity
  8
0
 48
0.1
100
AcDbLine
 10
60150.68880083427
 20
-72260.78158621141
 30
0.0
 11
60130.08880083428
 21
-72260.78158621142
 31
0.0
  0
LINE
  5
277
330
268
100
AcDbEntity
  8
0
 48
0.1
100
AcDbLine
 10
60149.88880083427
 20
-72261.81283621141
 30
0.0
 11
60150.68880083427
 21
-72262.84408621141
 31
0.0
  0
LINE
  5
278
330
268
100
AcDbEntity
  8
0
 48
0.1
100
AcDbLine
 10
60150.68880083427
 20
-72262.84408621141
 30
0.0
 11
60149.88880083427
 21
-72263.8753362114
 31
0.0
  0
LINE
  5
279
330
268
100
AcDbEntity
  8
0
 48
0.1
100
AcDbLine
 10
60149.88880083427
 20
-72263.8753362114
 30
0.0
 11
60150.68880083427
 21
-72264.9065862114
 31
0.0
  0
LINE
  5
27A
330
268
100
AcDbEntity
  8
0
 48
0.1
100
AcDbLine
 10
60150.68880083427
 20
-72264.9065862114
 30
0.0
 11
60149.88880083427
 21
-72265.9378362114
 31
0.0
  0
LINE
  5
27B
330
268
100
AcDbEntity
  8
0
 48
0.1
100
AcDbLine
 10
60149.88880083427
 20
-72261.81283621141
 30
0.0
 11
60150.68880083427
 21
-72260.78158621141
 31
0.0
  0
LINE
  5
27C
330
268
100
AcDbEntity
  8
0
 48
0.1
100
AcDbLine
 10
60149.88880083427
 20
-72270.06283621141
 30
0.0
 11
60150.68880083427
 21
-72269.03158621141
 31
0.0
  0
LINE
  5
27D
330
268
100
AcDbEntity
  8
0
 48
0.1
100
AcDbLine
 10
60150.68880083427
 20
-72269.03158621141
 30
0.0
 11
60149.88880083427
 21
-72268.00033621141
 31
0.0
  0
LINE
  5
27E
330
268
100
AcDbEntity
  8
0
 48
0.1
100
AcDbLine
 10
60149.88880083427
 20
-72268.00033621141
 30
0.0
 11
60150.68880083427
 21
-72266.96908621141
 31
0.0
  0
LINE
  5
27F
330
268
100
AcDbEntity
  8
0
 48
0.1
100
AcDbLine
 10
60150.68880083427
 20
-72266.96908621141
 30
0.0
 11
60149.88880083427
 21
-72265.9378362114
 31
0.0
  0
LINE
  5
280
330
268
100
AcDbEntity
  8
0
 48
0.1
100
AcDbLine
 10
60149.88880083427
 20
-72270.06283621141
 30
0.0
 11
60150.68880083427
 21
-72271.0940862114
 31
0.0
  0
LINE
  5
281
330
268
100
AcDbEntity
  8
0
 48
0.1
100
AcDbLine
 10
60149.88880083427
 20
-72280.37533621141
 30
0.0
 11
60150.68880083427
 21
-72279.3440862114
 31
0.0
  0
LINE
  5
282
330
268
100
AcDbEntity
  8
0
 48
0.1
100
AcDbLine
 10
60150.68880083427
 20
-72279.3440862114
 30
0.0
 11
60149.88880083427
 21
-72278.3128362114
 31
0.0
  0
LINE
  5
283
330
268
100
AcDbEntity
  8
0
 48
0.1
100
AcDbLine
 10
60149.88880083427
 20
-72278.3128362114
 30
0.0
 11
60150.68880083427
 21
-72277.28158621141
 31
0.0
  0
LINE
  5
284
330
268
100
AcDbEntity
  8
0
 48
0.1
100
AcDbLine
 10
60150.68880083427
 20
-72277.28158621141
 30
0.0
 11
60149.88880083427
 21
-72276.25033621141
 31
0.0
  0
LINE
  5
285
330
268
100
AcDbEntity
  8
0
 48
0.1
100
AcDbLine
 10
60149.88880083427
 20
-72280.37533621141
 30
0.0
 11
60150.68880083427
 21
-72281.40658621141
 31
0.0
  0
LINE
  5
286
330
268
100
AcDbEntity
  8
0
 48
0.1
100
AcDbLine
 10
60149.88880083427
 20
-72272.1253362114
 30
0.0
 11
60150.68880083427
 21
-72273.1565862114
 31
0.0
  0
LINE
  5
287
330
268
100
AcDbEntity
  8
0
 48
0.1
100
AcDbLine
 10
60150.68880083427
 20
-72273.1565862114
 30
0.0
 11
60149.88880083427
 21
-72274.18783621141
 31
0.0
  0
LINE
  5
288
330
268
100
AcDbEntity
  8
0
 48
0.1
100
AcDbLine
 10
60149.88880083427
 20
-72274.18783621141
 30
0.0
 11
60150.68880083427
 21
-72275.21908621141
 31
0.0
  0
LINE
  5
289
330
268
100
AcDbEntity
  8
0
 48
0.1
100
AcDbLine
 10
60150.68880083427
 20
-72275.21908621141
 30
0.0
 11
60149.88880083427
 21
-72276.25033621141
 31
0.0
  0
LINE
  5
28A
330
268
100
AcDbEntity
  8
0
 48
0.1
100
AcDbLine
 10
60149.88880083427
 20
-72272.1253362114
 30
0.0
 11
60150.68880083427
 21
-72271.0940862114
 31
0.0
  0
LINE
  5
28B
330
268
100
AcDbEntity
  8
0
 48
0.1
100
AcDbLine
 10
60149.88880083427
 20
-72282.43783621141
 30
0.0
 11
60150.68880083427
 21
-72281.40658621141
 31
0.0
  0
LINE
  5
28C
330
268
100
AcDbEntity
  8
0
 48
0.1
100
AcDbLine
 10
60130.88880083429
 20
-72261.81283621141
 30
0.0
 11
60130.08880083428
 21
-72262.84408621141
 31
0.0
  0
LINE
  5
28D
330
268
100
AcDbEntity
  8
0
 48
0.1
100
AcDbLine
 10
60130.08880083428
 20
-72262.84408621141
 30
0.0
 11
60130.88880083429
 21
-72263.8753362114
 31
0.0
  0
LINE
  5
28E
330
268
100
AcDbEntity
  8
0
 48
0.1
100
AcDbLine
 10
60130.88880083429
 20
-72263.8753362114
 30
0.0
 11
60130.08880083428
 21
-72264.9065862114
 31
0.0
  0
LINE
  5
28F
330
268
100
AcDbEntity
  8
0
 48
0.1
100
AcDbLine
 10
60130.08880083428
 20
-72264.9065862114
 30
0.0
 11
60130.88880083429
 21
-72265.9378362114
 31
0.0
  0
LINE
  5
290
330
268
100
AcDbEntity
  8
0
 48
0.1
100
AcDbLine
 10
60130.88880083429
 20
-72261.81283621141
 30
0.0
 11
60130.08880083428
 21
-72260.78158621141
 31
0.0
  0
LINE
  5
291
330
268
100
AcDbEntity
  8
0
 48
0.1
100
AcDbLine
 10
60130.88880083429
 20
-72270.06283621141
 30
0.0
 11
60130.08880083428
 21
-72269.03158621141
 31
0.0
  0
LINE
  5
292
330
268
100
AcDbEntity
  8
0
 48
0.1
100
AcDbLine
 10
60130.08880083428
 20
-72269.03158621141
 30
0.0
 11
60130.88880083429
 21
-72268.00033621141
 31
0.0
  0
LINE
  5
293
330
268
100
AcDbEntity
  8
0
 48
0.1
100
AcDbLine
 10
60130.88880083429
 20
-72268.00033621141
 30
0.0
 11
60130.08880083428
 21
-72266.96908621141
 31
0.0
  0
LINE
  5
294
330
268
100
AcDbEntity
  8
0
 48
0.1
100
AcDbLine
 10
60130.08880083428
 20
-72266.96908621141
 30
0.0
 11
60130.88880083429
 21
-72265.9378362114
 31
0.0
  0
LINE
  5
295
330
268
100
AcDbEntity
  8
0
 48
0.1
100
AcDbLine
 10
60130.88880083429
 20
-72270.06283621141
 30
0.0
 11
60130.08880083428
 21
-72271.0940862114
 31
0.0
  0
LINE
  5
296
330
268
100
AcDbEntity
  8
0
 48
0.1
100
AcDbLine
 10
60130.88880083429
 20
-72280.37533621141
 30
0.0
 11
60130.08880083428
 21
-72279.3440862114
 31
0.0
  0
LINE
  5
297
330
268
100
AcDbEntity
  8
0
 48
0.1
100
AcDbLine
 10
60130.08880083428
 20
-72279.3440862114
 30
0.0
 11
60130.88880083429
 21
-72278.3128362114
 31
0.0
  0
LINE
  5
298
330
268
100
AcDbEntity
  8
0
 48
0.1
100
AcDbLine
 10
60130.88880083429
 20
-72278.3128362114
 30
0.0
 11
60130.08880083428
 21
-72277.28158621141
 31
0.0
  0
LINE
  5
299
330
268
100
AcDbEntity
  8
0
 48
0.1
100
AcDbLine
 10
60130.08880083428
 20
-72277.28158621141
 30
0.0
 11
60130.88880083429
 21
-72276.25033621141
 31
0.0
  0
LINE
  5
29A
330
268
100
AcDbEntity
  8
0
 48
0.1
100
AcDbLine
 10
60130.88880083429
 20
-72280.37533621141
 30
0.0
 11
60130.08880083428
 21
-72281.40658621141
 31
0.0
  0
LINE
  5
29B
330
268
100
AcDbEntity
  8
0
 48
0.1
100
AcDbLine
 10
60130.88880083429
 20
-72272.1253362114
 30
0.0
 11
60130.08880083428
 21
-72273.1565862114
 31
0.0
  0
LINE
  5
29C
330
268
100
AcDbEntity
  8
0
 48
0.1
100
AcDbLine
 10
60130.08880083428
 20
-72273.1565862114
 30
0.0
 11
60130.88880083429
 21
-72274.18783621141
 31
0.0
  0
LINE
  5
29D
330
268
100
AcDbEntity
  8
0
 48
0.1
100
AcDbLine
 10
60130.88880083429
 20
-72274.18783621141
 30
0.0
 11
60130.08880083428
 21
-72275.21908621141
 31
0.0
  0
LINE
  5
29E
330
268
100
AcDbEntity
  8
0
 48
0.1
100
AcDbLine
 10
60130.08880083428
 20
-72275.21908621141
 30
0.0
 11
60130.88880083429
 21
-72276.25033621141
 31
0.0
  0
LINE
  5
29F
330
268
100
AcDbEntity
  8
0
 48
0.1
100
AcDbLine
 10
60130.88880083429
 20
-72272.1253362114
 30
0.0
 11
60130.08880083428
 21
-72271.0940862114
 31
0.0
  0
LINE
  5
2A0
330
268
100
AcDbEntity
  8
0
 48
0.1
100
AcDbLine
 10
60130.88880083429
 20
-72282.43783621141
 30
0.0
 11
60130.08880083428
 21
-72281.40658621141
 31
0.0
  0
LINE
  5
2A1
330
268
100
AcDbEntity
  8
0
 48
0.1
100
AcDbLine
 10
60147.38880083427
 20
-72281.38158621141
 30
0.0
 11
60147.38880083428
 21
-72285.88158621141
 31
0.0
  0
LINE
  5
2A2
330
268
100
AcDbEntity
  8
0
 48
0.1
100
AcDbLine
 10
60133.38880083427
 20
-72281.38158621141
 30
0.0
 11
60133.38880083427
 21
-72285.88158621141
 31
0.0
  0
LINE
  5
2A3
330
268
100
AcDbEntity
  8
0
 48
0.1
100
AcDbLine
 10
60144.89060519498
 20
-72287.88158621141
 30
0.0
 11
60145.34060519499
 21
-72287.3815862113
 31
0.0
  0
LINE
  5
2A4
330
268
100
AcDbEntity
  8
0
 48
0.1
100
AcDbLine
 10
60145.34060519499
 20
-72287.3815862113
 30
0.0
 11
60144.88880083427
 21
-72286.87958136609
 31
0.0
  0
LINE
  5
2A5
330
268
100
AcDbEntity
  8
0
 48
0.1
100
AcDbLine
 10
60144.88880083427
 20
-72286.88359105659
 30
0.0
 11
60145.34060519499
 21
-72286.38158621129
 31
0.0
  0
LINE
  5
2A6
330
268
100
AcDbEntity
  8
0
 48
0.1
100
AcDbLine
 10
60145.34060519499
 20
-72286.38158621129
 30
0.0
 11
60144.88880083427
 21
-72285.8795813661
 31
0.0
  0
LINE
  5
2A7
330
268
100
AcDbEntity
  8
0
 48
0.1
100
AcDbLine
 10
60144.89060519498
 20
-72283.8775765209
 30
0.0
 11
60145.34060519499
 21
-72284.37757652089
 31
0.0
  0
LINE
  5
2A8
330
268
100
AcDbEntity
  8
0
 48
0.1
100
AcDbLine
 10
60145.34060519499
 20
-72284.37757652089
 30
0.0
 11
60144.88880083427
 21
-72284.8795813661
 31
0.0
  0
LINE
  5
2A9
330
268
100
AcDbEntity
  8
0
 48
0.1
100
AcDbLine
 10
60144.88880083427
 20
-72284.8755716757
 30
0.0
 11
60145.34060519499
 21
-72285.3775765209
 31
0.0
  0
LINE
  5
2AA
330
268
100
AcDbEntity
  8
0
 48
0.1
100
AcDbLine
 10
60145.34060519499
 20
-72285.3775765209
 30
0.0
 11
60144.88880083427
 21
-72285.8795813661
 31
0.0
  0
LINE
  5
2AB
330
268
100
AcDbEntity
  8
0
 48
0.1
100
AcDbLine
 10
60145.34060519499
 20
-72281.37356683038
 30
0.0
 11
60144.88880083427
 21
-72281.87557167562
 31
0.0
  0
LINE
  5
2AC
330
268
100
AcDbEntity
  8
0
 48
0.1
100
AcDbLine
 10
60144.89060519498
 20
-72283.8775765209
 30
0.0
 11
60145.34060519499
 21
-72283.3775765209
 31
0.0
  0
LINE
  5
2AD
330
268
100
AcDbEntity
  8
0
 48
0.1
100
AcDbLine
 10
60145.34060519499
 20
-72283.3775765209
 30
0.0
 11
60144.88880083427
 21
-72282.8755716757
 31
0.0
  0
LINE
  5
2AE
330
268
100
AcDbEntity
  8
0
 48
0.1
100
AcDbLine
 10
60144.88880083427
 20
-72282.87958136609
 30
0.0
 11
60145.34060519499
 21
-72282.3775765209
 31
0.0
  0
LINE
  5
2AF
330
268
100
AcDbEntity
  8
0
 48
0.1
100
AcDbLine
 10
60145.34060519499
 20
-72282.3775765209
 30
0.0
 11
60144.88880083427
 21
-72281.87557167562
 31
0.0
  0
LINE
  5
2B0
330
268
100
AcDbEntity
  8
0
 48
0.1
100
AcDbLine
 10
60135.88699647358
 20
-72287.88158621141
 30
0.0
 11
60135.43699647358
 21
-72287.3815862113
 31
0.0
  0
LINE
  5
2B1
330
268
100
AcDbEntity
  8
0
 48
0.1
100
AcDbLine
 10
60135.43699647358
 20
-72287.3815862113
 30
0.0
 11
60135.88880083427
 21
-72286.87958136609
 31
0.0
  0
LINE
  5
2B2
330
268
100
AcDbEntity
  8
0
 48
0.1
100
AcDbLine
 10
60135.88880083429
 20
-72286.88359105659
 30
0.0
 11
60135.43699647358
 21
-72286.38158621129
 31
0.0
  0
LINE
  5
2B3
330
268
100
AcDbEntity
  8
0
 48
0.1
100
AcDbLine
 10
60135.43699647358
 20
-72286.38158621129
 30
0.0
 11
60135.88880083429
 21
-72285.8795813661
 31
0.0
  0
LINE
  5
2B4
330
268
100
AcDbEntity
  8
0
 48
0.1
100
AcDbLine
 10
60135.88699647358
 20
-72283.8775765209
 30
0.0
 11
60135.43699647358
 21
-72284.37757652089
 31
0.0
  0
LINE
  5
2B5
330
268
100
AcDbEntity
  8
0
 48
0.1
100
AcDbLine
 10
60135.43699647358
 20
-72284.37757652089
 30
0.0
 11
60135.88880083427
 21
-72284.8795813661
 31
0.0
  0
LINE
  5
2B6
330
268
100
AcDbEntity
  8
0
 48
0.1
100
AcDbLine
 10
60135.88880083429
 20
-72284.8755716757
 30
0.0
 11
60135.43699647358
 21
-72285.3775765209
 31
0.0
  0
LINE
  5
2B7
330
268
100
AcDbEntity
  8
0
 48
0.1
100
AcDbLine
 10
60135.43699647358
 20
-72285.3775765209
 30
0.0
 11
60135.88880083429
 21
-72285.8795813661
 31
0.0
  0
LINE
  5
2B8
330
268
100
AcDbEntity
  8
0
 48
0.1
100
AcDbLine
 10
60135.43699647358
 20
-72281.37356683038
 30
0.0
 11
60135.88880083429
 21
-72281.87557167562
 31
0.0
  0
LINE
  5
2B9
330
268
100
AcDbEntity
  8
0
 48
0.1
100
AcDbLine
 10
60135.88699647358
 20
-72283.8775765209
 30
0.0
 11
60135.43699647358
 21
-72283.3775765209
 31
0.0
  0
LINE
  5
2BA
330
268
100
AcDbEntity
  8
0
 48
0.1
100
AcDbLine
 10
60135.43699647358
 20
-72283.3775765209
 30
0.0
 11
60135.88880083427
 21
-72282.8755716757
 31
0.0
  0
LINE
  5
2BB
330
268
100
AcDbEntity
  8
0
 48
0.1
100
AcDbLine
 10
60135.88880083429
 20
-72282.87958136609
 30
0.0
 11
60135.43699647358
 21
-72282.3775765209
 31
0.0
  0
LINE
  5
2BC
330
268
100
AcDbEntity
  8
0
 48
0.1
100
AcDbLine
 10
60135.43699647358
 20
-72282.3775765209
 30
0.0
 11
60135.88880083429
 21
-72281.87557167562
 31
0.0
  0
ENDBLK
  5
2BD
330
268
100
AcDbEntity
  8
0
 48
0.1
100
AcDbBlockEnd
  0
BLOCK
  5
2BF
330
2BE
100
AcDbEntity
  8
0
 48
0.1
100
AcDbBlockBegin
  2
vfd fdg dgfdgf
 70
     0
 10
0.0
 20
0.0
 30
0.0
  3
vfd fdg dgfdgf
  1

  0
LINE
  5
2C0
330
2BE
100
AcDbEntity
  8
0
100
AcDbLine
 10
60196.26230866599
 20
-72228.31079256891
 30
0.0
 11
60196.26230866599
 21
-72248.52139196182
 31
0.0
  0
LINE
  5
2C1
330
2BE
100
AcDbEntity
  8
0
100
AcDbLine
 10
60198.16672469101
 20
-72228.31079256891
 30
0.0
 11
60198.16672469101
 21
-72248.52139196182
 31
0.0
  0
LINE
  5
2C2
330
2BE
100
AcDbEntity
  8
0
100
AcDbLine
 10
60196.26230866599
 20
-72226.19140212057
 30
0.0
 11
60196.26230866599
 21
-72226.20066521974
 31
0.0
  0
SPLINE
  5
2C3
330
2BE
100
AcDbEntity
  8
0
100
AcDbSpline
210
0.0
220
0.0
230
1.0
 70
  1064
 71
     3
 72
    13
 73
     9
 74
     7
 42
0.000000001
 43
0.0000000001
 44
0.0000000001
 40
0.0
 40
0.0
 40
0.0
 40
0.0
 40
2.909384407463556
 40
5.166574280217755
 40
7.870418544746673
 40
10.62770249174813
 40
11.89726679988024
 40
14.21540853839637
 40
14.21540853839637
 40
14.21540853839637
 40
14.21540853839637
 10
60196.26230866599
 20
-72239.5823552338
 30
0.0
 10
60195.0427050792
 20
-72239.96886247673
 30
0.0
 10
60192.8768955329
 20
-72240.65523392193
 30
0.0
 10
60195.32170084318
 20
-72243.56901379954
 30
0.0
 10
60192.91907744854
 20
-72245.35771622393
 30
0.0
 10
60192.1328156066
 20
-72248.2240407551
 30
0.0
 10
60194.35656968786
 20
-72249.18508744976
 30
0.0
 10
60195.51427498333
 20
-72248.78190328351
 30
0.0
 10
60196.26230866599
 20
-72248.52139196182
 30
0.0
 11
60196.26230866599
 21
-72239.5823552338
 31
0.0
 11
60193.79919295055
 21
-72241.13076687247
 31
0.0
 11
60194.54425262463
 21
-72243.26144568538
 31
0.0
 11
60193.19604968048
 21
-72245.60518684604
 31
0.0
 11
60192.84126156428
 21
-72248.33954968901
 31
0.0
 11
60193.97658700866
 21
-72248.90773070579
 31
0.0
 11
60196.26230866599
 21
-72248.52139196182
 31
0.0
  0
SPLINE
  5
2C4
330
2BE
100
AcDbEntity
  8
0
100
AcDbSpline
210
0.0
220
0.0
230
1.0
 70
  1064
 71
     3
 72
    13
 73
     9
 74
     7
 42
0.000000001
 43
0.0000000001
 44
0.0000000001
 40
0.0
 40
0.0
 40
0.0
 40
0.0
 40
2.909384407463556
 40
5.166574280217755
 40
7.870418544746673
 40
10.62770249174813
 40
11.89726679987374
 40
14.21540853839703
 40
14.21540853839703
 40
14.21540853839703
 40
14.21540853839703
 10
60198.16672469101
 20
-72239.5823552338
 30
0.0
 10
60199.38632827779
 20
-72239.96886247673
 30
0.0
 10
60201.55213782408
 20
-72240.65523392193
 30
0.0
 10
60199.1073325138
 20
-72243.56901379954
 30
0.0
 10
60201.50995590845
 20
-72245.35771622393
 30
0.0
 10
60202.2962177504
 20
-72248.22404075508
 30
0.0
 10
60200.07246366911
 20
-72249.18508744978
 30
0.0
 10
60198.91475837366
 20
-72248.78190328351
 30
0.0
 10
60198.16672469101
 20
-72248.52139196182
 30
0.0
 11
60198.16672469101
 21
-72239.5823552338
 31
0.0
 11
60200.62984040643
 21
-72241.13076687247
 31
0.0
 11
60199.88478073237
 21
-72243.26144568538
 31
0.0
 11
60201.23298367651
 21
-72245.60518684604
 31
0.0
 11
60201.58777179271
 21
-72248.33954968901
 31
0.0
 11
60200.45244634833
 21
-72248.90773070579
 31
0.0
 11
60198.16672469101
 21
-72248.52139196182
 31
0.0
  0
LINE
  5
2C5
330
2BE
100
AcDbEntity
  8
0
100
AcDbLine
 10
60198.16672469101
 20
-72226.19140212057
 30
0.0
 11
60198.16672469101
 21
-72226.20066521974
 31
0.0
  0
LINE
  5
2C6
330
2BE
100
AcDbEntity
  8
0
100
AcDbLine
 10
60195.6145212872
 20
-72226.19140212057
 30
0.0
 11
60195.6145212872
 21
-72219.22295079918
 31
0.0
  0
LINE
  5
2C7
330
2BE
100
AcDbEntity
  8
0
100
AcDbLine
 10
60195.6145212872
 20
-72219.22295079918
 30
0.0
 11
60193.76097301738
 21
-72219.22295079918
 31
0.0
  0
LINE
  5
2C8
330
2BE
100
AcDbEntity
  8
0
100
AcDbLine
 10
60193.76097301738
 20
-72219.22295079918
 30
0.0
 11
60192.49513263371
 21
-72220.67093809704
 31
0.0
  0
LINE
  5
2C9
330
2BE
100
AcDbEntity
  8
0
100
AcDbLine
 10
60192.49513263371
 20
-72220.67093809704
 30
0.0
 11
60193.89659835939
 21
-72221.89268222144
 31
0.0
  0
LINE
  5
2CA
330
2BE
100
AcDbEntity
  8
0
100
AcDbLine
 10
60193.89659835939
 20
-72221.89268222144
 30
0.0
 11
60194.64682870416
 21
-72226.20066521974
 31
0.0
  0
LINE
  5
2CB
330
2BE
100
AcDbEntity
  8
0
100
AcDbLine
 10
60199.88464761882
 20
-72221.89268222144
 30
0.0
 11
60199.13441727404
 21
-72226.20066521974
 31
0.0
  0
LINE
  5
2CC
330
2BE
100
AcDbEntity
  8
0
100
AcDbLine
 10
60201.2861133445
 20
-72220.67093809704
 30
0.0
 11
60199.88464761882
 21
-72221.89268222144
 31
0.0
  0
LINE
  5
2CD
330
2BE
100
AcDbEntity
  8
0
100
AcDbLine
 10
60200.02027296082
 20
-72219.22295079918
 30
0.0
 11
60201.2861133445
 21
-72220.67093809704
 31
0.0
  0
LINE
  5
2CE
330
2BE
100
AcDbEntity
  8
0
100
AcDbLine
 10
60198.16672469101
 20
-72219.22295079918
 30
0.0
 11
60200.02027296082
 21
-72219.22295079918
 31
0.0
  0
LINE
  5
2CF
330
2BE
100
AcDbEntity
  8
0
100
AcDbLine
 10
60198.16672469101
 20
-72226.19140212057
 30
0.0
 11
60198.16672469101
 21
-72219.22295079918
 31
0.0
  0
LWPOLYLINE
  5
2D0
330
2BE
100
AcDbEntity
  8
0
100
AcDbPolyline
 90
        4
 70
     1
 43
0.0
 10
60193.95744861311
 20
-72226.20066521974
 10
60193.95744861311
 20
-72228.31079256891
 10
60199.8237973651
 20
-72228.31079256891
 10
60199.8237973651
 20
-72226.20066521974
  0
LINE
  5
2D1
330
2BE
100
AcDbEntity
  8
0
  6
ACAD_ISO02W100
 48
0.5
370
     9
100
AcDbLine
 10
60190.4645166785
 20
-72234.5823552338
 30
0.0
 11
60203.96451667849
 21
-72234.5823552338
 31
0.0
  0
ARC
  5
2D2
330
2BE
100
AcDbEntity
  8
0
  6
ACAD_ISO02W100
 48
0.5
370
     9
100
AcDbCircle
 10
60193.4645166785
 20
-72206.58235523379
 30
0.0
 40
3.0
100
AcDbArc
 50
90.0
 51
180.0
  0
ARC
  5
2D3
330
2BE
100
AcDbEntity
  8
0
  6
ACAD_ISO02W100
 48
0.5
370
     9
100
AcDbCircle
 10
60200.9645166785
 20
-72206.58235523379
 30
0.0
 40
3.0
100
AcDbArc
 50
0.0
 51
90.0
  0
LINE
  5
2D4
330
2BE
100
AcDbEntity
  8
0
  6
ACAD_ISO02W100
 48
0.5
370
     9
100
AcDbLine
 10
60190.4645166785
 20
-72206.58235523379
 30
0.0
 11
60190.4645166785
 21
-72239.5823552338
 31
0.0
  0
LINE
  5
2D5
330
2BE
100
AcDbEntity
  8
0
  6
ACAD_ISO02W100
 48
0.5
370
     9
100
AcDbLine
 10
60203.96451667849
 20
-72239.5823552338
 30
0.0
 11
60203.96451667849
 21
-72206.58235523379
 31
0.0
  0
LINE
  5
2D6
330
2BE
100
AcDbEntity
  8
0
  6
ACAD_ISO02W100
 48
0.5
370
     9
100
AcDbLine
 10
60190.4645166785
 20
-72239.5823552338
 30
0.0
 11
60203.96451667849
 21
-72239.5823552338
 31
0.0
  0
LINE
  5
2D7
330
2BE
100
AcDbEntity
  8
0
  6
ACAD_ISO02W100
 48
0.5
370
     9
100
AcDbLine
 10
60200.9645166785
 20
-72203.5823552338
 30
0.0
 11
60193.4645166785
 21
-72203.5823552338
 31
0.0
  0
ARC
  5
2D8
330
2BE
100
AcDbEntity
  8
0
  6
ACAD_ISO02W100
 48
0.5
370
     9
100
AcDbCircle
 10
60197.7145166785
 20
-72200.5823552338
 30
0.0
 40
1.0
100
AcDbArc
 50
0.0
 51
90.0
  0
LINE
  5
2D9
330
2BE
100
AcDbEntity
  8
0
  6
ACAD_ISO02W100
 48
0.5
370
     9
100
AcDbLine
 10
60198.71451667849
 20
-72203.5823552338
 30
0.0
 11
60198.71451667849
 21
-72200.5823552338
 31
0.0
  0
LINE
  5
2DA
330
2BE
100
AcDbEntity
  8
0
  6
ACAD_ISO02W100
 48
0.5
370
     9
100
AcDbLine
 10
60197.7145166785
 20
-72199.5823552338
 30
0.0
 11
60196.7145166785
 21
-72199.5823552338
 31
0.0
  0
LINE
  5
2DB
330
2BE
100
AcDbEntity
  8
0
  6
ACAD_ISO02W100
 48
0.5
370
     9
100
AcDbLine
 10
60195.71451667849
 20
-72200.5823552338
 30
0.0
 11
60195.71451667849
 21
-72203.5823552338
 31
0.0
  0
ARC
  5
2DC
330
2BE
100
AcDbEntity
  8
0
  6
ACAD_ISO02W100
 48
0.5
370
     9
100
AcDbCircle
 10
60196.7145166785
 20
-72200.5823552338
 30
0.0
 40
1.0
100
AcDbArc
 50
90.0
 51
180.0
  0
ENDBLK
  5
2DD
330
2BE
100
AcDbEntity
  8
0
 48
0.1
100
AcDbBlockEnd
  0
BLOCK
  5
2E0
330
2DE
100
AcDbEntity
  8
0
 62
     1
 48
0.1
100
AcDbBlockBegin
  2
vbfds fdgfdgf
 70
     0
 10
0.0
 20
0.0
 30
0.0
  3
vbfds fdgfdgf
  1

  0
INSERT
  5
2E1
330
2DE
100
AcDbEntity
  8
0
100
AcDbBlockReference
  2
bgf fd gfg
 10
-5304.202360424824
 20
-2855.612101662875
 30
0.0
  0
INSERT
  5
2E2
330
2DE
100
AcDbEntity
  8
0
100
AcDbBlockReference
  2
fg fdg fdgfg
 10
-5173.039382883485
 20
-2847.72688148891
 30
0.0
  0
INSERT
  5
2E3
330
2DE
100
AcDbEntity
  8
0
100
AcDbBlockReference
  2
vfd fdg dgfdgf
 10
-5229.865098727707
 20
-2872.626112466532
 30
0.0
  0
ENDBLK
  5
2E4
330
2DE
100
AcDbEntity
  8
0
 62
     1
 48
0.1
100
AcDbBlockEnd
  0
BLOCK
  5
2E8
330
2E5
100
AcDbEntity
  8
0
100
AcDbBlockBegin
  2
bfds gfds gf
 70
     0
 10
0.0
 20
0.0
 30
0.0
  3
bfds gfds gf
  1

  0
LWPOLYLINE
  5
2E9
330
2E5
100
AcDbEntity
  8
0
100
AcDbPolyline
 90
        7
 70
     0
 43
0.0
 10
141578.8365140884
 20
-148048.1957213334
 10
141578.8365140884
 20
-148034.1957213334
 42
-0.4142135623730951
 10
141579.8365140884
 20
-148033.1957213334
 10
141603.8365140884
 20
-148033.1957213334
 42
-0.4142135623730951
 10
141605.8365140884
 20
-148035.1957213334
 10
141605.8365140884
 20
-148050.1957213334
 10
141591.8365140884
 20
-148050.1957213334
  0
ARC
  5
2EA
330
2E5
100
AcDbEntity
  8
0
100
AcDbCircle
 10
141598.8365140884
 20
-148118.0339660921
 30
0.0
 40
67.34602411690869
100
AcDbArc
 50
65.89947158172456
 51
114.1005284182754
  0
ARC
  5
2EB
330
2E5
100
AcDbEntity
  8
0
100
AcDbCircle
 10
141598.8365140884
 20
-148118.0292692002
 30
0.0
 40
67.84132722497981
100
AcDbArc
 50
65.88069046170311
 51
114.1193095382968
  0
LINE
  5
2EC
330
2E5
100
AcDbEntity
  8
0
100
AcDbLine
 10
141626.3365140876
 20
-148056.558467197
 30
0.0
 11
141626.5590635192
 21
-148056.1107264791
 31
0.0
  0
LINE
  5
2ED
330
2E5
100
AcDbEntity
  8
0
100
AcDbLine
 10
141571.3365140891
 20
-148056.5584671971
 30
0.0
 11
141571.1139646575
 21
-148056.1107264791
 31
0.0
  0
LINE
  5
2EE
330
2E5
100
AcDbEntity
  8
0
100
AcDbLine
 10
141591.8365140884
 20
-148050.1957213334
 30
0.0
 11
141579.8365140884
 21
-148050.1957213334
 31
0.0
  0
LINE
  5
2EF
330
2E5
100
AcDbEntity
  8
0
100
AcDbLine
 10
141578.8365140884
 20
-148048.1957213334
 30
0.0
 11
141578.8365140884
 21
-148049.1957213334
 31
0.0
  0
ARC
  5
2F0
330
2E5
100
AcDbEntity
  8
0
100
AcDbCircle
 10
141579.8365140884
 20
-148049.1957213334
 30
0.0
 40
1.0
100
AcDbArc
 50
180.0000000008337
 51
270.0000000001282
  0
ENDBLK
  5
2F1
330
2E5
100
AcDbEntity
  8
0
100
AcDbBlockEnd
  0
BLOCK
  5
2F5
330
2F2
100
AcDbEntity
  8
0
100
AcDbBlockBegin
  2
bfs dgsdf gf
 70
     0
 10
0.0
 20
0.0
 30
0.0
  3
bfs dgsdf gf
  1

  0
ELLIPSE
  5
2F6
330
2F2
100
AcDbEntity
  8
0
100
AcDbEllipse
 10
141926.5310124794
 20
-148067.7498508518
 30
0.0
 11
-70.0
 21
0.0
 31
0.0
210
0.0
220
0.0
230
1.0
 40
0.7142857142857144
 41
4.877422823418068
 42
10.83054044453089
  0
ARC
  5
2F7
330
2F2
100
AcDbEntity
  8
0
100
AcDbCircle
 10
141926.5310124794
 20
-148286.708483943
 30
0.0
 40
268.5256379986745
100
AcDbArc
 50
87.54547442298513
 51
92.45452557701486
  0
ENDBLK
  5
2F8
330
2F2
100
AcDbEntity
  8
0
100
AcDbBlockEnd
  0
BLOCK
  5
406
330
405
100
AcDbEntity
  8
0
100
AcDbBlockBegin
  2
*D18
 70
     1
 10
0.0
 20
0.0
 30
0.0
  3
*D18
  1

  0
LINE
  5
6FE
330
405
100
AcDbEntity
  8
0
 62
     0
440
 16777216
370
    18
100
AcDbLine
 10
1902.230505902233
 20
1132.541446303306
 30
0.0
 11
2330.700492260063
 21
1132.541446303306
 31
0.0
  0
LINE
  5
6FF
330
405
100
AcDbEntity
  8
0
 62
     0
440
 16777216
370
    18
100
AcDbLine
 10
2782.230505902278
 20
1132.541446303306
 30
0.0
 11
2353.760519545192
 21
1132.541446303306
 31
0.0
  0
SOLID
  5
700
330
405
100
AcDbEntity
  8
0
 62
     0
440
 16777216
100
AcDbTrace
 10
1902.230505902233
 20
1134.208112969972
 30
0.0
 11
1902.230505902233
 21
1130.874779636639
 31
0.0
 12
1892.230505902233
 22
1132.541446303306
 32
0.0
 13
1892.230505902233
 23
1132.541446303306
 33
0.0
  0
SOLID
  5
701
330
405
100
AcDbEntity
  8
0
 62
     0
440
 16777216
100
AcDbTrace
 10
2782.230505902278
 20
1134.208112969972
 30
0.0
 11
2782.230505902278
 21
1130.874779636639
 31
0.0
 12
2792.230505902278
 22
1132.541446303306
 32
0.0
 13
2792.230505902278
 23
1132.541446303306
 33
0.0
  0
MTEXT
  5
702
330
405
100
AcDbEntity
  8
0
 62
     0
440
 16777216
100
AcDbMText
 10
2342.230505902628
 20
1132.541446303306
 30
0.0
 40
10.0
 41
0.0
 46
0.0
 71
     5
 72
     1
  1
900
 73
     1
 44
1.0
  0
POINT
  5
703
330
405
100
AcDbEntity
  8
Defpoints
 62
     0
440
 16777216
100
AcDbPoint
 10
1892.230505902233
 20
1320.290346589638
 30
0.0
  0
POINT
  5
704
330
405
100
AcDbEntity
  8
Defpoints
 62
     0
440
 16777216
100
AcDbPoint
 10
2792.230505902278
 20
1300.282567231505
 30
0.0
  0
POINT
  5
705
330
405
100
AcDbEntity
  8
Defpoints
 62
     0
440
 16777216
100
AcDbPoint
 10
2792.230505902278
 20
1132.541446303306
 30
0.0
  0
ENDBLK
  5
407
330
405
100
AcDbEntity
  8
0
100
AcDbBlockEnd
  0
BLOCK
  5
411
330
410
100
AcDbEntity
  8
0
100
AcDbBlockBegin
  2
*D19
 70
     1
 10
0.0
 20
0.0
 30
0.0
  3
*D19
  1

  0
LINE
  5
55C
330
410
100
AcDbEntity
  8
0
 62
     0
440
 16777216
370
    18
100
AcDbLine
 10
2662.230505902278
 20
1221.259086388073
 30
0.0
 11
2711.171160745389
 21
1221.259086388073
 31
0.0
  0
LINE
  5
55D
330
410
100
AcDbEntity
  8
0
 62
     0
440
 16777216
370
    18
100
AcDbLine
 10
2782.230505902278
 20
1221.259086388073
 30
0.0
 11
2733.289851059168
 21
1221.259086388073
 31
0.0
  0
SOLID
  5
55E
330
410
100
AcDbEntity
  8
0
 62
     0
440
 16777216
100
AcDbTrace
 10
2662.230505902278
 20
1222.92575305474
 30
0.0
 11
2662.230505902278
 21
1219.592419721406
 31
0.0
 12
2652.230505902279
 22
1221.259086388073
 32
0.0
 13
2652.230505902279
 23
1221.259086388073
 33
0.0
  0
SOLID
  5
55F
330
410
100
AcDbEntity
  8
0
 62
     0
440
 16777216
100
AcDbTrace
 10
2782.230505902278
 20
1222.92575305474
 30
0.0
 11
2782.230505902278
 21
1219.592419721406
 31
0.0
 12
2792.230505902278
 22
1221.259086388073
 32
0.0
 13
2792.230505902278
 23
1221.259086388073
 33
0.0
  0
MTEXT
  5
560
330
410
100
AcDbEntity
  8
0
 62
     0
440
 16777216
100
AcDbMText
 10
2722.230505902278
 20
1221.259086388073
 30
0.0
 40
10.0
 41
0.0
 46
0.0
 71
     5
 72
     1
  1
140
 73
     1
 44
1.0
  0
POINT
  5
561
330
410
100
AcDbEntity
  8
Defpoints
 62
     0
440
 16777216
100
AcDbPoint
 10
2652.230505902279
 20
1300.282567231505
 30
0.0
  0
POINT
  5
562
330
410
100
AcDbEntity
  8
Defpoints
 62
     0
440
 16777216
100
AcDbPoint
 10
2792.230505902278
 20
1300.282567231505
 30
0.0
  0
POINT
  5
563
330
410
100
AcDbEntity
  8
Defpoints
 62
     0
440
 16777216
100
AcDbPoint
 10
2792.230505902278
 20
1221.259086388073
 30
0.0
  0
ENDBLK
  5
412
330
410
100
AcDbEntity
  8
0
100
AcDbBlockEnd
  0
BLOCK
  5
427
330
426
100
AcDbEntity
  8
0
100
AcDbBlockBegin
  2
*D21
 70
     1
 10
0.0
 20
0.0
 30
0.0
  3
*D21
  1

  0
LINE
  5
585
330
426
100
AcDbEntity
  8
0
 62
     0
440
 16777216
370
    18
100
AcDbLine
 10
2821.126601093146
 20
1339.395933090794
 30
0.0
 11
2821.126601093146
 21
1304.998869717463
 31
0.0
  0
LINE
  5
586
330
426
100
AcDbEntity
  8
0
 62
     0
440
 16777216
370
    18
100
AcDbLine
 10
2821.126601093146
 20
1259.390346589641
 30
0.0
 11
2821.126601093146
 21
1293.787409963029
 31
0.0
  0
SOLID
  5
587
330
426
100
AcDbEntity
  8
0
 62
     0
440
 16777216
100
AcDbTrace
 10
2819.459934426479
 20
1339.395933090794
 30
0.0
 11
2822.793267759812
 21
1339.395933090794
 31
0.0
 12
2821.126601093146
 22
1349.395933090794
 32
0.0
 13
2821.126601093146
 23
1349.395933090794
 33
0.0
  0
SOLID
  5
588
330
426
100
AcDbEntity
  8
0
 62
     0
440
 16777216
100
AcDbTrace
 10
2819.459934426479
 20
1259.390346589641
 30
0.0
 11
2822.793267759812
 21
1259.390346589641
 31
0.0
 12
2821.126601093146
 22
1249.390346589641
 32
0.0
 13
2821.126601093146
 23
1249.390346589641
 33
0.0
  0
MTEXT
  5
589
330
426
100
AcDbEntity
  8
0
 62
     0
440
 16777216
100
AcDbMText
 10
2821.126601093145
 20
1299.393139840246
 30
0.0
 40
10.0
 41
0.0
 46
0.0
 71
     5
 72
     1
  1
100
 73
     1
 44
1.0
  0
POINT
  5
58A
330
426
100
AcDbEntity
  8
Defpoints
 62
     0
440
 16777216
100
AcDbPoint
 10
2723.279931933752
 20
1349.395933090794
 30
0.0
  0
POINT
  5
58B
330
426
100
AcDbEntity
  8
Defpoints
 62
     0
440
 16777216
100
AcDbPoint
 10
2722.230505902278
 20
1249.390346589641
 30
0.0
  0
POINT
  5
58C
330
426
100
AcDbEntity
  8
Defpoints
 62
     0
440
 16777216
100
AcDbPoint
 10
2821.126601093146
 20
1249.390346589641
 30
0.0
  0
ENDBLK
  5
428
330
426
100
AcDbEntity
  8
0
100
AcDbBlockEnd
  0
BLOCK
  5
43A
330
439
100
AcDbEntity
  8
0
100
AcDbBlockBegin
  2
*D22
 70
     1
 10
0.0
 20
0.0
 30
0.0
  3
*D22
  1

  0
LINE
  5
5D3
330
439
100
AcDbEntity
  8
0
 62
     0
440
 16777216
370
    18
100
AcDbLine
 10
2322.23050590222
 20
1470.551928968632
 30
0.0
 11
2299.882620499765
 21
1470.551928968632
 31
0.0
  0
LINE
  5
5D4
330
439
100
AcDbEntity
  8
0
 62
     0
440
 16777216
370
    18
100
AcDbLine
 10
2262.23050590222
 20
1470.551928968632
 30
0.0
 11
2284.578391304676
 21
1470.551928968632
 31
0.0
  0
SOLID
  5
5D5
330
439
100
AcDbEntity
  8
0
 62
     0
440
 16777216
100
AcDbTrace
 10
2322.23050590222
 20
1472.218595635298
 30
0.0
 11
2322.23050590222
 21
1468.885262301965
 31
0.0
 12
2332.23050590222
 22
1470.551928968632
 32
0.0
 13
2332.23050590222
 23
1470.551928968632
 33
0.0
  0
SOLID
  5
5D6
330
439
100
AcDbEntity
  8
0
 62
     0
440
 16777216
100
AcDbTrace
 10
2262.23050590222
 20
1472.218595635298
 30
0.0
 11
2262.23050590222
 21
1468.885262301965
 31
0.0
 12
2252.23050590222
 22
1470.551928968632
 32
0.0
 13
2252.23050590222
 23
1470.551928968632
 33
0.0
  0
MTEXT
  5
5D7
330
439
100
AcDbEntity
  8
0
 62
     0
440
 16777216
100
AcDbMText
 10
2292.23050590222
 20
1470.551928968632
 30
0.0
 40
10.0
 41
0.0
 46
0.0
 71
     5
 72
     1
  1
80
 73
     1
 44
1.0
  0
POINT
  5
5D8
330
439
100
AcDbEntity
  8
Defpoints
 62
     0
440
 16777216
100
AcDbPoint
 10
2332.23050590222
 20
1436.762024545108
 30
0.0
  0
POINT
  5
5D9
330
439
100
AcDbEntity
  8
Defpoints
 62
     0
440
 16777216
100
AcDbPoint
 10
2252.23050590222
 20
1436.762024545108
 30
0.0
  0
POINT
  5
5DA
330
439
100
AcDbEntity
  8
Defpoints
 62
     0
440
 16777216
100
AcDbPoint
 10
2252.23050590222
 20
1470.551928968632
 30
0.0
  0
ENDBLK
  5
43B
330
439
100
AcDbEntity
  8
0
100
AcDbBlockEnd
  0
BLOCK
  5
445
330
444
100
AcDbEntity
  8
0
100
AcDbBlockBegin
  2
*D23
 70
     1
 10
0.0
 20
0.0
 30
0.0
  3
*D23
  1

  0
LINE
  5
5CB
330
444
100
AcDbEntity
  8
0
 62
     0
440
 16777216
370
    18
100
AcDbLine
 10
2394.319459834788
 20
1426.762024545108
 30
0.0
 11
2394.319459834788
 21
1390.714563745741
 31
0.0
  0
LINE
  5
5CC
330
444
100
AcDbEntity
  8
0
 62
     0
440
 16777216
370
    18
100
AcDbLine
 10
2394.319459834788
 20
1338.762024545108
 30
0.0
 11
2394.319459834788
 21
1379.503103991308
 31
0.0
  0
SOLID
  5
5CD
330
444
100
AcDbEntity
  8
0
 62
     0
440
 16777216
100
AcDbTrace
 10
2392.652793168122
 20
1426.762024545108
 30
0.0
 11
2395.986126501455
 21
1426.762024545108
 31
0.0
 12
2394.319459834788
 22
1436.762024545108
 32
0.0
 13
2394.319459834788
 23
1436.762024545108
 33
0.0
  0
SOLID
  5
5CE
330
444
100
AcDbEntity
  8
0
 62
     0
440
 16777216
100
AcDbTrace
 10
2392.652793168122
 20
1338.762024545108
 30
0.0
 11
2395.986126501455
 21
1338.762024545108
 31
0.0
 12
2394.319459834788
 22
1328.762024545108
 32
0.0
 13
2394.319459834788
 23
1328.762024545108
 33
0.0
  0
MTEXT
  5
5CF
330
444
100
AcDbEntity
  8
0
 62
     0
440
 16777216
100
AcDbMText
 10
2394.319459834788
 20
1385.108833868525
 30
0.0
 40
10.0
 41
0.0
 46
0.0
 71
     5
 72
     1
  1
108
 73
     1
 44
1.0
  0
POINT
  5
5D0
330
444
100
AcDbEntity
  8
Defpoints
 62
     0
440
 16777216
100
AcDbPoint
 10
2332.23050590222
 20
1436.762024545108
 30
0.0
  0
POINT
  5
5D1
330
444
100
AcDbEntity
  8
Defpoints
 62
     0
440
 16777216
100
AcDbPoint
 10
2332.23050590222
 20
1328.762024545108
 30
0.0
  0
POINT
  5
5D2
330
444
100
AcDbEntity
  8
Defpoints
 62
     0
440
 16777216
100
AcDbPoint
 10
2394.319459834788
 20
1328.762024545108
 30
0.0
  0
ENDBLK
  5
446
330
444
100
AcDbEntity
  8
0
100
AcDbBlockEnd
  0
BLOCK
  5
458
330
457
100
AcDbEntity
  8
0
100
AcDbBlockBegin
  2
*D24
 70
     1
 10
0.0
 20
0.0
 30
0.0
  3
*D24
  1

  0
LINE
  5
564
330
457
100
AcDbEntity
  8
0
 62
     0
440
 16777216
370
    18
100
AcDbLine
 10
2354.469727495469
 20
1376.762024545108
 30
0.0
 11
2354.469727495469
 21
1396.156294667891
 31
0.0
  0
LINE
  5
565
330
457
100
AcDbEntity
  8
0
 62
     0
440
 16777216
370
    18
100
AcDbLine
 10
2354.469727495469
 20
1426.762024545108
 30
0.0
 11
2354.469727495469
 21
1407.367754422325
 31
0.0
  0
SOLID
  5
566
330
457
100
AcDbEntity
  8
0
 62
     0
440
 16777216
100
AcDbTrace
 10
2352.803060828803
 20
1376.762024545108
 30
0.0
 11
2356.136394162135
 21
1376.762024545108
 31
0.0
 12
2354.469727495469
 22
1366.762024545108
 32
0.0
 13
2354.469727495469
 23
1366.762024545108
 33
0.0
  0
SOLID
  5
567
330
457
100
AcDbEntity
  8
0
 62
     0
440
 16777216
100
AcDbTrace
 10
2352.803060828803
 20
1426.762024545108
 30
0.0
 11
2356.136394162135
 21
1426.762024545108
 31
0.0
 12
2354.469727495469
 22
1436.762024545108
 32
0.0
 13
2354.469727495469
 23
1436.762024545108
 33
0.0
  0
MTEXT
  5
568
330
457
100
AcDbEntity
  8
0
 62
     0
440
 16777216
100
AcDbMText
 10
2354.469727495468
 20
1401.762024545108
 30
0.0
 40
10.0
 41
0.0
 46
0.0
 71
     5
 72
     1
  1
70
 73
     1
 44
1.0
  0
POINT
  5
569
330
457
100
AcDbEntity
  8
Defpoints
 62
     0
440
 16777216
100
AcDbPoint
 10
2332.23050590222
 20
1366.762024545108
 30
0.0
  0
POINT
  5
56A
330
457
100
AcDbEntity
  8
Defpoints
 62
     0
440
 16777216
100
AcDbPoint
 10
2332.23050590222
 20
1436.762024545108
 30
0.0
  0
POINT
  5
56B
330
457
100
AcDbEntity
  8
Defpoints
 62
     0
440
 16777216
100
AcDbPoint
 10
2354.469727495469
 20
1436.762024545108
 30
0.0
  0
ENDBLK
  5
459
330
457
100
AcDbEntity
  8
0
100
AcDbBlockEnd
  0
BLOCK
  5
463
330
462
100
AcDbEntity
  8
0
100
AcDbBlockBegin
  2
*D25
 70
     1
 10
0.0
 20
0.0
 30
0.0
  3
*D25
  1

  0
LINE
  5
56C
330
462
100
AcDbEntity
  8
0
 62
     0
440
 16777216
370
    18
100
AcDbLine
 10
2624.375711393802
 20
1346.762024545108
 30
0.0
 11
2624.375711393802
 21
1336.762024545108
 31
0.0
  0
LINE
  5
56D
330
462
100
AcDbEntity
  8
0
 62
     0
440
 16777216
370
    18
100
AcDbLine
 10
2624.375711393802
 20
1376.762024545108
 30
0.0
 11
2624.375711393802
 21
1386.762024545108
 31
0.0
  0
LINE
  5
56E
330
462
100
AcDbEntity
  8
0
 62
     0
440
 16777216
370
    18
100
AcDbLine
 10
2624.375711393802
 20
1386.762024545108
 30
0.0
 11
2634.375711393802
 21
1386.762024545108
 31
0.0
  0
SOLID
  5
56F
330
462
100
AcDbEntity
  8
0
 62
     0
440
 16777216
100
AcDbTrace
 10
2622.709044727136
 20
1346.762024545108
 30
0.0
 11
2626.042378060468
 21
1346.762024545108
 31
0.0
 12
2624.375711393802
 22
1356.762024545108
 32
0.0
 13
2624.375711393802
 23
1356.762024545108
 33
0.0
  0
SOLID
  5
570
330
462
100
AcDbEntity
  8
0
 62
     0
440
 16777216
100
AcDbTrace
 10
2622.709044727136
 20
1376.762024545108
 30
0.0
 11
2626.042378060468
 21
1376.762024545108
 31
0.0
 12
2624.375711393802
 22
1366.762024545108
 32
0.0
 13
2624.375711393802
 23
1366.762024545108
 33
0.0
  0
MTEXT
  5
571
330
462
100
AcDbEntity
  8
0
 62
     0
440
 16777216
100
AcDbMText
 10
2641.55033622327
 20
1386.762024545108
 30
0.0
 40
10.0
 41
0.0
 46
0.0
 71
     5
 72
     1
  1
10
 73
     1
 44
1.0
  0
POINT
  5
572
330
462
100
AcDbEntity
  8
Defpoints
 62
     0
440
 16777216
100
AcDbPoint
 10
2622.622173190988
 20
1356.762024545108
 30
0.0
  0
POINT
  5
573
330
462
100
AcDbEntity
  8
Defpoints
 62
     0
440
 16777216
100
AcDbPoint
 10
2622.622173190988
 20
1366.762024545108
 30
0.0
  0
POINT
  5
574
330
462
100
AcDbEntity
  8
Defpoints
 62
     0
440
 16777216
100
AcDbPoint
 10
2624.375711393802
 20
1366.762024545108
 30
0.0
  0
ENDBLK
  5
464
330
462
100
AcDbEntity
  8
0
100
AcDbBlockEnd
  0
BLOCK
  5
5A7
330
5A6
100
AcDbEntity
  8
0
100
AcDbBlockBegin
  2
*D32
 70
     1
 10
0.0
 20
0.0
 30
0.0
  3
*D32
  1

  0
LINE
  5
5B2
330
5A6
100
AcDbEntity
  8
0
 62
     0
440
 16777216
370
    18
100
AcDbLine
 10
2235.570995089943
 20
1366.762024545137
 30
0.0
 11
2235.570995089943
 21
1357.367754422339
 31
0.0
  0
LINE
  5
5B3
330
5A6
100
AcDbEntity
  8
0
 62
     0
440
 16777216
370
    18
100
AcDbLine
 10
2235.570995089943
 20
1336.762024545108
 30
0.0
 11
2235.570995089943
 21
1346.156294667905
 31
0.0
  0
SOLID
  5
5B4
330
5A6
100
AcDbEntity
  8
0
 62
     0
440
 16777216
100
AcDbTrace
 10
2233.904328423277
 20
1366.762024545137
 30
0.0
 11
2237.23766175661
 21
1366.762024545137
 31
0.0
 12
2235.570995089943
 22
1376.762024545137
 32
0.0
 13
2235.570995089943
 23
1376.762024545137
 33
0.0
  0
SOLID
  5
5B5
330
5A6
100
AcDbEntity
  8
0
 62
     0
440
 16777216
100
AcDbTrace
 10
2233.904328423277
 20
1336.762024545108
 30
0.0
 11
2237.23766175661
 21
1336.762024545108
 31
0.0
 12
2235.570995089943
 22
1326.762024545108
 32
0.0
 13
2235.570995089943
 23
1326.762024545108
 33
0.0
  0
MTEXT
  5
5B6
330
5A6
100
AcDbEntity
  8
0
 62
     0
440
 16777216
100
AcDbMText
 10
2235.570995089943
 20
1351.762024545123
 30
0.0
 40
10.0
 41
0.0
 46
0.0
 71
     5
 72
     1
  1
50
 73
     1
 44
1.0
  0
POINT
  5
5B7
330
5A6
100
AcDbEntity
  8
Defpoints
 62
     0
440
 16777216
100
AcDbPoint
 10
2252.23050590222
 20
1376.762024545137
 30
0.0
  0
POINT
  5
5B8
330
5A6
100
AcDbEntity
  8
Defpoints
 62
     0
440
 16777216
100
AcDbPoint
 10
2254.23050590222
 20
1326.762024545108
 30
0.0
  0
POINT
  5
5B9
330
5A6
100
AcDbEntity
  8
Defpoints
 62
     0
440
 16777216
100
AcDbPoint
 10
2235.570995089943
 20
1326.762024545108
 30
0.0
  0
ENDBLK
  5
5A8
330
5A6
100
AcDbEntity
  8
0
100
AcDbBlockEnd
  0
BLOCK
  5
5DD
330
5DC
100
AcDbEntity
  8
0
100
AcDbBlockBegin
  2
*D33
 70
     1
 10
0.0
 20
0.0
 30
0.0
  3
*D33
  1

  0
LINE
  5
607
330
5DC
100
AcDbEntity
  8
0
 62
     0
440
 16777216
370
    18
100
AcDbLine
 10
2242.23050590222
 20
1186.492107774203
 30
0.0
 11
2115.362838780822
 21
1186.492107774203
 31
0.0
  0
LINE
  5
608
330
5DC
100
AcDbEntity
  8
0
 62
     0
440
 16777216
370
    18
100
AcDbLine
 10
1965.230505902262
 20
1186.492107774203
 30
0.0
 11
2092.09817302366
 21
1186.492107774203
 31
0.0
  0
SOLID
  5
609
330
5DC
100
AcDbEntity
  8
0
 62
     0
440
 16777216
100
AcDbTrace
 10
2242.23050590222
 20
1188.158774440869
 30
0.0
 11
2242.23050590222
 21
1184.825441107536
 31
0.0
 12
2252.23050590222
 22
1186.492107774203
 32
0.0
 13
2252.23050590222
 23
1186.492107774203
 33
0.0
  0
SOLID
  5
60A
330
5DC
100
AcDbEntity
  8
0
 62
     0
440
 16777216
100
AcDbTrace
 10
1965.230505902262
 20
1188.158774440869
 30
0.0
 11
1965.230505902262
 21
1184.825441107536
 31
0.0
 12
1955.230505902262
 22
1186.492107774203
 32
0.0
 13
1955.230505902262
 23
1186.492107774203
 33
0.0
  0
MTEXT
  5
60B
330
5DC
100
AcDbEntity
  8
0
 62
     0
440
 16777216
100
AcDbMText
 10
2103.730505902241
 20
1186.492107774203
 30
0.0
 40
10.0
 41
0.0
 46
0.0
 71
     5
 72
     1
  1
297
 73
     1
 44
1.0
  0
POINT
  5
60C
330
5DC
100
AcDbEntity
  8
Defpoints
 62
     0
440
 16777216
100
AcDbPoint
 10
2252.23050590222
 20
1386.762024545137
 30
0.0
  0
POINT
  5
60D
330
5DC
100
AcDbEntity
  8
Defpoints
 62
     0
440
 16777216
100
AcDbPoint
 10
1955.230505902262
 20
1380.262024545111
 30
0.0
  0
POINT
  5
60E
330
5DC
100
AcDbEntity
  8
Defpoints
 62
     0
440
 16777216
100
AcDbPoint
 10
1955.230505902262
 20
1186.492107774203
 30
0.0
  0
ENDBLK
  5
5DE
330
5DC
100
AcDbEntity
  8
0
100
AcDbBlockEnd
  0
BLOCK
  5
5F3
330
5F2
100
AcDbEntity
  8
0
100
AcDbBlockBegin
  2
*D34
 70
     1
 10
0.0
 20
0.0
 30
0.0
  3
*D34
  1

  0
LINE
  5
5FE
330
5F2
100
AcDbEntity
  8
0
 62
     0
440
 16777216
370
    18
100
AcDbLine
 10
2342.230505902191
 20
1186.492107774203
 30
0.0
 11
2519.186849694853
 21
1186.492107774203
 31
0.0
  0
LINE
  5
5FF
330
5F2
100
AcDbEntity
  8
0
 62
     0
440
 16777216
370
    18
100
AcDbLine
 10
2719.230505902249
 20
1186.492107774203
 30
0.0
 11
2542.274162109587
 21
1186.492107774203
 31
0.0
  0
SOLID
  5
600
330
5F2
100
AcDbEntity
  8
0
 62
     0
440
 16777216
100
AcDbTrace
 10
2342.230505902191
 20
1188.158774440869
 30
0.0
 11
2342.230505902191
 21
1184.825441107536
 31
0.0
 12
2332.230505902191
 22
1186.492107774203
 32
0.0
 13
2332.230505902191
 23
1186.492107774203
 33
0.0
  0
SOLID
  5
601
330
5F2
100
AcDbEntity
  8
0
 62
     0
440
 16777216
100
AcDbTrace
 10
2719.230505902249
 20
1188.158774440869
 30
0.0
 11
2719.230505902249
 21
1184.825441107536
 31
0.0
 12
2729.230505902249
 22
1186.492107774203
 32
0.0
 13
2729.230505902249
 23
1186.492107774203
 33
0.0
  0
MTEXT
  5
602
330
5F2
100
AcDbEntity
  8
0
 62
     0
440
 16777216
100
AcDbMText
 10
2530.73050590222
 20
1186.492107774203
 30
0.0
 40
10.0
 41
0.0
 46
0.0
 71
     5
 72
     1
  1
397
 73
     1
 44
1.0
  0
POINT
  5
603
330
5F2
100
AcDbEntity
  8
Defpoints
 62
     0
440
 16777216
100
AcDbPoint
 10
2332.230505902191
 20
1356.762024545108
 30
0.0
  0
POINT
  5
604
330
5F2
100
AcDbEntity
  8
Defpoints
 62
     0
440
 16777216
100
AcDbPoint
 10
2729.230505902249
 20
1360.262024545108
 30
0.0
  0
POINT
  5
605
330
5F2
100
AcDbEntity
  8
Defpoints
 62
     0
440
 16777216
100
AcDbPoint
 10
2729.230505902249
 20
1186.492107774203
 30
0.0
  0
ENDBLK
  5
5F4
330
5F2
100
AcDbEntity
  8
0
100
AcDbBlockEnd
  0
BLOCK
  5
610
330
60F
100
AcDbEntity
  8
0
100
AcDbBlockBegin
  2
*D35
 70
     1
 10
0.0
 20
0.0
 30
0.0
  3
*D35
  1

  0
LINE
  5
611
330
60F
100
AcDbEntity
  8
0
 62
     0
440
 16777216
370
    18
100
AcDbLine
 10
153016.4233343279
 20
-151502.3629772809
 30
0.0
 11
153433.8633070424
 21
-151502.3629772809
 31
0.0
  0
LINE
  5
612
330
60F
100
AcDbEntity
  8
0
 62
     0
440
 16777216
370
    18
100
AcDbLine
 10
153896.4233343272
 20
-151502.3629772809
 30
0.0
 11
153478.9833616127
 21
-151502.3629772809
 31
0.0
  0
SOLID
  5
613
330
60F
100
AcDbEntity
  8
0
 62
     0
440
 16777216
100
AcDbTrace
 10
153016.4233343279
 20
-151500.6963106143
 30
0.0
 11
153016.4233343279
 21
-151504.0296439476
 31
0.0
 12
153006.4233343279
 22
-151502.3629772809
 32
0.0
 13
153006.4233343279
 23
-151502.3629772809
 33
0.0
  0
SOLID
  5
614
330
60F
100
AcDbEntity
  8
0
 62
     0
440
 16777216
100
AcDbTrace
 10
153896.4233343272
 20
-151500.6963106143
 30
0.0
 11
153896.4233343272
 21
-151504.0296439476
 31
0.0
 12
153906.4233343272
 22
-151502.3629772809
 32
0.0
 13
153906.4233343272
 23
-151502.3629772809
 33
0.0
  0
MTEXT
  5
615
330
60F
100
AcDbEntity
  8
0
 62
     0
440
 16777216
100
AcDbMText
 10
153456.4233343276
 20
-151502.3629772809
 30
0.0
 40
20.0
 41
0.0
 46
0.0
 71
     5
 72
     1
  1
900
 73
     1
 44
1.0
  0
POINT
  5
616
330
60F
100
AcDbEntity
  8
Defpoints
 62
     0
440
 16777216
100
AcDbPoint
 10
153006.4233343279
 20
-151334.6218563527
 30
0.0
  0
POINT
  5
617
330
60F
100
AcDbEntity
  8
Defpoints
 62
     0
440
 16777216
100
AcDbPoint
 10
153906.4233343272
 20
-151334.6218563527
 30
0.0
  0
POINT
  5
618
330
60F
100
AcDbEntity
  8
Defpoints
 62
     0
440
 16777216
100
AcDbPoint
 10
153906.4233343272
 20
-151502.3629772809
 30
0.0
  0
ENDBLK
  5
619
330
60F
100
AcDbEntity
  8
0
100
AcDbBlockEnd
  0
BLOCK
  5
61B
330
61A
100
AcDbEntity
  8
0
100
AcDbBlockBegin
  2
*D36
 70
     1
 10
0.0
 20
0.0
 30
0.0
  3
*D36
  1

  0
LINE
  5
61C
330
61A
100
AcDbEntity
  8
0
 62
     0
440
 16777216
370
    18
100
AcDbLine
 10
153776.4233343272
 20
-151413.6453371962
 30
0.0
 11
153814.8046440135
 21
-151413.6453371962
 31
0.0
  0
LINE
  5
61D
330
61A
100
AcDbEntity
  8
0
 62
     0
440
 16777216
370
    18
100
AcDbLine
 10
153896.4233343272
 20
-151413.6453371962
 30
0.0
 11
153858.042024641
 21
-151413.6453371962
 31
0.0
  0
SOLID
  5
61E
330
61A
100
AcDbEntity
  8
0
 62
     0
440
 16777216
100
AcDbTrace
 10
153776.4233343272
 20
-151411.9786705295
 30
0.0
 11
153776.4233343272
 21
-151415.3120038628
 31
0.0
 12
153766.4233343272
 22
-151413.6453371962
 32
0.0
 13
153766.4233343272
 23
-151413.6453371962
 33
0.0
  0
SOLID
  5
61F
330
61A
100
AcDbEntity
  8
0
 62
     0
440
 16777216
100
AcDbTrace
 10
153896.4233343272
 20
-151411.9786705295
 30
0.0
 11
153896.4233343272
 21
-151415.3120038628
 31
0.0
 12
153906.4233343272
 22
-151413.6453371962
 32
0.0
 13
153906.4233343272
 23
-151413.6453371962
 33
0.0
  0
MTEXT
  5
620
330
61A
100
AcDbEntity
  8
0
 62
     0
440
 16777216
100
AcDbMText
 10
153836.4233343272
 20
-151413.6453371962
 30
0.0
 40
20.0
 41
0.0
 46
0.0
 71
     5
 72
     1
  1
140
 73
     1
 44
1.0
  0
POINT
  5
621
330
61A
100
AcDbEntity
  8
Defpoints
 62
     0
440
 16777216
100
AcDbPoint
 10
153766.4233343272
 20
-151334.6218563527
 30
0.0
  0
POINT
  5
622
330
61A
100
AcDbEntity
  8
Defpoints
 62
     0
440
 16777216
100
AcDbPoint
 10
153906.4233343272
 20
-151334.6218563527
 30
0.0
  0
POINT
  5
623
330
61A
100
AcDbEntity
  8
Defpoints
 62
     0
440
 16777216
100
AcDbPoint
 10
153906.4233343272
 20
-151413.6453371962
 30
0.0
  0
ENDBLK
  5
624
330
61A
100
AcDbEntity
  8
0
100
AcDbBlockEnd
  0
BLOCK
  5
626
330
625
100
AcDbEntity
  8
0
100
AcDbBlockBegin
  2
*D37
 70
     1
 10
0.0
 20
0.0
 30
0.0
  3
*D37
  1

  0
LINE
  5
627
330
625
100
AcDbEntity
  8
0
 62
     0
440
 16777216
370
    18
100
AcDbLine
 10
153396.4233343272
 20
-151443.3809237552
 30
0.0
 11
153229.3858172743
 21
-151443.3809237552
 31
0.0
  0
LINE
  5
628
330
625
100
AcDbEntity
  8
0
 62
     0
440
 16777216
370
    18
100
AcDbLine
 10
153016.4233343279
 20
-151443.3809237552
 30
0.0
 11
153183.4608513807
 21
-151443.3809237552
 31
0.0
  0
SOLID
  5
629
330
625
100
AcDbEntity
  8
0
 62
     0
440
 16777216
100
AcDbTrace
 10
153396.4233343272
 20
-151441.7142570885
 30
0.0
 11
153396.4233343272
 21
-151445.0475904218
 31
0.0
 12
153406.4233343272
 22
-151443.3809237552
 32
0.0
 13
153406.4233343272
 23
-151443.3809237552
 33
0.0
  0
SOLID
  5
62A
330
625
100
AcDbEntity
  8
0
 62
     0
440
 16777216
100
AcDbTrace
 10
153016.4233343279
 20
-151441.7142570885
 30
0.0
 11
153016.4233343279
 21
-151445.0475904218
 31
0.0
 12
153006.4233343279
 22
-151443.3809237552
 32
0.0
 13
153006.4233343279
 23
-151443.3809237552
 33
0.0
  0
MTEXT
  5
62B
330
625
100
AcDbEntity
  8
0
 62
     0
440
 16777216
100
AcDbMText
 10
153206.4233343275
 20
-151443.3809237552
 30
0.0
 40
20.0
 41
0.0
 46
0.0
 71
     5
 72
     1
  1
400
 73
     1
 44
1.0
  0
POINT
  5
62C
330
625
100
AcDbEntity
  8
Defpoints
 62
     0
440
 16777216
100
AcDbPoint
 10
153406.4233343272
 20
-151308.1423990391
 30
0.0
  0
POINT
  5
62D
330
625
100
AcDbEntity
  8
Defpoints
 62
     0
440
 16777216
100
AcDbPoint
 10
153006.4233343279
 20
-151334.6218563527
 30
0.0
  0
POINT
  5
62E
330
625
100
AcDbEntity
  8
Defpoints
 62
     0
440
 16777216
100
AcDbPoint
 10
153006.4233343279
 20
-151443.3809237552
 30
0.0
  0
ENDBLK
  5
62F
330
625
100
AcDbEntity
  8
0
100
AcDbBlockEnd
  0
BLOCK
  5
631
330
630
100
AcDbEntity
  8
0
100
AcDbBlockBegin
  2
*D38
 70
     1
 10
0.0
 20
0.0
 30
0.0
  3
*D38
  1

  0
LINE
  5
632
330
630
100
AcDbEntity
  8
0
 62
     0
440
 16777216
370
    18
100
AcDbLine
 10
153988.0521110363
 20
-151295.5084904934
 30
0.0
 11
153988.0521110363
 21
-151313.8925934303
 31
0.0
  0
LINE
  5
633
330
630
100
AcDbEntity
  8
0
 62
     0
440
 16777216
370
    18
100
AcDbLine
 10
153988.0521110363
 20
-151375.5140769946
 30
0.0
 11
153988.0521110363
 21
-151357.1299740578
 31
0.0
  0
SOLID
  5
634
330
630
100
AcDbEntity
  8
0
 62
     0
440
 16777216
100
AcDbTrace
 10
153986.3854443697
 20
-151295.5084904934
 30
0.0
 11
153989.718777703
 21
-151295.5084904934
 31
0.0
 12
153988.0521110363
 22
-151285.5084904934
 32
0.0
 13
153988.0521110363
 23
-151285.5084904934
 33
0.0
  0
SOLID
  5
635
330
630
100
AcDbEntity
  8
0
 62
     0
440
 16777216
100
AcDbTrace
 10
153986.3854443697
 20
-151375.5140769946
 30
0.0
 11
153989.718777703
 21
-151375.5140769946
 31
0.0
 12
153988.0521110363
 22
-151385.5140769946
 32
0.0
 13
153988.0521110363
 23
-151385.5140769946
 33
0.0
  0
MTEXT
  5
636
330
630
100
AcDbEntity
  8
0
 62
     0
440
 16777216
100
AcDbMText
 10
153988.0521110364
 20
-151335.511283744
 30
0.0
 40
20.0
 41
0.0
 46
0.0
 71
     5
 72
     1
  1
100
 11
0.0000000000000001
 21
1.0
 31
0.0
 73
     1
 44
1.0
  0
POINT
  5
637
330
630
100
AcDbEntity
  8
Defpoints
 62
     0
440
 16777216
100
AcDbPoint
 10
153837.4727603587
 20
-151285.5084904934
 30
0.0
  0
POINT
  5
638
330
630
100
AcDbEntity
  8
Defpoints
 62
     0
440
 16777216
100
AcDbPoint
 10
153836.4233343272
 20
-151385.5140769946
 30
0.0
  0
POINT
  5
639
330
630
100
AcDbEntity
  8
Defpoints
 62
     0
440
 16777216
100
AcDbPoint
 10
153988.0521110363
 20
-151385.5140769946
 30
0.0
  0
ENDBLK
  5
63A
330
630
100
AcDbEntity
  8
0
100
AcDbBlockEnd
  0
BLOCK
  5
63C
330
63B
100
AcDbEntity
  8
0
100
AcDbBlockBegin
  2
*D39
 70
     1
 10
0.0
 20
0.0
 30
0.0
  3
*D39
  1

  0
LINE
  5
63D
330
63B
100
AcDbEntity
  8
0
 62
     0
440
 16777216
370
    18
100
AcDbLine
 10
153436.4233343272
 20
-151164.3524946156
 30
0.0
 11
153421.2275635223
 21
-151164.3524946156
 31
0.0
  0
LINE
  5
63E
330
63B
100
AcDbEntity
  8
0
 62
     0
440
 16777216
370
    18
100
AcDbLine
 10
153376.4233343272
 20
-151164.3524946156
 30
0.0
 11
153391.6191051321
 21
-151164.3524946156
 31
0.0
  0
SOLID
  5
63F
330
63B
100
AcDbEntity
  8
0
 62
     0
440
 16777216
100
AcDbTrace
 10
153436.4233343272
 20
-151162.685827949
 30
0.0
 11
153436.4233343272
 21
-151166.0191612823
 31
0.0
 12
153446.4233343272
 22
-151164.3524946156
 32
0.0
 13
153446.4233343272
 23
-151164.3524946156
 33
0.0
  0
SOLID
  5
640
330
63B
100
AcDbEntity
  8
0
 62
     0
440
 16777216
100
AcDbTrace
 10
153376.4233343272
 20
-151162.685827949
 30
0.0
 11
153376.4233343272
 21
-151166.0191612823
 31
0.0
 12
153366.4233343272
 22
-151164.3524946156
 32
0.0
 13
153366.4233343272
 23
-151164.3524946156
 33
0.0
  0
MTEXT
  5
641
330
63B
100
AcDbEntity
  8
0
 62
     0
440
 16777216
100
AcDbMText
 10
153406.4233343272
 20
-151164.3524946156
 30
0.0
 40
20.0
 41
0.0
 46
0.0
 71
     5
 72
     1
  1
80
 73
     1
 44
1.0
  0
POINT
  5
642
330
63B
100
AcDbEntity
  8
Defpoints
 62
     0
440
 16777216
100
AcDbPoint
 10
153446.4233343272
 20
-151198.1423990391
 30
0.0
  0
POINT
  5
643
330
63B
100
AcDbEntity
  8
Defpoints
 62
     0
440
 16777216
100
AcDbPoint
 10
153366.4233343272
 20
-151198.1423990391
 30
0.0
  0
POINT
  5
644
330
63B
100
AcDbEntity
  8
Defpoints
 62
     0
440
 16777216
100
AcDbPoint
 10
153366.4233343272
 20
-151164.3524946156
 30
0.0
  0
ENDBLK
  5
645
330
63B
100
AcDbEntity
  8
0
100
AcDbBlockEnd
  0
BLOCK
  5
647
330
646
100
AcDbEntity
  8
0
100
AcDbBlockBegin
  2
*D40
 70
     1
 10
0.0
 20
0.0
 30
0.0
  3
*D40
  1

  0
LINE
  5
648
330
646
100
AcDbEntity
  8
0
 62
     0
440
 16777216
370
    18
100
AcDbLine
 10
153505.7837724389
 20
-151296.1423990391
 30
0.0
 11
153505.7837724389
 21
-151208.1423990391
 31
0.0
  0
LINE
  5
649
330
646
100
AcDbEntity
  8
0
 62
     0
440
 16777216
370
    18
100
AcDbLine
 10
153505.7837724389
 20
-151198.1423990391
 30
0.0
 11
153505.7837724389
 21
-151188.0878287799
 31
0.0
  0
SOLID
  5
64A
330
646
100
AcDbEntity
  8
0
 62
     0
440
 16777216
100
AcDbTrace
 10
153504.1171057723
 20
-151296.1423990391
 30
0.0
 11
153507.4504391056
 21
-151296.1423990391
 31
0.0
 12
153505.7837724389
 22
-151306.1423990391
 32
0.0
 13
153505.7837724389
 23
-151306.1423990391
 33
0.0
  0
SOLID
  5
64B
330
646
100
AcDbEntity
  8
0
 62
     0
440
 16777216
100
AcDbTrace
 10
153504.1171057723
 20
-151208.1423990391
 30
0.0
 11
153507.4504391056
 21
-151208.1423990391
 31
0.0
 12
153505.7837724389
 22
-151198.1423990391
 32
0.0
 13
153505.7837724389
 23
-151198.1423990391
 33
0.0
  0
MTEXT
  5
64C
330
646
100
AcDbEntity
  8
0
 62
     0
440
 16777216
100
AcDbMText
 10
153505.7837724389
 20
-151166.4145682069
 30
0.0
 40
20.0
 41
0.0
 46
0.0
 71
     5
 72
     1
  1
108
 11
0.0000000000000001
 21
1.0
 31
0.0
 73
     1
 44
1.0
  0
POINT
  5
64D
330
646
100
AcDbEntity
  8
Defpoints
 62
     0
440
 16777216
100
AcDbPoint
 10
153446.4233343272
 20
-151198.1423990391
 30
0.0
  0
POINT
  5
64E
330
646
100
AcDbEntity
  8
Defpoints
 62
     0
440
 16777216
100
AcDbPoint
 10
153446.4233343272
 20
-151306.1423990391
 30
0.0
  0
POINT
  5
64F
330
646
100
AcDbEntity
  8
Defpoints
 62
     0
440
 16777216
100
AcDbPoint
 10
153505.7837724389
 20
-151306.1423990391
 30
0.0
  0
ENDBLK
  5
650
330
646
100
AcDbEntity
  8
0
100
AcDbBlockEnd
  0
BLOCK
  5
652
330
651
100
AcDbEntity
  8
0
100
AcDbBlockBegin
  2
*D41
 70
     1
 10
0.0
 20
0.0
 30
0.0
  3
*D41
  1

  0
LINE
  5
653
330
651
100
AcDbEntity
  8
0
 62
     0
440
 16777216
370
    18
100
AcDbLine
 10
153468.6625559204
 20
-151258.1423990391
 30
0.0
 11
153468.6625559204
 21
-151247.8511302806
 31
0.0
  0
LINE
  5
654
330
651
100
AcDbEntity
  8
0
 62
     0
440
 16777216
370
    18
100
AcDbLine
 10
153468.6625559204
 20
-151208.1423990391
 30
0.0
 11
153468.6625559204
 21
-151218.4336677977
 31
0.0
  0
SOLID
  5
655
330
651
100
AcDbEntity
  8
0
 62
     0
440
 16777216
100
AcDbTrace
 10
153466.9958892538
 20
-151258.1423990391
 30
0.0
 11
153470.3292225871
 21
-151258.1423990391
 31
0.0
 12
153468.6625559204
 22
-151268.1423990391
 32
0.0
 13
153468.6625559204
 23
-151268.1423990391
 33
0.0
  0
SOLID
  5
656
330
651
100
AcDbEntity
  8
0
 62
     0
440
 16777216
100
AcDbTrace
 10
153466.9958892538
 20
-151208.1423990391
 30
0.0
 11
153470.3292225871
 21
-151208.1423990391
 31
0.0
 12
153468.6625559204
 22
-151198.1423990391
 32
0.0
 13
153468.6625559204
 23
-151198.1423990391
 33
0.0
  0
MTEXT
  5
657
330
651
100
AcDbEntity
  8
0
 62
     0
440
 16777216
100
AcDbMText
 10
153468.6625559204
 20
-151233.1423990391
 30
0.0
 40
20.0
 41
0.0
 46
0.0
 71
     5
 72
     1
  1
70
 11
0.0000000000000001
 21
1.0
 31
0.0
 73
     1
 44
1.0
  0
POINT
  5
658
330
651
100
AcDbEntity
  8
Defpoints
 62
     0
440
 16777216
100
AcDbPoint
 10
153446.4233343272
 20
-151268.1423990391
 30
0.0
  0
POINT
  5
659
330
651
100
AcDbEntity
  8
Defpoints
 62
     0
440
 16777216
100
AcDbPoint
 10
153446.4233343272
 20
-151198.1423990391
 30
0.0
  0
POINT
  5
65A
330
651
100
AcDbEntity
  8
Defpoints
 62
     0
440
 16777216
100
AcDbPoint
 10
153468.6625559204
 20
-151198.1423990391
 30
0.0
  0
ENDBLK
  5
65B
330
651
100
AcDbEntity
  8
0
100
AcDbBlockEnd
  0
BLOCK
  5
65D
330
65C
100
AcDbEntity
  8
0
100
AcDbBlockBegin
  2
*D42
 70
     1
 10
0.0
 20
0.0
 30
0.0
  3
*D42
  1

  0
LINE
  5
65E
330
65C
100
AcDbEntity
  8
0
 62
     0
440
 16777216
370
    18
100
AcDbLine
 10
153738.5685398187
 20
-151288.1423990391
 30
0.0
 11
153738.5685398187
 21
-151298.1423990391
 31
0.0
  0
LINE
  5
65F
330
65C
100
AcDbEntity
  8
0
 62
     0
440
 16777216
370
    18
100
AcDbLine
 10
153738.5685398187
 20
-151258.1423990391
 30
0.0
 11
153738.5685398187
 21
-151248.1423990391
 31
0.0
  0
SOLID
  5
660
330
65C
100
AcDbEntity
  8
0
 62
     0
440
 16777216
100
AcDbTrace
 10
153736.9018731521
 20
-151288.1423990391
 30
0.0
 11
153740.2352064854
 21
-151288.1423990391
 31
0.0
 12
153738.5685398187
 22
-151278.1423990391
 32
0.0
 13
153738.5685398187
 23
-151278.1423990391
 33
0.0
  0
SOLID
  5
661
330
65C
100
AcDbEntity
  8
0
 62
     0
440
 16777216
100
AcDbTrace
 10
153736.9018731521
 20
-151258.1423990391
 30
0.0
 11
153740.2352064854
 21
-151258.1423990391
 31
0.0
 12
153738.5685398187
 22
-151268.1423990391
 32
0.0
 13
153738.5685398187
 23
-151268.1423990391
 33
0.0
  0
MTEXT
  5
662
330
65C
100
AcDbEntity
  8
0
 62
     0
440
 16777216
100
AcDbMText
 10
153738.5685398188
 20
-151234.2931493802
 30
0.0
 40
20.0
 41
0.0
 46
0.0
 71
     5
 72
     1
  1
10
 11
0.0000000000000001
 21
1.0
 31
0.0
 73
     1
 44
1.0
  0
POINT
  5
663
330
65C
100
AcDbEntity
  8
Defpoints
 62
     0
440
 16777216
100
AcDbPoint
 10
153736.8150016159
 20
-151278.1423990391
 30
0.0
  0
POINT
  5
664
330
65C
100
AcDbEntity
  8
Defpoints
 62
     0
440
 16777216
100
AcDbPoint
 10
153736.8150016159
 20
-151268.1423990391
 30
0.0
  0
POINT
  5
665
330
65C
100
AcDbEntity
  8
Defpoints
 62
     0
440
 16777216
100
AcDbPoint
 10
153738.5685398187
 20
-151268.1423990391
 30
0.0
  0
ENDBLK
  5
666
330
65C
100
AcDbEntity
  8
0
100
AcDbBlockEnd
  0
BLOCK
  5
668
330
667
100
AcDbEntity
  8
0
100
AcDbBlockBegin
  2
*D43
 70
     1
 10
0.0
 20
0.0
 30
0.0
  3
*D43
  1

  0
LINE
  5
669
330
667
100
AcDbEntity
  8
0
 62
     0
440
 16777216
370
    18
100
AcDbLine
 10
153896.4233343272
 20
-151441.2744103734
 30
0.0
 11
153678.9833616123
 21
-151441.2744103734
 31
0.0
  0
LINE
  5
66A
330
667
100
AcDbEntity
  8
0
 62
     0
440
 16777216
370
    18
100
AcDbLine
 10
153416.4233343272
 20
-151441.2744103734
 30
0.0
 11
153633.8633070421
 21
-151441.2744103734
 31
0.0
  0
SOLID
  5
66B
330
667
100
AcDbEntity
  8
0
 62
     0
440
 16777216
100
AcDbTrace
 10
153896.4233343272
 20
-151439.6077437067
 30
0.0
 11
153896.4233343272
 21
-151442.9410770401
 31
0.0
 12
153906.4233343272
 22
-151441.2744103734
 32
0.0
 13
153906.4233343272
 23
-151441.2744103734
 33
0.0
  0
SOLID
  5
66C
330
667
100
AcDbEntity
  8
0
 62
     0
440
 16777216
100
AcDbTrace
 10
153416.4233343272
 20
-151439.6077437067
 30
0.0
 11
153416.4233343272
 21
-151442.9410770401
 31
0.0
 12
153406.4233343272
 22
-151441.2744103734
 32
0.0
 13
153406.4233343272
 23
-151441.2744103734
 33
0.0
  0
MTEXT
  5
66D
330
667
100
AcDbEntity
  8
0
 62
     0
440
 16777216
100
AcDbMText
 10
153656.4233343272
 20
-151441.2744103734
 30
0.0
 40
20.0
 41
0.0
 46
0.0
 71
     5
 72
     1
  1
500
 73
     1
 44
1.0
  0
POINT
  5
66E
330
667
100
AcDbEntity
  8
Defpoints
 62
     0
440
 16777216
100
AcDbPoint
 10
153906.4233343272
 20
-151334.6218563527
 30
0.0
  0
POINT
  5
66F
330
667
100
AcDbEntity
  8
Defpoints
 62
     0
440
 16777216
100
AcDbPoint
 10
153406.4233343272
 20
-151308.1423990391
 30
0.0
  0
POINT
  5
670
330
667
100
AcDbEntity
  8
Defpoints
 62
     0
440
 16777216
100
AcDbPoint
 10
153406.4233343272
 20
-151441.2744103734
 30
0.0
  0
ENDBLK
  5
671
330
667
100
AcDbEntity
  8
0
100
AcDbBlockEnd
  0
BLOCK
  5
673
330
672
100
AcDbEntity
  8
0
100
AcDbBlockBegin
  2
*D44
 70
     1
 10
0.0
 20
0.0
 30
0.0
  3
*D44
  1

  0
LINE
  5
674
330
672
100
AcDbEntity
  8
0
440
 16777216
370
    25
100
AcDbLine
 10
153366.9233343272
 20
-151303.1423990391
 30
0.0
 11
153379.935326427
 21
-151303.1423990391
 31
0.0
  0
LINE
  5
675
330
672
100
AcDbEntity
  8
0
440
 16777216
370
    25
100
AcDbLine
 10
153366.9233343272
 20
-151253.5505166362
 30
0.0
 11
153379.935326427
 21
-151253.5505166362
 31
0.0
  0
LINE
  5
676
330
672
100
AcDbEntity
  8
0
440
 16777216
370
    25
100
AcDbLine
 10
153379.435326427
 20
-151302.8423990391
 30
0.0
 11
153379.435326427
 21
-151268.8496227056
 31
0.0
  0
LINE
  5
677
330
672
100
AcDbEntity
  8
0
440
 16777216
370
    25
100
AcDbLine
 10
153379.435326427
 20
-151253.8505166362
 30
0.0
 11
153379.435326427
 21
-151265.5429560389
 31
0.0
  0
SOLID
  5
678
330
672
100
AcDbEntity
  8
0
440
 16777216
100
AcDbTrace
 10
153379.385326427
 20
-151302.8423990391
 30
0.0
 11
153379.485326427
 21
-151302.8423990391
 31
0.0
 12
153379.435326427
 22
-151303.1423990391
 32
0.0
 13
153379.435326427
 23
-151303.1423990391
 33
0.0
  0
SOLID
  5
679
330
672
100
AcDbEntity
  8
0
440
 16777216
100
AcDbTrace
 10
153379.385326427
 20
-151253.8505166362
 30
0.0
 11
153379.485326427
 21
-151253.8505166362
 31
0.0
 12
153379.435326427
 22
-151253.5505166362
 32
0.0
 13
153379.435326427
 23
-151253.5505166362
 33
0.0
  0
MTEXT
  5
67A
330
672
100
AcDbEntity
  8
0
440
 16777216
100
AcDbMText
 10
153379.4353264271
 20
-151267.1962893722
 30
0.0
 40
0.6
 41
0.0
 46
0.0
 71
     5
 72
     1
  1
49.59
  7
宋体
 11
0.0000000000000001
 21
1.0
 31
0.0
 73
     1
 44
1.0
  0
POINT
  5
67B
330
672
100
AcDbEntity
  8
Defpoints
 62
     0
440
 16777216
100
AcDbPoint
 10
153366.4233343272
 20
-151303.1423990391
 30
0.0
  0
POINT
  5
67C
330
672
100
AcDbEntity
  8
Defpoints
 62
     0
440
 16777216
100
AcDbPoint
 10
153366.4233343272
 20
-151253.5505166362
 30
0.0
  0
POINT
  5
67D
330
672
100
AcDbEntity
  8
Defpoints
 62
     0
440
 16777216
100
AcDbPoint
 10
153379.435326427
 20
-151253.5505166362
 30
0.0
  0
ENDBLK
  5
67E
330
672
100
AcDbEntity
  8
0
100
AcDbBlockEnd
  0
BLOCK
  5
6BB
330
67F
100
AcDbEntity
  8
0
100
AcDbBlockBegin
  2
A$C68CF1112
 70
     0
 10
0.0
 20
0.0
 30
0.0
  3
A$C68CF1112
  1

  0
LINE
  5
680
102
{ACAD_REACTORS
330
6A3
102
}
330
67F
100
AcDbEntity
  8
0
100
AcDbLine
 10
638.525597937085
 20
543.9559289479802
 30
0.0
 11
1008.525597937143
 21
543.9559289479802
 31
0.0
  0
LINE
  5
681
102
{ACAD_REACTORS
330
6A0
330
6A3
102
}
330
67F
100
AcDbEntity
  8
0
100
AcDbLine
 10
638.525597937085
 20
553.9559289479803
 30
0.0
 11
1008.525597937143
 21
553.9559289479803
 31
0.0
  0
LWPOLYLINE
  5
682
330
67F
100
AcDbEntity
  8
0
100
AcDbPolyline
 90
        7
 70
     0
 43
0.0
 10
1008.525597937143
 20
541.9559289479803
 10
1008.525597937143
 20
555.9559289479802
 42
-0.4142135623730951
 10
1009.525597937143
 20
556.9559289479802
 10
1033.525597937143
 20
556.9559289479802
 42
-0.4142135623730951
 10
1035.525597937143
 20
554.9559289479803
 10
1035.525597937143
 20
539.9559289479802
 10
1021.525597937143
 20
539.9559289479802
  0
LINE
  5
683
330
67F
100
AcDbEntity
  8
0
100
AcDbLine
 10
1021.525597937143
 20
539.9559289479802
 30
0.0
 11
1009.525597937143
 21
539.9559289479511
 31
0.0
  0
ARC
  5
684
330
67F
100
AcDbEntity
  8
0
100
AcDbCircle
 10
1009.525597937143
 20
540.9559289479512
 30
0.0
 40
1.0
100
AcDbArc
 50
180.0
 51
270.0
  0
LINE
  5
685
330
67F
100
AcDbEntity
  8
0
100
AcDbLine
 10
1008.525597937143
 20
541.9559289479803
 30
0.0
 11
1008.525597937172
 21
540.955928947922
 31
0.0
  0
LINE
  5
686
102
{ACAD_REACTORS
330
6B8
102
}
330
67F
100
AcDbEntity
  8
0
100
AcDbLine
 10
558.525597937114
 20
518.9559289479802
 30
0.0
 11
558.525597937114
 21
623.9559289479802
 31
0.0
  0
LINE
  5
687
102
{ACAD_REACTORS
330
6A0
102
}
330
67F
100
AcDbEntity
  8
0
100
AcDbLine
 10
638.525597937114
 20
518.9559289479802
 30
0.0
 11
638.525597937114
 21
623.9559289479802
 31
0.0
  0
LINE
  5
688
102
{ACAD_REACTORS
330
699
102
}
330
67F
100
AcDbEntity
  8
0
100
AcDbLine
 10
558.525597937114
 20
623.9559289479802
 30
0.0
 11
638.525597937114
 21
623.9559289479802
 31
0.0
  0
LINE
  5
689
330
67F
100
AcDbEntity
  8
0
100
AcDbLine
 10
558.525597937114
 20
518.9559289479802
 30
0.0
 11
563.525597937114
 21
518.9559289479802
 31
0.0
  0
LINE
  5
68A
330
67F
100
AcDbEntity
  8
0
100
AcDbLine
 10
633.525597937114
 20
518.9559289479802
 30
0.0
 11
638.525597937114
 21
518.9559289479802
 31
0.0
  0
LINE
  5
68B
330
67F
100
AcDbEntity
  8
0
100
AcDbLine
 10
563.525597937114
 20
518.9559289479802
 30
0.0
 11
633.525597937114
 21
518.9559289479802
 31
0.0
  0
LINE
  5
68C
330
67F
100
AcDbEntity
  8
0
100
AcDbLine
 10
558.525597937114
 20
563.9559289480094
 30
0.0
 11
288.5255979372014
 21
563.9559289479803
 31
0.0
  0
LINE
  5
68D
330
67F
100
AcDbEntity
  8
0
100
AcDbLine
 10
558.525597937114
 20
573.9559289480093
 30
0.0
 11
288.5255979372014
 21
573.9559289479802
 31
0.0
  0
LINE
  5
68E
330
67F
100
AcDbEntity
  8
0
100
AcDbLine
 10
633.025597937114
 20
518.9559289479802
 30
0.0
 11
638.525597937114
 21
518.9559289479802
 31
0.0
  0
LINE
  5
68F
102
{ACAD_REACTORS
330
6A6
102
}
330
67F
100
AcDbEntity
  8
0
100
AcDbLine
 10
560.5255979371141
 20
513.9559289479803
 30
0.0
 11
636.525597937114
 21
513.9559289479803
 31
0.0
  0
ARC
  5
690
330
67F
100
AcDbEntity
  8
0
100
AcDbCircle
 10
560.5255979371141
 20
515.9559289479802
 30
0.0
 40
2.0
100
AcDbArc
 50
180.0
 51
270.0
  0
LINE
  5
691
330
67F
100
AcDbEntity
  8
0
100
AcDbLine
 10
558.525597937114
 20
518.9559289479802
 30
0.0
 11
558.525597937114
 21
515.9559289479802
 31
0.0
  0
LINE
  5
692
102
{ACAD_REACTORS
330
69C
102
}
330
67F
100
AcDbEntity
  8
0
100
AcDbLine
 10
638.525597937114
 20
515.9559289479802
 30
0.0
 11
638.525597937114
 21
518.9559289479802
 31
0.0
  0
ARC
  5
693
330
67F
100
AcDbEntity
  8
0
100
AcDbCircle
 10
636.525597937114
 20
515.9559289479802
 30
0.0
 40
2.0
100
AcDbArc
 50
270.0
 51
0.0
  0
LINE
  5
694
102
{ACAD_REACTORS
330
6B8
102
}
330
67F
100
AcDbEntity
  8
0
100
AcDbLine
 10
564.025597937114
 20
518.9559289479802
 30
0.0
 11
558.525597937114
 21
518.9559289479802
 31
0.0
  0
LWPOLYLINE
  5
695
330
67F
100
AcDbEntity
  8
0
100
AcDbPolyline
 90
        7
 70
     0
 43
0.0
 10
288.5255979372014
 20
561.9559289479802
 10
288.5255979372014
 20
575.9559289479803
 42
0.4142135623730951
 10
287.5255979372014
 20
576.9559289479802
 10
263.5255979372014
 20
576.9559289479802
 42
0.4142135623730951
 10
261.5255979372014
 20
574.9559289479803
 10
261.5255979372014
 20
559.9559289479802
 10
275.5255979372014
 20
559.9559289479802
  0
DIMENSION
  5
696
330
67F
100
AcDbEntity
  8
0
100
AcDbDimension
280
     0
  2
*D35
 10
1098.525597937172
 20
319.735350706178
 30
0.0
 11
648.5255979375215
 21
319.735350706178
 31
0.0
 12
-152807.89773639
 22
151822.0983279871
 32
0.0
 70
   128
 71
     5
 42
899.9999999993306
 73
     0
 74
     0
 75
     0
  3
6倍
100
AcDbAlignedDimension
 13
198.5255979378417
 23
487.4764716343779
 33
0.0
 14
1098.525597937172
 24
487.4764716343779
 34
0.0
100
AcDbRotatedDimension
  0
DIMENSION
  5
697
102
{ACAD_XDICTIONARY
360
698
102
}
102
{ACAD_REACTORS
330
699
102
}
330
67F
100
AcDbEntity
  8
0
100
AcDbDimension
280
     0
  2
*D39
 10
558.525597937114
 20
657.7458333715039
 30
0.0
 11
598.5255979371141
 21
657.7458333715039
 31
0.0
 12
-152807.89773639
 22
151822.0983279871
 32
0.0
 71
     5
 42
80.0
 73
     0
 74
     0
 75
     0
  3
6倍
100
AcDbAlignedDimension
 13
638.525597937114
 23
623.9559289479802
 33
0.0
 14
558.525597937114
 24
623.9559289479802
 34
0.0
100
AcDbRotatedDimension
  0
DIMENSION
  5
69A
102
{ACAD_XDICTIONARY
360
69B
102
}
102
{ACAD_REACTORS
330
69C
102
}
330
67F
100
AcDbEntity
  8
0
100
AcDbDimension
280
     0
  2
*D40
 10
697.8860360488761
 20
515.9559289479802
 30
0.0
 11
697.8860360489052
 21
655.6837597801932
 31
0.0
 12
-152807.89773639
 22
151822.0983279871
 32
0.0
 70
   128
 71
     5
 42
108.0
 73
     0
 74
     0
 75
     0
  3
6倍
100
AcDbAlignedDimension
 13
638.525597937114
 23
623.9559289479802
 33
0.0
 14
638.525597937114
 24
515.9559289479802
 34
0.0
 50
90.0
100
AcDbRotatedDimension
  0
DIMENSION
  5
69D
330
67F
100
AcDbEntity
  8
0
100
AcDbDimension
280
     0
  2
*D36
 10
1098.525597937172
 20
408.4529907909455
 30
0.0
 11
1028.525597937172
 21
408.4529907909455
 31
0.0
 12
-152807.89773639
 22
151822.0983279871
 32
0.0
 71
     5
 42
140.0
 73
     0
 74
     0
 75
     0
  3
6倍
100
AcDbAlignedDimension
 13
958.5255979371723
 23
487.4764716343779
 33
0.0
 14
1098.525597937172
 24
487.4764716343779
 34
0.0
100
AcDbRotatedDimension
  0
DIMENSION
  5
69E
102
{ACAD_XDICTIONARY
360
69F
102
}
102
{ACAD_REACTORS
330
6A0
102
}
330
67F
100
AcDbEntity
  8
0
100
AcDbDimension
280
     0
  2
*D41
 10
660.7648195303627
 20
623.9559289479802
 30
0.0
 11
660.7648195303918
 21
588.9559289480094
 31
0.0
 12
-152807.89773639
 22
151822.0983279871
 32
0.0
 71
     5
 42
70.0
 73
     0
 74
     0
 75
     0
  3
6倍
100
AcDbAlignedDimension
 13
638.525597937114
 23
553.9559289479803
 33
0.0
 14
638.525597937114
 24
623.9559289479802
 34
0.0
 50
90.0
100
AcDbRotatedDimension
  0
DIMENSION
  5
6A1
102
{ACAD_XDICTIONARY
360
6A2
102
}
102
{ACAD_REACTORS
330
6A3
102
}
330
67F
100
AcDbEntity
  8
0
100
AcDbDimension
280
     0
  2
*D42
 10
930.6708034286957
 20
553.9559289479803
 30
0.0
 11
930.6708034287249
 21
587.8051786069408
 31
0.0
 12
-152807.89773639
 22
151822.0983279871
 32
0.0
 71
     5
 42
10.0
 73
     0
 74
     0
 75
     0
  3
6倍
100
AcDbAlignedDimension
 13
928.9172652258812
 23
543.9559289479802
 33
0.0
 14
928.9172652258812
 24
553.9559289479803
 34
0.0
 50
90.0
100
AcDbRotatedDimension
  0
DIMENSION
  5
6A4
102
{ACAD_XDICTIONARY
360
6A5
102
}
102
{ACAD_REACTORS
330
6A6
102
}
330
67F
100
AcDbEntity
  8
0
100
AcDbDimension
280
     0
  2
*D43
 10
598.5255979371141
 20
380.823917613714
 30
0.0
 11
848.5255979371432
 21
380.823917613714
 31
0.0
 12
-152807.89773639
 22
151822.0983279871
 32
0.0
 70
   128
 71
     5
 42
500.0000000000581
 73
     0
 74
     0
 75
     0
  3
6倍
100
AcDbAlignedDimension
 13
1098.525597937172
 23
487.4764716343779
 33
0.0
 14
598.5255979371141
 24
513.9559289479803
 34
0.0
100
AcDbRotatedDimension
  0
DIMENSION
  5
6A7
330
67F
100
AcDbEntity
  8
0
100
AcDbDimension
280
     0
  2
*D37
 10
198.5255979378417
 20
378.717404231953
 30
0.0
 11
398.5255979374633
 21
378.717404231953
 31
0.0
 12
-152807.89773639
 22
151822.0983279871
 32
0.0
 70
   128
 71
     5
 42
399.9999999992724
 73
     0
 74
     0
 75
     0
  3
6倍
100
AcDbAlignedDimension
 13
598.5255979371141
 23
513.9559289479803
 33
0.0
 14
198.5255979378417
 24
487.4764716343779
 34
0.0
100
AcDbRotatedDimension
  0
INSERT
  5
6A8
330
67F
100
AcDbEntity
  8
0
100
AcDbBlockReference
  2
bfs dgsdf gf
 10
142195.0566104166
 20
148575.2341018443
 30
0.0
 41
-1.0
  0
INSERT
  5
6A9
330
67F
100
AcDbEntity
  8
0
100
AcDbBlockReference
  2
bfds gfds gf
 10
141867.3621120255
 20
148610.1516502813
 30
0.0
 41
-1.0
  0
INSERT
  5
6AA
330
67F
100
AcDbEntity
  8
0
100
AcDbBlockReference
  2
bfds gfds gf
 10
-140570.3109161512
 20
148590.1516502813
 30
0.0
  0
INSERT
  5
6AB
330
67F
100
AcDbEntity
  8
0
100
AcDbBlockReference
  2
bfs dgsdf gf
 10
-140898.0054145422
 20
148555.2341018443
 30
0.0
  0
DIMENSION
  5
6AC
330
67F
100
AcDbEntity
  8
0
100
AcDbDimension
280
     0
  2
*D38
 10
1180.154374646285
 20
436.5842509925133
 30
0.0
 11
1180.154374646314
 21
486.5870442431186
 31
0.0
 12
-152807.89773639
 22
151822.0983279871
 32
0.0
 71
     5
 42
100.0055865011527
 73
     0
 74
     0
 75
     0
  3
6倍
100
AcDbAlignedDimension
 13
1029.575023968646
 23
536.5898374936659
 33
0.0
 14
1028.525597937172
 24
436.5842509925133
 34
0.0
 50
90.0
100
AcDbRotatedDimension
1001
ACAD
1000
DSTYLE
1002
{
1070
    49
1040
2.0
1070
    50
1040
1.570796326794896
1070
   345
1005
15
1070
   346
1005
15
1070
   347
1005
15
1002
}
  0
INSERT
  5
6AD
330
67F
100
AcDbEntity
  8
0
 62
     1
100
AcDbBlockReference
  2
vbfds fdgfdgf
 10
55995.87501588801
 20
-74597.15403018548
 30
0.0
 50
180.0
  0
LINE
  5
6AE
330
67F
100
AcDbEntity
  8
0
100
AcDbLine
 10
288.5255979371723
 20
573.9559289479802
 30
0.0
 11
264.0255979371432
 21
573.9559289479802
 31
0.0
  0
LINE
  5
6AF
330
67F
100
AcDbEntity
  8
0
100
AcDbLine
 10
288.5255979371723
 20
563.9559289479803
 30
0.0
 11
273.0255979371432
 21
563.9559289479803
 31
0.0
  0
LINE
  5
6B0
330
67F
100
AcDbEntity
  8
0
100
AcDbLine
 10
273.0255979371432
 20
552.2767024880449
 30
0.0
 11
273.0255979371432
 21
563.9559289480094
 31
0.0
  0
LINE
  5
6B1
330
67F
100
AcDbEntity
  8
0
100
AcDbLine
 10
264.0255979371432
 20
552.2767024880449
 30
0.0
 11
264.0255979371432
 21
573.9559289479802
 31
0.0
  0
LINE
  5
6B2
330
67F
100
AcDbEntity
  8
0
100
AcDbLine
 10
1008.525597937143
 20
553.9559289479803
 30
0.0
 11
1033.025597937172
 21
553.9559289479803
 31
0.0
  0
LINE
  5
6B3
330
67F
100
AcDbEntity
  8
0
100
AcDbLine
 10
1008.525597937143
 20
543.9559289479802
 30
0.0
 11
1024.025597937172
 21
543.9559289479802
 31
0.0
  0
LINE
  5
6B4
330
67F
100
AcDbEntity
  8
0
100
AcDbLine
 10
1024.025597937172
 20
532.2767024880449
 30
0.0
 11
1024.025597937172
 21
543.9559289480094
 31
0.0
  0
LINE
  5
6B5
330
67F
100
AcDbEntity
  8
0
100
AcDbLine
 10
1033.025597937172
 20
532.2767024880449
 30
0.0
 11
1033.025597937172
 21
553.9559289479803
 31
0.0
  0
DIMENSION
  5
6B6
102
{ACAD_XDICTIONARY
360
6B7
102
}
102
{ACAD_REACTORS
330
6B8
102
}
330
67F
100
AcDbEntity
  8
0
100
AcDbDimension
280
     0
  2
*D44
 10
571.5375900369836
 20
568.5478113508724
 30
0.0
 11
571.5375900370126
 21
554.9020386149059
 31
0.0
 12
-152807.89773639
 22
151822.0983279871
 32
0.0
 70
   128
 71
     5
 42
49.59188240289222
 73
     0
 74
     0
 75
     0
  3
0.3B
100
AcDbAlignedDimension
 13
558.525597937114
 23
518.9559289479802
 33
0.0
 14
558.525597937114
 24
568.5478113508724
 34
0.0
 50
90.0
100
AcDbRotatedDimension
  0
ENDBLK
  5
6BC
330
67F
100
AcDbEntity
  8
0
100
AcDbBlockEnd
  0
ENDSEC
  0
SECTION
  2
ENTITIES
  0
LINE
  5
3C9
330
1F
100
AcDbEntity
  8
0
100
AcDbLine
 10
2332.230505902191
 20
1356.762024545108
 30
0.0
 11
2702.23050590225
 21
1356.762024545108
 31
0.0
  0
LINE
  5
3CA
330
1F
100
AcDbEntity
  8
0
100
AcDbLine
 10
2332.230505902191
 20
1366.762024545108
 30
0.0
 11
2702.23050590225
 21
1366.762024545108
 31
0.0
  0
LWPOLYLINE
  5
3CB
330
1F
100
AcDbEntity
  8
0
100
AcDbPolyline
 90
        7
 70
     0
 43
0.0
 10
2702.23050590225
 20
1354.762024545108
 10
2702.23050590225
 20
1368.762024545108
 42
-0.4142135623730951
 10
2703.230505902249
 20
1369.762024545108
 10
2727.230505902249
 20
1369.762024545108
 42
-0.4142135623730951
 10
2729.230505902249
 20
1367.762024545108
 10
2729.230505902249
 20
1352.762024545108
 10
2715.230505902249
 20
1352.762024545108
  0
LINE
  5
3CC
330
1F
100
AcDbEntity
  8
0
100
AcDbLine
 10
2715.230505902249
 20
1352.762024545108
 30
0.0
 11
2703.230505902249
 21
1352.762024545079
 31
0.0
  0
ARC
  5
3CD
330
1F
100
AcDbEntity
  8
0
100
AcDbCircle
 10
2703.230505902249
 20
1353.762024545079
 30
0.0
 40
1.0
100
AcDbArc
 50
180.0
 51
270.0
  0
LINE
  5
3CE
330
1F
100
AcDbEntity
  8
0
100
AcDbLine
 10
2702.23050590225
 20
1354.762024545108
 30
0.0
 11
2702.230505902278
 21
1353.76202454505
 31
0.0
  0
LINE
  5
3CF
330
1F
100
AcDbEntity
  8
0
100
AcDbLine
 10
2252.23050590222
 20
1331.762024545108
 30
0.0
 11
2252.23050590222
 21
1436.762024545108
 31
0.0
  0
LINE
  5
3D0
330
1F
100
AcDbEntity
  8
0
100
AcDbLine
 10
2332.23050590222
 20
1331.762024545108
 30
0.0
 11
2332.23050590222
 21
1436.762024545108
 31
0.0
  0
LINE
  5
3D1
102
{ACAD_REACTORS
330
3E2
102
}
330
1F
100
AcDbEntity
  8
0
100
AcDbLine
 10
2252.23050590222
 20
1436.762024545108
 30
0.0
 11
2332.23050590222
 21
1436.762024545108
 31
0.0
  0
LINE
  5
3D2
330
1F
100
AcDbEntity
  8
0
100
AcDbLine
 10
2252.23050590222
 20
1331.762024545108
 30
0.0
 11
2257.23050590222
 21
1331.762024545108
 31
0.0
  0
LINE
  5
3D3
330
1F
100
AcDbEntity
  8
0
100
AcDbLine
 10
2327.23050590222
 20
1331.762024545108
 30
0.0
 11
2332.23050590222
 21
1331.762024545108
 31
0.0
  0
LINE
  5
3D4
330
1F
100
AcDbEntity
  8
0
100
AcDbLine
 10
2257.23050590222
 20
1331.762024545108
 30
0.0
 11
2327.23050590222
 21
1331.762024545108
 31
0.0
  0
LINE
  5
3D5
330
1F
100
AcDbEntity
  8
0
100
AcDbLine
 10
2252.23050590222
 20
1376.762024545137
 30
0.0
 11
1982.230505902307
 21
1376.762024545108
 31
0.0
  0
LINE
  5
3D6
330
1F
100
AcDbEntity
  8
0
100
AcDbLine
 10
2252.23050590222
 20
1386.762024545137
 30
0.0
 11
1982.230505902307
 21
1386.762024545108
 31
0.0
  0
LINE
  5
3D7
330
1F
100
AcDbEntity
  8
0
100
AcDbLine
 10
2326.73050590222
 20
1331.762024545108
 30
0.0
 11
2332.23050590222
 21
1331.762024545108
 31
0.0
  0
LINE
  5
3D8
330
1F
100
AcDbEntity
  8
0
100
AcDbLine
 10
2254.23050590222
 20
1326.762024545108
 30
0.0
 11
2330.23050590222
 21
1326.762024545108
 31
0.0
  0
ARC
  5
3D9
330
1F
100
AcDbEntity
  8
0
100
AcDbCircle
 10
2254.23050590222
 20
1328.762024545108
 30
0.0
 40
2.0
100
AcDbArc
 50
180.0
 51
270.0
  0
LINE
  5
3DA
330
1F
100
AcDbEntity
  8
0
100
AcDbLine
 10
2252.23050590222
 20
1331.762024545108
 30
0.0
 11
2252.23050590222
 21
1328.762024545108
 31
0.0
  0
LINE
  5
3DB
330
1F
100
AcDbEntity
  8
0
100
AcDbLine
 10
2332.23050590222
 20
1328.762024545108
 30
0.0
 11
2332.23050590222
 21
1331.762024545108
 31
0.0
  0
ARC
  5
3DC
330
1F
100
AcDbEntity
  8
0
100
AcDbCircle
 10
2330.23050590222
 20
1328.762024545108
 30
0.0
 40
2.0
100
AcDbArc
 50
270.0
 51
0.0
  0
LINE
  5
3DD
330
1F
100
AcDbEntity
  8
0
100
AcDbLine
 10
2257.73050590222
 20
1331.762024545108
 30
0.0
 11
2252.23050590222
 21
1331.762024545108
 31
0.0
  0
LWPOLYLINE
  5
3DE
330
1F
100
AcDbEntity
  8
0
100
AcDbPolyline
 90
        7
 70
     0
 43
0.0
 10
1982.230505902307
 20
1374.762024545108
 10
1982.230505902307
 20
1388.762024545108
 42
0.4142135623730951
 10
1981.230505902307
 20
1389.762024545108
 10
1957.230505902307
 20
1389.762024545108
 42
0.4142135623730951
 10
1955.230505902307
 20
1387.762024545108
 10
1955.230505902307
 20
1372.762024545108
 10
1969.230505902307
 20
1372.762024545108
  0
DIMENSION
  5
3DF
330
1F
100
AcDbEntity
  8
0
100
AcDbDimension
280
     0
  2
*D18
 10
2792.230505902278
 20
1132.541446303306
 30
0.0
 11
2342.230505902628
 21
1132.541446303306
 31
0.0
 70
   160
 71
     5
 42
900.0000000000454
 73
     0
 74
     0
 75
     0
  3
6倍
100
AcDbAlignedDimension
 13
1892.230505902233
 23
1320.290346589638
 33
0.0
 14
2792.230505902278
 24
1300.282567231505
 34
0.0
100
AcDbRotatedDimension
  0
DIMENSION
  5
3E0
102
{ACAD_XDICTIONARY
360
3E1
102
}
102
{ACAD_REACTORS
330
3E2
102
}
330
1F
100
AcDbEntity
  8
0
100
AcDbDimension
280
     0
  2
*D22
 10
2252.23050590222
 20
1470.551928968632
 30
0.0
 11
2292.23050590222
 21
1470.551928968632
 31
0.0
 70
   160
 71
     5
 42
80.0
 73
     0
 74
     0
 75
     0
  3
6倍
100
AcDbAlignedDimension
 13
2332.23050590222
 23
1436.762024545108
 33
0.0
 14
2252.23050590222
 24
1436.762024545108
 34
0.0
100
AcDbRotatedDimension
  0
DIMENSION
  5
3E6
330
1F
100
AcDbEntity
  8
0
100
AcDbDimension
280
     0
  2
*D19
 10
2792.230505902278
 20
1221.259086388073
 30
0.0
 11
2722.230505902278
 21
1221.259086388073
 31
0.0
 70
    32
 71
     5
 42
140.0
 73
     0
 74
     0
 75
     0
  3
6倍
100
AcDbAlignedDimension
 13
2652.230505902279
 23
1300.282567231505
 33
0.0
 14
2792.230505902278
 24
1300.282567231505
 34
0.0
100
AcDbRotatedDimension
  0
INSERT
  5
3F1
330
1F
100
AcDbEntity
  8
0
100
AcDbBlockReference
  2
bfs dgsdf gf
 10
143888.7615183817
 20
149388.0401974414
 30
0.0
 41
-1.0
  0
INSERT
  5
3F2
330
1F
100
AcDbEntity
  8
0
100
AcDbBlockReference
  2
bfds gfds gf
 10
143561.0670199906
 20
149422.9577458785
 30
0.0
 41
-1.0
  0
INSERT
  5
3F3
330
1F
100
AcDbEntity
  8
0
100
AcDbBlockReference
  2
bfds gfds gf
 10
-138876.6060081861
 20
149402.9577458785
 30
0.0
  0
INSERT
  5
3F4
330
1F
100
AcDbEntity
  8
0
100
AcDbBlockReference
  2
bfs dgsdf gf
 10
-139204.3005065771
 20
149368.0401974415
 30
0.0
  0
DIMENSION
  5
3F5
330
1F
100
AcDbEntity
  8
0
100
AcDbDimension
280
     0
  2
*D21
 10
2821.126601093146
 20
1249.390346589641
 30
0.0
 11
2821.126601093145
 21
1299.393139840246
 31
0.0
 70
   160
 71
     5
 42
100.0055865011527
 73
     0
 74
     0
 75
     0
  3
6倍
100
AcDbAlignedDimension
 13
2723.279931933752
 23
1349.395933090794
 33
0.0
 14
2722.230505902278
 24
1249.390346589641
 34
0.0
 50
90.0
100
AcDbRotatedDimension
1001
ACAD
1000
DSTYLE
1002
{
1070
    49
1040
2.0
1070
    50
1040
1.570796326794896
1070
   345
1005
15
1070
   346
1005
15
1070
   347
1005
15
1002
}
  0
LINE
  5
3F9
330
1F
100
AcDbEntity
  8
0
100
AcDbLine
 10
1966.730505902249
 20
1369.819642952638
 30
0.0
 11
1966.730505902249
 21
1372.762024545108
 31
0.0
  0
LINE
  5
3FA
330
1F
100
AcDbEntity
  8
0
100
AcDbLine
 10
1957.730505902249
 20
1369.819642952638
 30
0.0
 11
1957.730505902249
 21
1372.762024545108
 31
0.0
  0
LINE
  5
3FD
330
1F
100
AcDbEntity
  8
0
100
AcDbLine
 10
2717.730505902279
 20
1349.819642952638
 30
0.0
 11
2717.730505902279
 21
1352.762024545108
 31
0.0
  0
LINE
  5
3FE
330
1F
100
AcDbEntity
  8
0
100
AcDbLine
 10
2726.730505902279
 20
1349.819642952638
 30
0.0
 11
2726.730505902279
 21
1352.762024545108
 31
0.0
  0
LINE
  5
4CA
330
1F
100
AcDbEntity
  8
0
100
AcDbLine
 10
2332.230505902191
 20
1356.762024545108
 30
0.0
 11
2332.23050590222
 21
1366.762024545108
 31
0.0
  0
ENDSEC
  0
SECTION
  2
OBJECTS
  0
DICTIONARY
  5
C
330
0
100
AcDbDictionary
281
     1
  3
ACAD_CIP_PREVIOUS_PRODUCT_INFO
350
216
  3
ACAD_COLOR
350
6B
  3
ACAD_DETAILVIEWSTYLE
350
21B
  3
ACAD_GROUP
350
D
  3
ACAD_LAYOUT
350
1A
  3
ACAD_MATERIAL
350
6A
  3
ACAD_MLEADERSTYLE
350
12D
  3
ACAD_MLINESTYLE
350
17
  3
ACAD_PLOTSETTINGS
350
19
  3
ACAD_PLOTSTYLENAME
350
E
  3
ACAD_SCALELIST
350
10C
  3
ACAD_SECTIONVIEWSTYLE
350
219
  3
ACAD_TABLESTYLE
350
7E
  3
ACAD_VISUALSTYLE
350
EF
  3
ACDB_RECOMPOSE_DATA
350
759
  3
AcDbVariableDictionary
350
5E
  0
DICTIONARY
  5
1FF
330
2
100
AcDbDictionary
280
     1
281
     1
  3
ACAD_LAYERSTATES
360
200
  0
DICTIONARY
  5
13C
330
10
100
AcDbDictionary
280
     1
281
     1
  0
DICTIONARY
  5
1CE
330
1F
100
AcDbDictionary
280
     1
281
     1
  0
DICTIONARY
  5
269
330
268
100
AcDbDictionary
280
     1
281
     1
  3
ACAD_SORTENTS
360
26A
  0
DICTIONARY
  5
2DF
330
2DE
100
AcDbDictionary
280
     1
281
     1
  0
DICTIONARY
  5
2E6
330
2E5
100
AcDbDictionary
280
     1
281
     1
  3
ACAD_SORTENTS
360
2E7
  0
DICTIONARY
  5
2F3
330
2F2
100
AcDbDictionary
280
     1
281
     1
  3
ACAD_SORTENTS
360
2F4
  0
DICTIONARY
  5
6B9
330
67F
100
AcDbDictionary
280
     1
281
     1
  3
ACAD_SORTENTS
360
6BA
  0
DICTIONARY
  5
698
330
697
100
AcDbDictionary
280
     1
281
     1
  3
ACAD_DIMASSOC
360
699
  0
DICTIONARY
  5
69B
330
69A
100
AcDbDictionary
280
     1
281
     1
  3
ACAD_DIMASSOC
360
69C
  0
DICTIONARY
  5
69F
330
69E
100
AcDbDictionary
280
     1
281
     1
  3
ACAD_DIMASSOC
360
6A0
  0
DICTIONARY
  5
6A2
330
6A1
100
AcDbDictionary
280
     1
281
     1
  3
ACAD_DIMASSOC
360
6A3
  0
DICTIONARY
  5
6A5
330
6A4
100
AcDbDictionary
280
     1
281
     1
  3
ACAD_DIMASSOC
360
6A6
  0
DICTIONARY
  5
6B7
330
6B6
100
AcDbDictionary
280
     1
281
     1
  3
ACAD_DIMASSOC
360
6B8
  0
DICTIONARY
  5
3E1
330
3E0
100
AcDbDictionary
280
     1
281
     1
  3
ACAD_DIMASSOC
360
3E2
  0
XRECORD
  5
216
102
{ACAD_REACTORS
330
C
102
}
330
C
100
AcDbXrecord
280
     1
300
ACD
300
2022
300

  0
DICTIONARY
  5
6B
102
{ACAD_REACTORS
330
C
102
}
330
C
100
AcDbDictionary
281
     1
  0
DICTIONARY
  5
21B
102
{ACAD_REACTORS
330
C
102
}
330
C
100
AcDbDictionary
281
     1
  3
Metric50
350
21C
  0
DICTIONARY
  5
D
102
{ACAD_REACTORS
330
C
102
}
330
C
100
AcDbDictionary
281
     1
  0
DICTIONARY
  5
1A
102
{ACAD_REACTORS
330
C
102
}
330
C
100
AcDbDictionary
281
     1
  3
Model
350
22
  3
布局1
350
D3
  3
布局2
350
D7
1001
AcadStringInfo
1000
MIFCodePage
1070
     5
  0
DICTIONARY
  5
6A
102
{ACAD_REACTORS
330
C
102
}
330
C
100
AcDbDictionary
281
     1
  3
ByBlock
350
ED
  3
ByLayer
350
EC
  3
Global
350
EE
  0
DICTIONARY
  5
12D
102
{ACAD_REACTORS
330
C
102
}
330
C
100
AcDbDictionary
281
     1
  3
Annotative
350
13B
  3
Standard
350
12E
  0
DICTIONARY
  5
17
102
{ACAD_REACTORS
330
C
102
}
330
C
100
AcDbDictionary
281
     1
  3
Standard
350
18
  0
DICTIONARY
  5
19
102
{ACAD_REACTORS
330
C
102
}
330
C
100
AcDbDictionary
281
     1
  0
ACDBDICTIONARYWDFLT
  5
E
102
{ACAD_REACTORS
330
C
102
}
330
C
100
AcDbDictionary
281
     1
  3
Normal
350
F
100
AcDbDictionaryWithDefault
340
F
  0
DICTIONARY
  5
10C
102
{ACAD_REACTORS
330
C
102
}
330
C
100
AcDbDictionary
281
     1
  3
A0
350
10D
  3
A1
350
1BE
  3
A2
350
1BF
  3
A3
350
1C0
  3
A4
350
1C1
  3
A5
350
1C2
  3
A6
350
1C3
  3
A7
350
1C4
  3
A8
350
1C5
  3
A9
350
1C6
  3
B0
350
1C7
  3
B1
350
1C8
  3
B2
350
1C9
  3
B3
350
1CA
  3
B4
350
1CB
  3
B5
350
1CC
  3
B6
350
1CD
  0
DICTIONARY
  5
219
102
{ACAD_REACTORS
330
C
102
}
330
C
100
AcDbDictionary
281
     1
  3
Metric50
350
21A
  0
DICTIONARY
  5
7E
102
{ACAD_REACTORS
330
C
102
}
330
C
100
AcDbDictionary
281
     1
  3
Standard
350
7F
  0
DICTIONARY
  5
EF
102
{ACAD_REACTORS
330
C
102
}
330
C
100
AcDbDictionary
281
     1
  3
2dWireframe
350
F5
  3
Basic
350
F4
  3
Brighten
350
FB
  3
ColorChange
350
FF
  3
Conceptual
350
F8
  3
Dim
350
FA
  3
EdgeColorOff
350
1E6
  3
Facepattern
350
FE
  3
Flat
350
F0
  3
FlatWithEdges
350
F1
  3
Gouraud
350
F2
  3
GouraudWithEdges
350
F3
  3
Hidden
350
F7
  3
JitterOff
350
1E4
  3
Linepattern
350
FD
  3
OverhangOff
350
1E5
  3
Realistic
350
F9
  3
Shaded
350
1F3
  3
Shaded with edges
350
1F2
  3
Shades of Gray
350
1EF
  3
Sketchy
350
1F0
  3
Thicken
350
FC
  3
Wireframe
350
F6
  3
X-Ray
350
1F1
  0
XRECORD
  5
759
102
{ACAD_REACTORS
330
C
102
}
330
C
100
AcDbXrecord
280
     1
 90
        1
330
7F
  0
DICTIONARY
  5
5E
102
{ACAD_REACTORS
330
C
102
}
330
C
100
AcDbDictionary
281
     1
  3
CANNOSCALE
350
146
  3
CMLEADERSTYLE
350
145
  3
CTABLESTYLE
350
84
  3
CVIEWDETAILSTYLE
350
227
  3
CVIEWSECTIONSTYLE
350
228
  3
DIMASSOC
350
5F
  3
HIDETEXT
350
63
  3
LAYEREVAL
350
1AE
  3
LAYERNOTIFY
350
1AF
  0
DICTIONARY
  5
200
102
{ACAD_REACTORS
330
1FF
102
}
330
1FF
100
AcDbDictionary
281
     1
  0
SORTENTSTABLE
  5
26A
102
{ACAD_REACTORS
330
269
102
}
330
269
100
AcDbSortentsTable
330
268
  0
SORTENTSTABLE
  5
2E7
102
{ACAD_REACTORS
330
2E6
102
}
330
2E6
100
AcDbSortentsTable
330
2E5
331
2EF
  5
2F0
331
2F0
  5
2EF
  0
SORTENTSTABLE
  5
2F4
102
{ACAD_REACTORS
330
2F3
102
}
330
2F3
100
AcDbSortentsTable
330
2F2
  0
SORTENTSTABLE
  5
6BA
102
{ACAD_REACTORS
330
6B9
102
}
330
6B9
100
AcDbSortentsTable
330
67F
  0
DIMASSOC
  5
699
102
{ACAD_REACTORS
330
698
102
}
330
698
100
AcDbDimAssoc
330
697
 90
        3
 70
     0
 71
     0
  1
AcDbOsnapPointRef
 72
     1
331
688
 73
     2
 91
        0
 40
1.0
 10
0.0
 20
0.0
 30
2.000000000000000E+50
 75
     0
  1
AcDbOsnapPointRef
 72
    13
331
688
 73
     2
 91
        0
 40
0.0
 10
0.0
 20
0.0
 30
2.000000000000000E+50
 75
     0
  0
DIMASSOC
  5
69C
102
{ACAD_REACTORS
330
69B
102
}
330
69B
100
AcDbDimAssoc
330
69A
 90
        2
 70
     0
 71
     0
  1
AcDbOsnapPointRef
 72
    13
331
692
 73
     2
 91
        0
 40
0.0
 10
0.0
 20
0.0
 30
2.000000000000000E+50
 75
     0
  0
DIMASSOC
  5
6A0
102
{ACAD_REACTORS
330
69F
102
}
330
69F
100
AcDbDimAssoc
330
69E
 90
        1
 70
     0
 71
     0
  1
AcDbOsnapPointRef
 72
    11
331
687
 73
     2
 91
        0
 40
0.5833333333333334
 10
0.0
 20
0.0
 30
0.0
332
681
 74
     2
 92
        0
 75
     0
  0
DIMASSOC
  5
6A3
102
{ACAD_REACTORS
330
6A2
102
}
330
6A2
100
AcDbDimAssoc
330
6A1
 90
        3
 70
     0
 71
     0
  1
AcDbOsnapPointRef
 72
    10
331
680
 73
     2
 91
        0
 40
0.78484234402365
 10
0.0
 20
0.0
 30
0.0
 75
     0
  1
AcDbOsnapPointRef
 72
     8
331
681
 73
     2
 91
        0
 40
0.78484234402365
 10
0.0
 20
0.0
 30
0.0
 75
     1
  1
AcDbOsnapPointRef
 72
    10
331
680
 73
     2
 91
        0
 40
0.78484234402365
 10
0.0
 20
0.0
 30
0.0
 75
     0
  0
DIMASSOC
  5
6A6
102
{ACAD_REACTORS
330
6A5
102
}
330
6A5
100
AcDbDimAssoc
330
6A4
 90
        2
 70
     0
 71
     0
  1
AcDbOsnapPointRef
 72
     2
331
68F
 73
     2
 91
        0
 40
0.5
 10
0.0
 20
0.0
 30
0.0
 75
     0
  0
DIMASSOC
  5
6B8
102
{ACAD_REACTORS
330
6B7
102
}
330
6B7
100
AcDbDimAssoc
330
6B6
 90
        3
 70
     0
 71
     0
  1
AcDbOsnapPointRef
 72
     1
331
694
 73
     2
 91
        0
 40
1.0
 10
0.0
 20
0.0
 30
2.000000000000000E+50
 75
     0
  1
AcDbOsnapPointRef
 72
    10
331
686
 73
     2
 91
        0
 40
0.472303641932307
 10
0.0
 20
0.0
 30
0.0
 75
     0
  0
DIMASSOC
  5
3E2
102
{ACAD_REACTORS
330
3E1
102
}
330
3E1
100
AcDbDimAssoc
330
3E0
 90
        3
 70
     0
 71
     0
  1
AcDbOsnapPointRef
 72
     1
331
3D1
 73
     2
 91
        0
 40
1.0
 10
0.0
 20
0.0
 30
2.000000000000000E+50
 75
     0
  1
AcDbOsnapPointRef
 72
    13
331
3D1
 73
     2
 91
        0
 40
0.0
 10
0.0
 20
0.0
 30
2.000000000000000E+50
 75
     0
  0
ACDBDETAILVIEWSTYLE
  5
21C
102
{ACAD_XDICTIONARY
360
75C
102
}
102
{ACAD_REACTORS
330
21B
102
}
330
21B
100
AcDbModelDocViewStyle
 70
     0
  3
Metric50
290
     0
100
AcDbDetailViewStyle
 70
     0
 71
     0
 90
        3
 71
     1
340
11
 62
   256
 40
5.0
340
0
 62
   256
 40
5.0
300

 40
0.0
280
     1
 71
     2
340
16
 90
       25
 62
   256
 71
     3
340
11
 62
   256
 40
5.0
 90
        0
 40
15.0
 90
        1
300
%<\AcVar ViewDetailId>% (%<\AcVar ViewScale \f "%sn">%)
 71
     4
340
16
 90
       25
 62
   256
340
16
 90
       25
 62
   256
280
     0
  0
LAYOUT
  5
22
102
{ACAD_XDICTIONARY
360
205
102
}
102
{ACAD_REACTORS
330
1A
102
}
330
1A
100
AcDbPlotSettings
  1

  2
none_device
  4
ISO_A4_(210.00_x_297.00_MM)
  6

 40
7.5
 41
20.0
 42
7.5
 43
20.0
 44
210.0
 45
297.0
 46
11.54999923706054
 47
-13.65000009536743
 48
0.0
 49
0.0
140
0.0
141
0.0
142
1.0
143
8.704084754739808
 70
 11952
 72
     1
 73
     0
 74
     0
  7

 75
     0
147
0.1148885871608098
 76
     0
 77
     2
 78
   300
148
0.0
149
0.0
100
AcDbLayout
  1
Model
 70
     1
 71
     0
 10
0.0
 20
0.0
 11
12.0
 21
9.0
 12
0.0
 22
0.0
 32
0.0
 14
0.0
 24
0.0
 34
0.0
 15
0.0
 25
0.0
 35
0.0
146
0.0
 13
0.0
 23
0.0
 33
0.0
 16
1.0
 26
0.0
 36
0.0
 17
0.0
 27
1.0
 37
0.0
 76
     0
330
1F
331
EA
1001
ACAD_PSEXT
1000
None
1000
None
1000
Not applicable
1000
The layout will not be plotted unless a new plotter configuration name is selected.
1070
     0
  0
LAYOUT
  5
D3
102
{ACAD_REACTORS
330
1A
102
}
330
1A
100
AcDbPlotSettings
  1

  2
C:\Documents and Settings\basas\Application Data\Autodesk\AutoCAD 2005\R16.1\enu\plotters\Default Windows System Printer.pc3
  4

  6

 40
0.0
 41
0.0
 42
0.0
 43
0.0
 44
0.0
 45
0.0
 46
0.0
 47
0.0
 48
0.0
 49
0.0
140
0.0
141
0.0
142
1.0
143
1.0
 70
   688
 72
     0
 73
     0
 74
     5
  7

 75
    16
147
1.0
 76
     0
 77
     2
 78
   300
148
0.0
149
0.0
100
AcDbLayout
  1
布局1
 70
     1
 71
     1
 10
0.0
 20
0.0
 11
12.0
 21
9.0
 12
0.0
 22
0.0
 32
0.0
 14
0.0
 24
0.0
 34
0.0
 15
0.0
 25
0.0
 35
0.0
146
0.0
 13
0.0
 23
0.0
 33
0.0
 16
1.0
 26
0.0
 36
0.0
 17
0.0
 27
1.0
 37
0.0
 76
     0
330
D2
1001
AcadStringInfo
1000
MIFCodePage
1070
     5
  0
LAYOUT
  5
D7
102
{ACAD_REACTORS
330
1A
102
}
330
1A
100
AcDbPlotSettings
  1

  2
C:\Documents and Settings\basas\Application Data\Autodesk\AutoCAD 2005\R16.1\enu\plotters\Default Windows System Printer.pc3
  4

  6

 40
0.0
 41
0.0
 42
0.0
 43
0.0
 44
0.0
 45
0.0
 46
0.0
 47
0.0
 48
0.0
 49
0.0
140
0.0
141
0.0
142
1.0
143
1.0
 70
   688
 72
     0
 73
     0
 74
     5
  7

 75
    16
147
1.0
 76
     0
 77
     2
 78
   300
148
0.0
149
0.0
100
AcDbLayout
  1
布局2
 70
     1
 71
     2
 10
0.0
 20
0.0
 11
12.0
 21
9.0
 12
0.0
 22
0.0
 32
0.0
 14
0.0
 24
0.0
 34
0.0
 15
0.0
 25
0.0
 35
0.0
146
0.0
 13
0.0
 23
0.0
 33
0.0
 16
1.0
 26
0.0
 36
0.0
 17
0.0
 27
1.0
 37
0.0
 76
     0
330
D6
1001
AcadStringInfo
1000
MIFCodePage
1070
     5
  0
MATERIAL
  5
ED
102
{ACAD_XDICTIONARY
360
1F9
102
}
102
{ACAD_REACTORS
330
6A
102
}
330
6A
100
AcDbMaterial
  1
ByBlock
 94
       63
  0
MATERIAL
  5
EC
102
{ACAD_XDICTIONARY
360
1F7
102
}
102
{ACAD_REACTORS
330
6A
102
}
330
6A
100
AcDbMaterial
  1
ByLayer
 94
       63
  0
MATERIAL
  5
EE
102
{ACAD_XDICTIONARY
360
173
102
}
102
{ACAD_REACTORS
330
6A
102
}
330
6A
100
AcDbMaterial
  1
Global
 43
0.0007999999797903
 43
0.0
 43
0.0
 43
0.0
 43
0.0
 43
0.0007999999797903
 43
0.0
 43
0.0
 43
0.0
 43
0.0
 43
1.0
 43
0.0
 43
0.0
 43
0.0
 43
0.0
 43
1.0
 49
0.0007999999797903
 49
0.0
 49
0.0
 49
0.0
 49
0.0
 49
0.0007999999797903
 49
0.0
 49
0.0
 49
0.0
 49
0.0
 49
1.0
 49
0.0
 49
0.0
 49
0.0
 49
0.0
 49
1.0
142
0.0007999999797903
142
0.0
142
0.0
142
0.0
142
0.0
142
0.0007999999797903
142
0.0
142
0.0
142
0.0
142
0.0
142
1.0
142
0.0
142
0.0
142
0.0
142
0.0
142
1.0
144
0.0007999999797903
144
0.0
144
0.0
144
0.0
144
0.0
144
0.0007999999797903
144
0.0
144
0.0
144
0.0
144
0.0
144
1.0
144
0.0
144
0.0
144
0.0
144
0.0
144
1.0
 94
       63
1001
ACAD
1070
    -1
1070
     3
1070
     0
1000

1071
        0
1070
     0
  0
MLEADERSTYLE
  5
13B
102
{ACAD_REACTORS
330
12D
102
}
330
12D
100
AcDbMLeaderStyle
179
     2
170
     2
171
     1
172
     0
 90
        2
 40
0.0
 41
0.0
173
     1
 91
-1056964608
340
14
 92
       -2
290
     1
 42
2.0
291
     1
 43
8.0
  3
Standard
 44
4.0
300

342
11
174
     1
178
     1
175
     1
176
     0
 93
-1056964608
 45
4.0
292
     0
297
     0
 46
4.0
 94
-1056964608
 47
1.0
 49
1.0
140
1.0
293
     1
141
0.0
294
     1
177
     0
142
1.0
295
     0
296
     1
143
3.75
271
     0
272
     9
273
     9
298
     0
  0
MLEADERSTYLE
  5
12E
102
{ACAD_REACTORS
330
12D
102
}
330
12D
100
AcDbMLeaderStyle
179
     2
170
     2
171
     1
172
     0
 90
        2
 40
0.0
 41
0.0
173
     1
 91
-1056964608
340
14
 92
       -2
290
     1
 42
2.0
291
     1
 43
8.0
  3
Standard
 44
4.0
300

342
11
174
     1
178
     1
175
     1
176
     0
 93
-1056964608
 45
4.0
292
     0
297
     0
 46
4.0
 94
-1056964608
 47
1.0
 49
1.0
140
1.0
293
     1
141
0.0
294
     1
177
     0
142
1.0
295
     0
296
     0
143
3.75
271
     0
272
     9
273
     9
298
     0
  0
MLINESTYLE
  5
18
102
{ACAD_REACTORS
330
17
102
}
330
17
100
AcDbMlineStyle
  2
STANDARD
 70
     0
  3

 62
   256
 51
90.0
 52
90.0
 71
     2
 49
0.5
 62
   256
  6
BYLAYER
 49
-0.5
 62
   256
  6
BYLAYER
  0
ACDBPLACEHOLDER
  5
F
102
{ACAD_REACTORS
330
E
102
}
330
E
  0
SCALE
  5
10D
102
{ACAD_REACTORS
330
10C
102
}
330
10C
100
AcDbScale
 70
     0
300
1:1
140
1.0
141
1.0
290
     1
  0
SCALE
  5
1BE
102
{ACAD_REACTORS
330
10C
102
}
330
10C
100
AcDbScale
 70
     0
300
1:2
140
1.0
141
2.0
290
     0
  0
SCALE
  5
1BF
102
{ACAD_REACTORS
330
10C
102
}
330
10C
100
AcDbScale
 70
     0
300
1:4
140
1.0
141
4.0
290
     0
  0
SCALE
  5
1C0
102
{ACAD_REACTORS
330
10C
102
}
330
10C
100
AcDbScale
 70
     0
300
1:5
140
1.0
141
5.0
290
     0
  0
SCALE
  5
1C1
102
{ACAD_REACTORS
330
10C
102
}
330
10C
100
AcDbScale
 70
     0
300
1:8
140
1.0
141
8.0
290
     0
  0
SCALE
  5
1C2
102
{ACAD_REACTORS
330
10C
102
}
330
10C
100
AcDbScale
 70
     0
300
1:10
140
1.0
141
10.0
290
     0
  0
SCALE
  5
1C3
102
{ACAD_REACTORS
330
10C
102
}
330
10C
100
AcDbScale
 70
     0
300
1:16
140
1.0
141
16.0
290
     0
  0
SCALE
  5
1C4
102
{ACAD_REACTORS
330
10C
102
}
330
10C
100
AcDbScale
 70
     0
300
1:20
140
1.0
141
20.0
290
     0
  0
SCALE
  5
1C5
102
{ACAD_REACTORS
330
10C
102
}
330
10C
100
AcDbScale
 70
     0
300
1:30
140
1.0
141
30.0
290
     0
  0
SCALE
  5
1C6
102
{ACAD_REACTORS
330
10C
102
}
330
10C
100
AcDbScale
 70
     0
300
1:40
140
1.0
141
40.0
290
     0
  0
SCALE
  5
1C7
102
{ACAD_REACTORS
330
10C
102
}
330
10C
100
AcDbScale
 70
     0
300
1:50
140
1.0
141
50.0
290
     0
  0
SCALE
  5
1C8
102
{ACAD_REACTORS
330
10C
102
}
330
10C
100
AcDbScale
 70
     0
300
1:100
140
1.0
141
100.0
290
     0
  0
SCALE
  5
1C9
102
{ACAD_REACTORS
330
10C
102
}
330
10C
100
AcDbScale
 70
     0
300
2:1
140
2.0
141
1.0
290
     0
  0
SCALE
  5
1CA
102
{ACAD_REACTORS
330
10C
102
}
330
10C
100
AcDbScale
 70
     0
300
4:1
140
4.0
141
1.0
290
     0
  0
SCALE
  5
1CB
102
{ACAD_REACTORS
330
10C
102
}
330
10C
100
AcDbScale
 70
     0
300
8:1
140
8.0
141
1.0
290
     0
  0
SCALE
  5
1CC
102
{ACAD_REACTORS
330
10C
102
}
330
10C
100
AcDbScale
 70
     0
300
10:1
140
10.0
141
1.0
290
     0
  0
SCALE
  5
1CD
102
{ACAD_REACTORS
330
10C
102
}
330
10C
100
AcDbScale
 70
     0
300
100:1
140
100.0
141
1.0
290
     0
  0
ACDBSECTIONVIEWSTYLE
  5
21A
102
{ACAD_XDICTIONARY
360
75A
102
}
102
{ACAD_REACTORS
330
219
102
}
330
219
100
AcDbModelDocViewStyle
 70
     0
  3
Metric50
290
     0
100
AcDbSectionViewStyle
 70
     0
 71
     0
 90
      102
 71
     1
340
11
 62
   256
 40
5.0
340
0
340
0
 62
   256
 40
5.0
300
I, O, Q, S, X, Z
 40
10.0
 90
        0
 40
2.5
 90
        0
 71
     2
340
16
 90
       25
 62
   256
340
16
 90
       50
 62
   256
 40
5.0
 40
2.5
 40
5.0
 71
     3
340
11
 62
   256
 40
5.0
 90
        0
 40
15.0
 90
        1
300
%<\AcVar ViewSectionStartId>%-%<\AcVar ViewSectionEndId>% (%<\AcVar ViewScale \f "%sn">%)
 71
     4
 62
   256
 62
   257
300
ANSI31
 40
1.0
 90
        0
290
     0
290
     0
 90
        6
 40
0.0
 40
1.570796326794896
 40
0.2617993877991494
 40
1.308996938995747
 40
-0.2617993877991494
 40
1.832595714594046
  0
TABLESTYLE
  5
7F
102
{ACAD_XDICTIONARY
360
162
102
}
102
{ACAD_REACTORS
330
7E
102
}
330
7E
100
AcDbTableStyle
280
     0
  3
Standard
 70
     0
 71
     0
 40
1.5
 41
1.5
280
     0
281
     0
  7
Standard
140
4.5
170
     2
 62
     0
 63
     7
283
     0
 90
      512
 91
        0
  1

274
    -2
284
     1
 64
     0
275
    -2
285
     1
 65
     0
276
    -2
286
     1
 66
     0
277
    -2
287
     1
 67
     0
278
    -2
288
     1
 68
     0
279
    -2
289
     1
 69
     0
  7
Standard
140
6.0
170
     5
 62
     0
 63
     7
283
     0
 90
      512
 91
        0
  1

274
    -2
284
     1
 64
     0
275
    -2
285
     1
 65
     0
276
    -2
286
     1
 66
     0
277
    -2
287
     1
 67
     0
278
    -2
288
     1
 68
     0
279
    -2
289
     1
 69
     0
  7
Standard
140
4.5
170
     5
 62
     0
 63
     7
283
     0
 90
      512
 91
        0
  1

274
    -2
284
     1
 64
     0
275
    -2
285
     1
 65
     0
276
    -2
286
     1
 66
     0
277
    -2
287
     1
 67
     0
278
    -2
288
     1
 68
     0
279
    -2
289
     1
 69
     0
  0
VISUALSTYLE
  5
F5
102
{ACAD_REACTORS
330
EF
102
}
330
EF
100
AcDbVisualStyle
  2
2dWireframe
 70
     4
177
     3
291
     0
 70
    58
 90
        0
176
     1
 90
        2
176
     1
 90
        1
176
     1
 90
        0
176
     1
 40
0.6
176
     1
 40
30.0
176
     1
 62
     7
420
 16777215
176
     1
 90
        1
176
     1
 90
        4
176
     1
 62
     7
176
     1
 62
   257
176
     1
 90
        1
176
     1
 90
        1
176
     1
 40
1.0
176
     1
 90
        0
176
     1
 62
   257
176
     1
 40
1.0
176
     1
 90
        1
176
     1
 90
        6
176
     1
 90
        2
176
     1
 62
     7
176
     1
 90
        5
176
     1
 90
        0
176
     1
 90
        0
176
     1
290
     0
176
     1
 90
        1
176
     1
 40
0.0
176
     1
 90
        0
176
     1
290
     1
176
     1
290
     1
176
     1
290
     0
176
     1
290
     0
176
     1
290
     0
176
     1
290
     0
176
     1
290
     0
176
     1
290
     0
176
     1
290
     0
176
     1
 90
       50
176
     1
 40
0.0
176
     1
 40
1.0
176
     1
 90
        0
176
     1
 62
    18
420
        0
176
     1
 90
       50
176
     1
 90
        3
176
     1
 62
     5
420
      255
176
     1
290
     0
176
     1
 90
       50
176
     1
 90
       50
176
     1
 90
       50
176
     1
290
     0
176
     1
 90
       50
176
     1
 62
   256
176
     0
 40
1.0
176
     0
 90
        2
176
     1
  1
strokes_ogs.tif
176
     1
290
     0
176
     1
 40
1.0
176
     1
 40
1.0
176
     1
1001
ACAD
1000
AcDbSavedByObjectVersion
1070
     0
  0
VISUALSTYLE
  5
F4
102
{ACAD_REACTORS
330
EF
102
}
330
EF
100
AcDbVisualStyle
  2
Basic
 70
     7
177
     3
291
     1
 70
    58
 90
        1
176
     1
 90
        0
176
     1
 90
        1
176
     1
 90
        0
176
     1
 40
0.6
176
     1
 40
30.0
176
     1
 62
     7
420
 16777215
176
     1
 90
        0
176
     1
 90
        4
176
     1
 62
     7
176
     1
 62
   257
176
     1
 90
        1
176
     1
 90
        1
176
     1
 40
1.0
176
     1
 90
        8
176
     1
 62
     7
176
     1
 40
1.0
176
     1
 90
        1
176
     1
 90
        6
176
     1
 90
        2
176
     1
 62
     7
176
     1
 90
        5
176
     1
 90
        0
176
     1
 90
        0
176
     1
290
     0
176
     1
 90
        1
176
     1
 40
0.0
176
     1
 90
        0
176
     1
290
     0
176
     1
290
     1
176
     1
290
     1
176
     1
290
     0
176
     1
290
     0
176
     1
290
     0
176
     1
290
     0
176
     1
290
     0
176
     1
290
     0
176
     1
 90
       50
176
     1
 40
0.0
176
     1
 40
1.0
176
     1
 90
        0
176
     1
 62
    18
420
        0
176
     1
 90
       50
176
     1
 90
        3
176
     1
 62
     5
420
      255
176
     1
290
     0
176
     1
 90
       50
176
     1
 90
       50
176
     1
 90
       50
176
     1
290
     0
176
     1
 90
       50
176
     1
 62
   256
176
     0
 40
1.0
176
     0
 90
        2
176
     1
  1
strokes_ogs.tif
176
     1
290
     0
176
     1
 40
1.0
176
     1
 40
1.0
176
     1
1001
ACAD
1000
AcDbSavedByObjectVersion
1070
     0
  0
VISUALSTYLE
  5
FB
102
{ACAD_REACTORS
330
EF
102
}
330
EF
100
AcDbVisualStyle
  2
Brighten
 70
    12
177
     3
291
     1
 70
    58
 90
        2
176
     1
 90
        2
176
     1
 90
        1
176
     1
 90
        0
176
     1
 40
0.6
176
     1
 40
30.0
176
     1
 62
     7
420
 16777215
176
     1
 90
        1
176
     1
 90
        4
176
     1
 62
     7
176
     1
 62
   257
176
     1
 90
        1
176
     1
 90
        1
176
     1
 40
1.0
176
     1
 90
        8
176
     1
 62
     7
176
     1
 40
1.0
176
     1
 90
        1
176
     1
 90
        6
176
     1
 90
        2
176
     1
 62
     7
176
     1
 90
        5
176
     1
 90
        0
176
     1
 90
        0
176
     1
290
     0
176
     1
 90
        1
176
     1
 40
50.0
176
     1
 90
        0
176
     1
290
     0
176
     1
290
     1
176
     1
290
     1
176
     1
290
     0
176
     1
290
     0
176
     1
290
     0
176
     1
290
     0
176
     1
290
     0
176
     1
290
     0
176
     1
 90
       50
176
     1
 40
0.0
176
     1
 40
1.0
176
     1
 90
        0
176
     1
 62
    18
420
        0
176
     1
 90
       50
176
     1
 90
        3
176
     1
 62
     5
420
      255
176
     1
290
     0
176
     1
 90
       50
176
     1
 90
       50
176
     1
 90
       50
176
     1
290
     0
176
     1
 90
       50
176
     1
 62
   256
176
     0
 40
1.0
176
     0
 90
        2
176
     1
  1
strokes_ogs.tif
176
     1
290
     0
176
     1
 40
1.0
176
     1
 40
1.0
176
     1
1001
ACAD
1000
AcDbSavedByObjectVersion
1070
     0
  0
VISUALSTYLE
  5
FF
102
{ACAD_REACTORS
330
EF
102
}
330
EF
100
AcDbVisualStyle
  2
ColorChange
 70
    16
177
     3
291
     1
 70
    58
 90
        2
176
     1
 90
        2
176
     1
 90
        3
176
     1
 90
        0
176
     1
 40
0.6
176
     1
 40
30.0
176
     1
 62
     8
420
  8421504
176
     1
 90
        1
176
     1
 90
        4
176
     1
 62
     7
176
     1
 62
   257
176
     1
 90
        1
176
     1
 90
        1
176
     1
 40
1.0
176
     1
 90
        8
176
     1
 62
     8
420
  8421504
176
     1
 40
1.0
176
     1
 90
        1
176
     1
 90
        6
176
     1
 90
        2
176
     1
 62
     7
176
     1
 90
        5
176
     1
 90
        0
176
     1
 90
        0
176
     1
290
     0
176
     1
 90
        1
176
     1
 40
0.0
176
     1
 90
        0
176
     1
290
     0
176
     1
290
     1
176
     1
290
     1
176
     1
290
     0
176
     1
290
     0
176
     1
290
     0
176
     1
290
     0
176
     1
290
     0
176
     1
290
     0
176
     1
 90
       50
176
     1
 40
0.0
176
     1
 40
1.0
176
     1
 90
        0
176
     1
 62
    18
420
        0
176
     1
 90
       50
176
     1
 90
        3
176
     1
 62
     5
420
      255
176
     1
290
     0
176
     1
 90
       50
176
     1
 90
       50
176
     1
 90
       50
176
     1
290
     0
176
     1
 90
       50
176
     1
 62
   256
176
     0
 40
1.0
176
     0
 90
        2
176
     1
  1
strokes_ogs.tif
176
     1
290
     0
176
     1
 40
1.0
176
     1
 40
1.0
176
     1
1001
ACAD
1000
AcDbSavedByObjectVersion
1070
     0
  0
VISUALSTYLE
  5
F8
102
{ACAD_REACTORS
330
EF
102
}
330
EF
100
AcDbVisualStyle
  2
Conceptual
 70
     9
177
     3
291
     0
 70
    58
 90
        3
176
     1
 90
        2
176
     1
 90
        1
176
     1
 90
        0
176
     1
 40
0.6
176
     1
 40
30.0
176
     1
 62
     7
420
 16777215
176
     1
 90
        2
176
     1
 90
        2
176
     1
 62
     7
176
     1
 62
   257
176
     1
 90
        1
176
     1
 90
        1
176
     1
 40
40.0
176
     1
 90
        8
176
     1
 62
     7
176
     1
 40
1.0
176
     1
 90
        1
176
     1
 90
        6
176
     1
 90
        2
176
     1
 62
     7
176
     1
 90
        3
176
     1
 90
        0
176
     1
 90
        0
176
     1
290
     0
176
     1
 90
        1
176
     1
 40
0.0
176
     1
 90
        0
176
     1
290
     0
176
     1
290
     1
176
     1
290
     1
176
     1
290
     0
176
     1
290
     0
176
     1
290
     0
176
     1
290
     0
176
     1
290
     0
176
     1
290
     0
176
     1
 90
       50
176
     1
 40
0.0
176
     1
 40
1.0
176
     1
 90
        0
176
     1
 62
    18
420
        0
176
     1
 90
       50
176
     1
 90
        3
176
     1
 62
     5
420
      255
176
     1
290
     0
176
     1
 90
       50
176
     1
 90
       50
176
     1
 90
       50
176
     1
290
     0
176
     1
 90
       50
176
     1
 62
   256
176
     0
 40
1.0
176
     0
 90
        2
176
     1
  1
strokes_ogs.tif
176
     1
290
     0
176
     1
 40
1.0
176
     1
 40
1.0
176
     1
1001
ACAD
1000
AcDbSavedByObjectVersion
1070
     0
  0
VISUALSTYLE
  5
FA
102
{ACAD_REACTORS
330
EF
102
}
330
EF
100
AcDbVisualStyle
  2
Dim
 70
    11
177
     3
291
     1
 70
    58
 90
        2
176
     1
 90
        2
176
     1
 90
        1
176
     1
 90
        0
176
     1
 40
0.6
176
     1
 40
30.0
176
     1
 62
     7
420
 16777215
176
     1
 90
        1
176
     1
 90
        4
176
     1
 62
     7
176
     1
 62
   257
176
     1
 90
        1
176
     1
 90
        1
176
     1
 40
1.0
176
     1
 90
        8
176
     1
 62
     7
176
     1
 40
1.0
176
     1
 90
        1
176
     1
 90
        6
176
     1
 90
        2
176
     1
 62
     7
176
     1
 90
        5
176
     1
 90
        0
176
     1
 90
        0
176
     1
290
     0
176
     1
 90
        1
176
     1
 40
-50.0
176
     1
 90
        0
176
     1
290
     0
176
     1
290
     1
176
     1
290
     1
176
     1
290
     0
176
     1
290
     0
176
     1
290
     0
176
     1
290
     0
176
     1
290
     0
176
     1
290
     0
176
     1
 90
       50
176
     1
 40
0.0
176
     1
 40
1.0
176
     1
 90
        0
176
     1
 62
    18
420
        0
176
     1
 90
       50
176
     1
 90
        3
176
     1
 62
     5
420
      255
176
     1
290
     0
176
     1
 90
       50
176
     1
 90
       50
176
     1
 90
       50
176
     1
290
     0
176
     1
 90
       50
176
     1
 62
   256
176
     0
 40
1.0
176
     0
 90
        2
176
     1
  1
strokes_ogs.tif
176
     1
290
     0
176
     1
 40
1.0
176
     1
 40
1.0
176
     1
1001
ACAD
1000
AcDbSavedByObjectVersion
1070
     0
  0
VISUALSTYLE
  5
1E6
102
{ACAD_REACTORS
330
EF
102
}
330
EF
100
AcDbVisualStyle
  2
EdgeColorOff
 70
    22
177
     3
291
     1
 70
    58
 90
        2
176
     0
 90
        2
176
     0
 90
        0
176
     0
 90
        0
176
     0
 40
0.6
176
     0
 40
30.0
176
     0
 62
     7
420
 16777215
176
     0
 90
        1
176
     0
 90
        4
176
     0
 62
     7
176
     0
 62
   257
176
     0
 90
        1
176
     0
 90
        1
176
     0
 40
1.0
176
     0
 90
        8
176
     2
 62
     7
176
     0
 40
1.0
176
     0
 90
        1
176
     0
 90
        6
176
     0
 90
        2
176
     0
 62
     7
176
     0
 90
        5
176
     0
 90
        0
176
     0
 90
        0
176
     0
290
     0
176
     0
 90
        1
176
     0
 40
0.0
176
     0
 90
        0
176
     0
290
     0
176
     1
290
     1
176
     1
290
     1
176
     1
290
     0
176
     1
290
     0
176
     1
290
     0
176
     1
290
     0
176
     1
290
     0
176
     1
290
     0
176
     1
 90
       50
176
     1
 40
0.0
176
     1
 40
1.0
176
     1
 90
        0
176
     1
 62
    18
420
        0
176
     1
 90
       50
176
     1
 90
        3
176
     1
 62
     5
420
      255
176
     1
290
     0
176
     1
 90
       50
176
     1
 90
       50
176
     1
 90
       50
176
     1
290
     0
176
     1
 90
       50
176
     1
 62
   256
176
     0
 40
1.0
176
     0
 90
        2
176
     1
  1
strokes_ogs.tif
176
     1
290
     0
176
     1
 40
1.0
176
     1
 40
1.0
176
     1
1001
ACAD
1000
AcDbSavedByObjectVersion
1070
     0
  0
VISUALSTYLE
  5
FE
102
{ACAD_REACTORS
330
EF
102
}
330
EF
100
AcDbVisualStyle
  2
Facepattern
 70
    15
177
     3
291
     1
 70
    58
 90
        2
176
     1
 90
        2
176
     1
 90
        1
176
     1
 90
        0
176
     1
 40
0.6
176
     1
 40
30.0
176
     1
 62
     7
420
 16777215
176
     1
 90
        1
176
     1
 90
        4
176
     1
 62
     7
176
     1
 62
   257
176
     1
 90
        1
176
     1
 90
        1
176
     1
 40
1.0
176
     1
 90
        8
176
     1
 62
     7
176
     1
 40
1.0
176
     1
 90
        1
176
     1
 90
        6
176
     1
 90
        2
176
     1
 62
     7
176
     1
 90
        5
176
     1
 90
        0
176
     1
 90
        0
176
     1
290
     0
176
     1
 90
        1
176
     1
 40
0.0
176
     1
 90
        0
176
     1
290
     0
176
     1
290
     1
176
     1
290
     1
176
     1
290
     0
176
     1
290
     0
176
     1
290
     0
176
     1
290
     0
176
     1
290
     0
176
     1
290
     0
176
     1
 90
       50
176
     1
 40
0.0
176
     1
 40
1.0
176
     1
 90
        0
176
     1
 62
    18
420
        0
176
     1
 90
       50
176
     1
 90
        3
176
     1
 62
     5
420
      255
176
     1
290
     0
176
     1
 90
       50
176
     1
 90
       50
176
     1
 90
       50
176
     1
290
     0
176
     1
 90
       50
176
     1
 62
   256
176
     0
 40
1.0
176
     0
 90
        2
176
     1
  1
strokes_ogs.tif
176
     1
290
     0
176
     1
 40
1.0
176
     1
 40
1.0
176
     1
1001
ACAD
1000
AcDbSavedByObjectVersion
1070
     0
  0
VISUALSTYLE
  5
F0
102
{ACAD_REACTORS
330
EF
102
}
330
EF
100
AcDbVisualStyle
  2
Flat
 70
     0
177
     3
291
     1
 70
    58
 90
        2
176
     1
 90
        1
176
     1
 90
        1
176
     1
 90
        2
176
     1
 40
0.6
176
     1
 40
30.0
176
     1
 62
     7
420
 16777215
176
     1
 90
        0
176
     1
 90
        0
176
     1
 62
     7
176
     1
 62
   257
176
     1
 90
        1
176
     1
 90
        1
176
     1
 40
1.0
176
     1
 90
        8
176
     1
 62
     7
176
     1
 40
1.0
176
     1
 90
        1
176
     1
 90
        6
176
     1
 90
        2
176
     1
 62
     7
176
     1
 90
        5
176
     1
 90
        0
176
     1
 90
        0
176
     1
290
     0
176
     1
 90
       13
176
     1
 40
0.0
176
     1
 90
        0
176
     1
290
     0
176
     1
290
     1
176
     1
290
     1
176
     1
290
     0
176
     1
290
     0
176
     1
290
     0
176
     1
290
     0
176
     1
290
     0
176
     1
290
     0
176
     1
 90
       50
176
     1
 40
0.0
176
     1
 40
1.0
176
     1
 90
        0
176
     1
 62
    18
420
        0
176
     1
 90
       50
176
     1
 90
        3
176
     1
 62
     5
420
      255
176
     1
290
     0
176
     1
 90
       50
176
     1
 90
       50
176
     1
 90
       50
176
     1
290
     0
176
     1
 90
       50
176
     1
 62
   256
176
     0
 40
1.0
176
     0
 90
        2
176
     1
  1
strokes_ogs.tif
176
     1
290
     0
176
     1
 40
1.0
176
     1
 40
1.0
176
     1
1001
ACAD
1000
AcDbSavedByObjectVersion
1070
     0
  0
VISUALSTYLE
  5
F1
102
{ACAD_REACTORS
330
EF
102
}
330
EF
100
AcDbVisualStyle
  2
FlatWithEdges
 70
     1
177
     3
291
     1
 70
    58
 90
        2
176
     1
 90
        1
176
     1
 90
        1
176
     1
 90
        2
176
     1
 40
0.6
176
     1
 40
30.0
176
     1
 62
     7
420
 16777215
176
     1
 90
        1
176
     1
 90
        0
176
     1
 62
     7
176
     1
 62
   257
176
     1
 90
        1
176
     1
 90
        1
176
     1
 40
1.0
176
     1
 90
        0
176
     1
 62
   257
176
     1
 40
1.0
176
     1
 90
        1
176
     1
 90
        6
176
     1
 90
        2
176
     1
 62
     7
176
     1
 90
        5
176
     1
 90
        0
176
     1
 90
        0
176
     1
290
     0
176
     1
 90
       13
176
     1
 40
0.0
176
     1
 90
        0
176
     1
290
     0
176
     1
290
     1
176
     1
290
     1
176
     1
290
     0
176
     1
290
     0
176
     1
290
     0
176
     1
290
     0
176
     1
290
     0
176
     1
290
     0
176
     1
 90
       50
176
     1
 40
0.0
176
     1
 40
1.0
176
     1
 90
        0
176
     1
 62
    18
420
        0
176
     1
 90
       50
176
     1
 90
        3
176
     1
 62
     5
420
      255
176
     1
290
     0
176
     1
 90
       50
176
     1
 90
       50
176
     1
 90
       50
176
     1
290
     0
176
     1
 90
       50
176
     1
 62
   256
176
     0
 40
1.0
176
     0
 90
        2
176
     1
  1
strokes_ogs.tif
176
     1
290
     0
176
     1
 40
1.0
176
     1
 40
1.0
176
     1
1001
ACAD
1000
AcDbSavedByObjectVersion
1070
     0
  0
VISUALSTYLE
  5
F2
102
{ACAD_REACTORS
330
EF
102
}
330
EF
100
AcDbVisualStyle
  2
Gouraud
 70
     2
177
     3
291
     1
 70
    58
 90
        2
176
     1
 90
        2
176
     1
 90
        1
176
     1
 90
        2
176
     1
 40
0.6
176
     1
 40
30.0
176
     1
 62
     7
420
 16777215
176
     1
 90
        0
176
     1
 90
        0
176
     1
 62
     7
176
     1
 62
   257
176
     1
 90
        1
176
     1
 90
        1
176
     1
 40
1.0
176
     1
 90
        0
176
     1
 62
     7
176
     1
 40
1.0
176
     1
 90
        1
176
     1
 90
        6
176
     1
 90
        2
176
     1
 62
     7
176
     1
 90
        5
176
     1
 90
        0
176
     1
 90
        0
176
     1
290
     0
176
     1
 90
       13
176
     1
 40
0.0
176
     1
 90
        0
176
     1
290
     0
176
     1
290
     1
176
     1
290
     1
176
     1
290
     0
176
     1
290
     0
176
     1
290
     0
176
     1
290
     0
176
     1
290
     0
176
     1
290
     0
176
     1
 90
       50
176
     1
 40
0.0
176
     1
 40
1.0
176
     1
 90
        0
176
     1
 62
    18
420
        0
176
     1
 90
       50
176
     1
 90
        3
176
     1
 62
     5
420
      255
176
     1
290
     0
176
     1
 90
       50
176
     1
 90
       50
176
     1
 90
       50
176
     1
290
     0
176
     1
 90
       50
176
     1
 62
   256
176
     0
 40
1.0
176
     0
 90
        2
176
     1
  1
strokes_ogs.tif
176
     1
290
     0
176
     1
 40
1.0
176
     1
 40
1.0
176
     1
1001
ACAD
1000
AcDbSavedByObjectVersion
1070
     0
  0
VISUALSTYLE
  5
F3
102
{ACAD_REACTORS
330
EF
102
}
330
EF
100
AcDbVisualStyle
  2
GouraudWithEdges
 70
     3
177
     3
291
     1
 70
    58
 90
        2
176
     1
 90
        2
176
     1
 90
        1
176
     1
 90
        2
176
     1
 40
0.6
176
     1
 40
30.0
176
     1
 62
     7
420
 16777215
176
     1
 90
        1
176
     1
 90
        0
176
     1
 62
     7
176
     1
 62
   257
176
     1
 90
        1
176
     1
 90
        1
176
     1
 40
1.0
176
     1
 90
        0
176
     1
 62
   257
176
     1
 40
1.0
176
     1
 90
        1
176
     1
 90
        6
176
     1
 90
        2
176
     1
 62
     7
176
     1
 90
        5
176
     1
 90
        0
176
     1
 90
        0
176
     1
290
     0
176
     1
 90
       13
176
     1
 40
0.0
176
     1
 90
        0
176
     1
290
     0
176
     1
290
     1
176
     1
290
     1
176
     1
290
     0
176
     1
290
     0
176
     1
290
     0
176
     1
290
     0
176
     1
290
     0
176
     1
290
     0
176
     1
 90
       50
176
     1
 40
0.0
176
     1
 40
1.0
176
     1
 90
        0
176
     1
 62
    18
420
        0
176
     1
 90
       50
176
     1
 90
        3
176
     1
 62
     5
420
      255
176
     1
290
     0
176
     1
 90
       50
176
     1
 90
       50
176
     1
 90
       50
176
     1
290
     0
176
     1
 90
       50
176
     1
 62
   256
176
     0
 40
1.0
176
     0
 90
        2
176
     1
  1
strokes_ogs.tif
176
     1
290
     0
176
     1
 40
1.0
176
     1
 40
1.0
176
     1
1001
ACAD
1000
AcDbSavedByObjectVersion
1070
     0
  0
VISUALSTYLE
  5
F7
102
{ACAD_REACTORS
330
EF
102
}
330
EF
100
AcDbVisualStyle
  2
Hidden
 70
     6
177
     3
291
     0
 70
    58
 90
        1
176
     1
 90
        2
176
     1
 90
        2
176
     1
 90
        0
176
     1
 40
0.6
176
     1
 40
30.0
176
     1
 62
     7
420
 16777215
176
     1
 90
        2
176
     1
 90
        2
176
     1
 62
     7
176
     1
 62
   257
176
     1
 90
        2
176
     1
 90
        1
176
     1
 40
40.0
176
     1
 90
        0
176
     1
 62
   257
176
     1
 40
1.0
176
     1
 90
        1
176
     1
 90
        6
176
     1
 90
        2
176
     1
 62
     7
176
     1
 90
        3
176
     1
 90
        0
176
     1
 90
        0
176
     1
290
     0
176
     1
 90
        1
176
     1
 40
0.0
176
     1
 90
        0
176
     1
290
     0
176
     1
290
     1
176
     1
290
     1
176
     1
290
     0
176
     1
290
     0
176
     1
290
     0
176
     1
290
     0
176
     1
290
     0
176
     1
290
     0
176
     1
 90
       50
176
     1
 40
0.0
176
     1
 40
1.0
176
     1
 90
        0
176
     1
 62
    18
420
        0
176
     1
 90
       50
176
     1
 90
        3
176
     1
 62
     5
420
      255
176
     1
290
     0
176
     1
 90
       50
176
     1
 90
       50
176
     1
 90
       50
176
     1
290
     0
176
     1
 90
       50
176
     1
 62
   256
176
     0
 40
1.0
176
     0
 90
        2
176
     1
  1
strokes_ogs.tif
176
     1
290
     0
176
     1
 40
1.0
176
     1
 40
1.0
176
     1
1001
ACAD
1000
AcDbSavedByObjectVersion
1070
     0
  0
VISUALSTYLE
  5
1E4
102
{ACAD_REACTORS
330
EF
102
}
330
EF
100
AcDbVisualStyle
  2
JitterOff
 70
    20
177
     3
291
     1
 70
    58
 90
        2
176
     0
 90
        2
176
     0
 90
        0
176
     0
 90
        0
176
     0
 40
0.6
176
     0
 40
30.0
176
     0
 62
     7
420
 16777215
176
     0
 90
        1
176
     0
 90
        4
176
     0
 62
     7
176
     0
 62
   257
176
     0
 90
        1
176
     0
 90
        1
176
     0
 40
1.0
176
     0
 90
       10
176
     2
 62
     7
176
     0
 40
1.0
176
     0
 90
        1
176
     0
 90
        6
176
     0
 90
        2
176
     0
 62
     7
176
     0
 90
        5
176
     0
 90
        0
176
     0
 90
        0
176
     0
290
     0
176
     0
 90
        1
176
     0
 40
0.0
176
     0
 90
        0
176
     0
290
     0
176
     1
290
     1
176
     1
290
     1
176
     1
290
     0
176
     1
290
     0
176
     1
290
     0
176
     1
290
     0
176
     1
290
     0
176
     1
290
     0
176
     1
 90
       50
176
     1
 40
0.0
176
     1
 40
1.0
176
     1
 90
        0
176
     1
 62
    18
420
        0
176
     1
 90
       50
176
     1
 90
        3
176
     1
 62
     5
420
      255
176
     1
290
     0
176
     1
 90
       50
176
     1
 90
       50
176
     1
 90
       50
176
     1
290
     0
176
     1
 90
       50
176
     1
 62
   256
176
     0
 40
1.0
176
     0
 90
        2
176
     1
  1
strokes_ogs.tif
176
     1
290
     0
176
     1
 40
1.0
176
     1
 40
1.0
176
     1
1001
ACAD
1000
AcDbSavedByObjectVersion
1070
     0
  0
VISUALSTYLE
  5
FD
102
{ACAD_REACTORS
330
EF
102
}
330
EF
100
AcDbVisualStyle
  2
Linepattern
 70
    14
177
     3
291
     1
 70
    58
 90
        2
176
     1
 90
        2
176
     1
 90
        1
176
     1
 90
        0
176
     1
 40
0.6
176
     1
 40
30.0
176
     1
 62
     7
420
 16777215
176
     1
 90
        1
176
     1
 90
        4
176
     1
 62
     7
176
     1
 62
   257
176
     1
 90
        7
176
     1
 90
        7
176
     1
 40
1.0
176
     1
 90
        8
176
     1
 62
     7
176
     1
 40
1.0
176
     1
 90
        1
176
     1
 90
        6
176
     1
 90
        2
176
     1
 62
     7
176
     1
 90
        5
176
     1
 90
        0
176
     1
 90
        0
176
     1
290
     0
176
     1
 90
        1
176
     1
 40
0.0
176
     1
 90
        0
176
     1
290
     0
176
     1
290
     1
176
     1
290
     1
176
     1
290
     0
176
     1
290
     0
176
     1
290
     0
176
     1
290
     0
176
     1
290
     0
176
     1
290
     0
176
     1
 90
       50
176
     1
 40
0.0
176
     1
 40
1.0
176
     1
 90
        0
176
     1
 62
    18
420
        0
176
     1
 90
       50
176
     1
 90
        3
176
     1
 62
     5
420
      255
176
     1
290
     0
176
     1
 90
       50
176
     1
 90
       50
176
     1
 90
       50
176
     1
290
     0
176
     1
 90
       50
176
     1
 62
   256
176
     0
 40
1.0
176
     0
 90
        2
176
     1
  1
strokes_ogs.tif
176
     1
290
     0
176
     1
 40
1.0
176
     1
 40
1.0
176
     1
1001
ACAD
1000
AcDbSavedByObjectVersion
1070
     0
  0
VISUALSTYLE
  5
1E5
102
{ACAD_REACTORS
330
EF
102
}
330
EF
100
AcDbVisualStyle
  2
OverhangOff
 70
    21
177
     3
291
     1
 70
    58
 90
        2
176
     0
 90
        2
176
     0
 90
        0
176
     0
 90
        0
176
     0
 40
0.6
176
     0
 40
30.0
176
     0
 62
     7
420
 16777215
176
     0
 90
        1
176
     0
 90
        4
176
     0
 62
     7
176
     0
 62
   257
176
     0
 90
        1
176
     0
 90
        1
176
     0
 40
1.0
176
     0
 90
        9
176
     2
 62
     7
176
     0
 40
1.0
176
     0
 90
        1
176
     0
 90
        6
176
     0
 90
        2
176
     0
 62
     7
176
     0
 90
        5
176
     0
 90
        0
176
     0
 90
        0
176
     0
290
     0
176
     0
 90
        1
176
     0
 40
0.0
176
     0
 90
        0
176
     0
290
     0
176
     1
290
     1
176
     1
290
     1
176
     1
290
     0
176
     1
290
     0
176
     1
290
     0
176
     1
290
     0
176
     1
290
     0
176
     1
290
     0
176
     1
 90
       50
176
     1
 40
0.0
176
     1
 40
1.0
176
     1
 90
        0
176
     1
 62
    18
420
        0
176
     1
 90
       50
176
     1
 90
        3
176
     1
 62
     5
420
      255
176
     1
290
     0
176
     1
 90
       50
176
     1
 90
       50
176
     1
 90
       50
176
     1
290
     0
176
     1
 90
       50
176
     1
 62
   256
176
     0
 40
1.0
176
     0
 90
        2
176
     1
  1
strokes_ogs.tif
176
     1
290
     0
176
     1
 40
1.0
176
     1
 40
1.0
176
     1
1001
ACAD
1000
AcDbSavedByObjectVersion
1070
     0
  0
VISUALSTYLE
  5
F9
102
{ACAD_REACTORS
330
EF
102
}
330
EF
100
AcDbVisualStyle
  2
Realistic
 70
     8
177
     3
291
     0
 70
    58
 90
        2
176
     1
 90
        2
176
     1
 90
        0
176
     1
 90
        2
176
     1
 40
0.6
176
     1
 40
30.0
176
     1
 62
     7
420
 16777215
176
     1
 90
        0
176
     1
 90
        0
176
     1
 62
     7
176
     1
 62
   257
176
     1
 90
        1
176
     1
 90
        1
176
     1
 40
1.0
176
     1
 90
        8
176
     1
 62
   257
176
     1
 40
1.0
176
     1
 90
        1
176
     1
 90
        6
176
     1
 90
        2
176
     1
 62
     7
176
     1
 90
        3
176
     1
 90
        0
176
     1
 90
        0
176
     1
290
     0
176
     1
 90
       13
176
     1
 40
0.0
176
     1
 90
        0
176
     1
290
     0
176
     1
290
     1
176
     1
290
     1
176
     1
290
     0
176
     1
290
     0
176
     1
290
     0
176
     1
290
     0
176
     1
290
     0
176
     1
290
     0
176
     1
 90
       50
176
     1
 40
0.0
176
     1
 40
1.0
176
     1
 90
        0
176
     1
 62
    18
420
        0
176
     1
 90
       50
176
     1
 90
        3
176
     1
 62
     5
420
      255
176
     1
290
     0
176
     1
 90
       50
176
     1
 90
       50
176
     1
 90
       50
176
     1
290
     0
176
     1
 90
       50
176
     1
 62
   256
176
     0
 40
1.0
176
     0
 90
        2
176
     1
  1
strokes_ogs.tif
176
     1
290
     0
176
     1
 40
1.0
176
     1
 40
1.0
176
     1
1001
ACAD
1000
AcDbSavedByObjectVersion
1070
     0
  0
VISUALSTYLE
  5
1F3
102
{ACAD_REACTORS
330
EF
102
}
330
EF
100
AcDbVisualStyle
  2
Shaded
 70
    27
177
     3
291
     0
 70
    58
 90
        2
176
     1
 90
        2
176
     1
 90
        1
176
     1
 90
        2
176
     1
 40
0.6
176
     1
 40
30.0
176
     1
 62
     7
420
 16777215
176
     1
 90
        0
176
     1
 90
        4
176
     1
 62
     7
176
     1
 62
   257
176
     1
 90
        1
176
     1
 90
        1
176
     1
 40
1.0
176
     1
 90
        8
176
     1
 62
   257
176
     1
 40
1.0
176
     1
 90
        1
176
     1
 90
        6
176
     1
 90
        2
176
     1
 62
     8
420
  7895160
176
     1
 90
        3
176
     1
 90
        0
176
     1
 90
        0
176
     1
290
     0
176
     1
 90
        5
176
     1
 40
0.0
176
     1
 90
        0
176
     1
290
     0
176
     1
290
     1
176
     1
290
     1
176
     1
290
     0
176
     1
290
     0
176
     1
290
     0
176
     1
290
     0
176
     1
290
     0
176
     1
290
     0
176
     1
 90
       50
176
     1
 40
0.0
176
     1
 40
1.0
176
     1
 90
        0
176
     1
 62
    18
420
        0
176
     1
 90
       50
176
     1
 90
        3
176
     1
 62
     5
420
      255
176
     1
290
     0
176
     1
 90
       50
176
     1
 90
       50
176
     1
 90
       50
176
     1
290
     0
176
     1
 90
       50
176
     1
 62
   256
176
     0
 40
1.0
176
     0
 90
        2
176
     1
  1
strokes_ogs.tif
176
     1
290
     0
176
     1
 40
1.0
176
     1
 40
1.0
176
     1
1001
ACAD
1000
AcDbSavedByObjectVersion
1070
     0
  0
VISUALSTYLE
  5
1F2
102
{ACAD_REACTORS
330
EF
102
}
330
EF
100
AcDbVisualStyle
  2
Shaded with edges
 70
    26
177
     3
291
     0
 70
    58
 90
        2
176
     1
 90
        2
176
     1
 90
        1
176
     1
 90
        2
176
     1
 40
0.6
176
     1
 40
30.0
176
     1
 62
     7
420
 16777215
176
     1
 90
        1
176
     1
 90
        2
176
     1
 62
     7
176
     1
 62
   257
176
     1
 90
        2
176
     1
 90
        1
176
     1
 40
1.0
176
     1
 90
        8
176
     1
 62
   257
176
     1
 40
1.0
176
     1
 90
        1
176
     1
 90
        6
176
     1
 90
        2
176
     1
 62
     7
176
     1
 90
        3
176
     1
 90
        0
176
     1
 90
        0
176
     1
290
     0
176
     1
 90
        5
176
     1
 40
0.0
176
     1
 90
        0
176
     1
290
     0
176
     1
290
     1
176
     1
290
     1
176
     1
290
     0
176
     1
290
     0
176
     1
290
     0
176
     1
290
     0
176
     1
290
     0
176
     1
290
     0
176
     1
 90
       50
176
     1
 40
0.0
176
     1
 40
1.0
176
     1
 90
        0
176
     1
 62
    18
420
        0
176
     1
 90
       50
176
     1
 90
        3
176
     1
 62
     5
420
      255
176
     1
290
     0
176
     1
 90
       50
176
     1
 90
       50
176
     1
 90
       50
176
     1
290
     0
176
     1
 90
       50
176
     1
 62
   256
176
     0
 40
1.0
176
     0
 90
        2
176
     1
  1
strokes_ogs.tif
176
     1
290
     0
176
     1
 40
1.0
176
     1
 40
1.0
176
     1
1001
ACAD
1000
AcDbSavedByObjectVersion
1070
     0
  0
VISUALSTYLE
  5
1EF
102
{ACAD_REACTORS
330
EF
102
}
330
EF
100
AcDbVisualStyle
  2
Shades of Gray
 70
    23
177
     3
291
     0
 70
    58
 90
        2
176
     1
 90
        2
176
     1
 90
        3
176
     1
 90
        0
176
     1
 40
0.6
176
     1
 40
30.0
176
     1
 62
     7
420
 16777215
176
     1
 90
        2
176
     1
 90
        2
176
     1
 62
     7
176
     1
 62
     7
176
     1
 90
        1
176
     1
 90
        1
176
     1
 40
40.0
176
     1
 90
        8
176
     1
 62
     7
176
     1
 40
1.0
176
     1
 90
        1
176
     1
 90
        6
176
     1
 90
        2
176
     1
 62
     7
176
     1
 90
        3
176
     1
 90
        0
176
     1
 90
        0
176
     1
290
     0
176
     1
 90
        1
176
     1
 40
0.0
176
     1
 90
        0
176
     1
290
     0
176
     1
290
     1
176
     1
290
     1
176
     1
290
     0
176
     1
290
     0
176
     1
290
     0
176
     1
290
     0
176
     1
290
     0
176
     1
290
     0
176
     1
 90
       50
176
     1
 40
0.0
176
     1
 40
1.0
176
     1
 90
        0
176
     1
 62
    18
420
        0
176
     1
 90
       50
176
     1
 90
        3
176
     1
 62
     5
420
      255
176
     1
290
     0
176
     1
 90
       50
176
     1
 90
       50
176
     1
 90
       50
176
     1
290
     0
176
     1
 90
       50
176
     1
 62
   256
176
     0
 40
1.0
176
     0
 90
        2
176
     1
  1
strokes_ogs.tif
176
     1
290
     0
176
     1
 40
1.0
176
     1
 40
1.0
176
     1
1001
ACAD
1000
AcDbSavedByObjectVersion
1070
     0
  0
VISUALSTYLE
  5
1F0
102
{ACAD_REACTORS
330
EF
102
}
330
EF
100
AcDbVisualStyle
  2
Sketchy
 70
    24
177
     3
291
     0
 70
    58
 90
        1
176
     1
 90
        2
176
     1
 90
        2
176
     1
 90
        0
176
     1
 40
0.6
176
     1
 40
30.0
176
     1
 62
     7
420
 16777215
176
     1
 90
        2
176
     1
 90
        2
176
     1
 62
     7
176
     1
 62
     7
176
     1
 90
        1
176
     1
 90
        1
176
     1
 40
40.0
176
     1
 90
       11
176
     1
 62
     7
176
     1
 40
1.0
176
     1
 90
        1
176
     1
 90
        6
176
     1
 90
        2
176
     1
 62
     7
176
     1
 90
        6
176
     1
 90
        0
176
     1
 90
        0
176
     1
290
     0
176
     1
 90
        1
176
     1
 40
0.0
176
     1
 90
        0
176
     1
290
     0
176
     1
290
     1
176
     1
290
     1
176
     1
290
     0
176
     1
290
     0
176
     1
290
     0
176
     1
290
     0
176
     1
290
     0
176
     1
290
     0
176
     1
 90
       50
176
     1
 40
0.0
176
     1
 40
1.0
176
     1
 90
        0
176
     1
 62
    18
420
        0
176
     1
 90
       50
176
     1
 90
        3
176
     1
 62
     5
420
      255
176
     1
290
     0
176
     1
 90
       50
176
     1
 90
       50
176
     1
 90
       50
176
     1
290
     0
176
     1
 90
       50
176
     1
 62
   256
176
     0
 40
1.0
176
     0
 90
        2
176
     1
  1
strokes_ogs.tif
176
     1
290
     0
176
     1
 40
1.0
176
     1
 40
1.0
176
     1
1001
ACAD
1000
AcDbSavedByObjectVersion
1070
     0
  0
VISUALSTYLE
  5
FC
102
{ACAD_REACTORS
330
EF
102
}
330
EF
100
AcDbVisualStyle
  2
Thicken
 70
    13
177
     3
291
     1
 70
    58
 90
        2
176
     1
 90
        2
176
     1
 90
        1
176
     1
 90
        0
176
     1
 40
0.6
176
     1
 40
30.0
176
     1
 62
     7
420
 16777215
176
     1
 90
        1
176
     1
 90
        4
176
     1
 62
     7
176
     1
 62
   257
176
     1
 90
        1
176
     1
 90
        1
176
     1
 40
1.0
176
     1
 90
       12
176
     1
 62
     7
176
     1
 40
1.0
176
     1
 90
        1
176
     1
 90
        6
176
     1
 90
        2
176
     1
 62
     7
176
     1
 90
        5
176
     1
 90
        0
176
     1
 90
        0
176
     1
290
     0
176
     1
 90
        1
176
     1
 40
0.0
176
     1
 90
        0
176
     1
290
     0
176
     1
290
     1
176
     1
290
     1
176
     1
290
     0
176
     1
290
     0
176
     1
290
     0
176
     1
290
     0
176
     1
290
     0
176
     1
290
     0
176
     1
 90
       50
176
     1
 40
0.0
176
     1
 40
1.0
176
     1
 90
        0
176
     1
 62
    18
420
        0
176
     1
 90
       50
176
     1
 90
        3
176
     1
 62
     5
420
      255
176
     1
290
     0
176
     1
 90
       50
176
     1
 90
       50
176
     1
 90
       50
176
     1
290
     0
176
     1
 90
       50
176
     1
 62
   256
176
     0
 40
1.0
176
     0
 90
        2
176
     1
  1
strokes_ogs.tif
176
     1
290
     0
176
     1
 40
1.0
176
     1
 40
1.0
176
     1
1001
ACAD
1000
AcDbSavedByObjectVersion
1070
     0
  0
VISUALSTYLE
  5
F6
102
{ACAD_REACTORS
330
EF
102
}
330
EF
100
AcDbVisualStyle
  2
Wireframe
 70
     5
177
     3
291
     0
 70
    58
 90
        0
176
     1
 90
        2
176
     1
 90
        0
176
     1
 90
        0
176
     1
 40
0.6
176
     1
 40
30.0
176
     1
 62
     7
420
 16777215
176
     1
 90
        1
176
     1
 90
        4
176
     1
 62
     7
176
     1
 62
   257
176
     1
 90
        1
176
     1
 90
        1
176
     1
 40
1.0
176
     1
 90
        0
176
     1
 62
   257
176
     1
 40
1.0
176
     1
 90
        1
176
     1
 90
        6
176
     1
 90
        2
176
     1
 62
     7
176
     1
 90
        3
176
     1
 90
        0
176
     1
 90
        0
176
     1
290
     0
176
     1
 90
        1
176
     1
 40
0.0
176
     1
 90
        0
176
     1
290
     0
176
     1
290
     1
176
     1
290
     1
176
     1
290
     0
176
     1
290
     0
176
     1
290
     0
176
     1
290
     0
176
     1
290
     0
176
     1
290
     0
176
     1
 90
       50
176
     1
 40
0.0
176
     1
 40
1.0
176
     1
 90
        0
176
     1
 62
    18
420
        0
176
     1
 90
       50
176
     1
 90
        3
176
     1
 62
     5
420
      255
176
     1
290
     0
176
     1
 90
       50
176
     1
 90
       50
176
     1
 90
       50
176
     1
290
     0
176
     1
 90
       50
176
     1
 62
   256
176
     0
 40
1.0
176
     0
 90
        2
176
     1
  1
strokes_ogs.tif
176
     1
290
     0
176
     1
 40
1.0
176
     1
 40
1.0
176
     1
1001
ACAD
1000
AcDbSavedByObjectVersion
1070
     0
  0
VISUALSTYLE
  5
1F1
102
{ACAD_REACTORS
330
EF
102
}
330
EF
100
AcDbVisualStyle
  2
X-Ray
 70
    25
177
     3
291
     0
 70
    58
 90
        2
176
     1
 90
        2
176
     1
 90
        1
176
     1
 90
        1
176
     1
 40
0.5
176
     1
 40
30.0
176
     1
 62
     7
420
 16777215
176
     1
 90
        1
176
     1
 90
        0
176
     1
 62
     7
176
     1
 62
   257
176
     1
 90
        1
176
     1
 90
        1
176
     1
 40
1.0
176
     1
 90
        8
176
     1
 62
     7
176
     1
 40
1.0
176
     1
 90
        1
176
     1
 90
        6
176
     1
 90
        2
176
     1
 62
     7
176
     1
 90
        3
176
     1
 90
        0
176
     1
 90
        0
176
     1
290
     0
176
     1
 90
       13
176
     1
 40
0.0
176
     1
 90
        0
176
     1
290
     0
176
     1
290
     1
176
     1
290
     1
176
     1
290
     0
176
     1
290
     0
176
     1
290
     0
176
     1
290
     0
176
     1
290
     0
176
     1
290
     0
176
     1
 90
       50
176
     1
 40
0.0
176
     1
 40
1.0
176
     1
 90
        0
176
     1
 62
    18
420
        0
176
     1
 90
       50
176
     1
 90
        3
176
     1
 62
     5
420
      255
176
     1
290
     0
176
     1
 90
       50
176
     1
 90
       50
176
     1
 90
       50
176
     1
290
     0
176
     1
 90
       50
176
     1
 62
   256
176
     0
 40
1.0
176
     0
 90
        2
176
     1
  1
strokes_ogs.tif
176
     1
290
     0
176
     1
 40
1.0
176
     1
 40
1.0
176
     1
1001
ACAD
1000
AcDbSavedByObjectVersion
1070
     0
  0
DICTIONARYVAR
  5
146
102
{ACAD_REACTORS
330
5E
102
}
330
5E
100
DictionaryVariables
280
     0
  1
1:1
  0
DICTIONARYVAR
  5
145
102
{ACAD_REACTORS
330
5E
102
}
330
5E
100
DictionaryVariables
280
     0
  1
STANDARD
  0
DICTIONARYVAR
  5
84
102
{ACAD_REACTORS
330
5E
102
}
330
5E
100
DictionaryVariables
280
     0
  1
STANDARD
  0
DICTIONARYVAR
  5
227
102
{ACAD_REACTORS
330
5E
102
}
330
5E
100
DictionaryVariables
280
     0
  1
Metric50
  0
DICTIONARYVAR
  5
228
102
{ACAD_REACTORS
330
5E
102
}
330
5E
100
DictionaryVariables
280
     0
  1
Metric50
  0
DICTIONARYVAR
  5
5F
102
{ACAD_REACTORS
330
5E
102
}
330
5E
100
DictionaryVariables
280
     0
  1
2
  0
DICTIONARYVAR
  5
63
102
{ACAD_REACTORS
330
5E
102
}
330
5E
100
DictionaryVariables
280
     0
  1
1
  0
DICTIONARYVAR
  5
1AE
102
{ACAD_REACTORS
330
5E
102
}
330
5E
100
DictionaryVariables
280
     0
  1
0
  0
DICTIONARYVAR
  5
1AF
102
{ACAD_REACTORS
330
5E
102
}
330
5E
100
DictionaryVariables
280
     0
  1
0
  0
DICTIONARY
  5
75C
330
21C
100
AcDbDictionary
280
     1
281
     1
  3
ACAD_XREC_ROUNDTRIP
360
75D
  0
DICTIONARY
  5
205
330
22
100
AcDbDictionary
280
     1
281
     1
  0
DICTIONARY
  5
1F9
330
ED
100
AcDbDictionary
280
     1
281
     1
  3
FBXASSET
360
1FA
  0
DICTIONARY
  5
1F7
330
EC
100
AcDbDictionary
280
     1
281
     1
  3
FBXASSET
360
1F8
  0
DICTIONARY
  5
173
330
EE
100
AcDbDictionary
280
     1
281
     1
  3
BUMPTILE
360
175
  3
DIFFUSETILE
360
174
  3
FBXASSET
360
1FB
  3
OPACITYTILE
360
176
  3
REFLECTIONTILE
360
177
  0
DICTIONARY
  5
75A
330
21A
100
AcDbDictionary
280
     1
281
     1
  3
ACAD_XREC_ROUNDTRIP
360
75B
  0
DICTIONARY
  5
162
330
7F
100
AcDbDictionary
280
     1
281
     1
  3
ACAD_ROUNDTRIP_2008_TABLESTYLE_CELLSTYLEMAP
360
757
  0
XRECORD
  5
75D
102
{ACAD_REACTORS
330
75C
102
}
330
75C
100
AcDbXrecord
280
     1
102
DISPLAYNAME
  1
Metric50
102
FLAGS
 90
        0
  0
XRECORD
  5
1FA
102
{ACAD_REACTORS
330
1F9
102
}
330
1F9
100
AcDbXrecord
280
     1
 70
     1
 90
429727718
  1
D62C5603-E3A1-4AEA-B7FB-FE5D8D0755AF
310
504B03040A0000080000CC70623B3DEE336E79000000790000001B0000006175746F6465736B2D64657369676E2D7061636B6167652E786D6C3C3F786D6C2076657273696F6E3D22312E302220656E636F64696E673D227574662D3822203F3E3C666F726D6174733E3C666F726D61743E687474703A2F2F736368656D612E
310
6175746F6465736B2E636F6D2F64657369676E2D7061636B6167652F323030393C2F666F726D61743E3C2F666F726D6174733E504B0304140006080800CC70623BD486FD9CA0000000F4000000130000005B436F6E74656E745F54797065735D2E786D6C7D8EC10E82300C865F65E91D8A1E8C310C0EEA1BF002731658846E
310
D98AC1B77784ABF1D8FE5FBFBF75BBCE937A534CCEB38643598122B6FEE978D0B0485F9C41B54DDD7D022595594E1A469170414C76A4D9A4D207E29CF43ECE46F218070CC6BECC4078ACAA135ACF422C856C0E68EA1BF5669944DDD7BCDE7B1F8E415D77AECB980613C2E4AC91FC167A2B244592486606FC29C8FD7F045B9A
310
EF7053A7E60B504B0304140006080800CC70623B853B8169EB0000007C01000008000000636F72652E786D6C8D90416EC3201045AF62CDB6C206821CC7C244919D9CA01740401C94182C03558F5F9C3852BBEB6A467FFE9B197D7EFC9E1EC5975982F5AE035262288C535E5B377690E21535501C055FBC8FBF6C503839990E
310
5619041F179FE64D52DE45E362569DD7661365082642A11EB9E920A89B99642953CC8E702F67A9EE7234257977194EC9EAE275C4EABCCF5EAD5940D4AC6F0E35A568B8F43562CD7046CD199FD07E60174276A7BE677B5EADB0E0D14EEFFB6A31321A0D82627C4084204C3F096B71DD52F6819B16635EADF63F509AF53FA164
310
5DDCD1EDDD17164090FCC8732078B56691CB33A85CD7DCC40F504B0304140006080800CC70623B55019EA25F0000007C00000007000000636E782E786D6C4DCB3B0E80201045D1AD90E915ED2CF8AC45050C11660C8261F98AB1B07AC9C97D42D718D865D3E909258CFD00CCE24AC6E326A164D74DC0B4128928FF32603847
310
2BA13128B1252AC747C6BAB984FC68F0B87FE8960A5C09FE86CFB69FBA01504B0304140006080800CC70623BDBABAAF470010000D40300000C0000006662782F636F72652E786D6CC553D16E823014FD95A6AF4B694182CC941A83FA05FB810A9511A125A5257EFE2E82712ECEB8A7F100CD39F7F69E734AF9FADC366850B6
310
AF8DCE7018308C942E4C59EB2AC3DE1D498AD15A706B8CFB56869196ADCAF00863C12B6B7C374385D14E6907A836A59A41D9F7CA615434B0C8705F7CAA5606D23BA8E84F41278B93AC54100640439DE0BDB320004D43C63716C7C399D30917DCFBBA9CD9BA8469F5B156168B24CED3F7248AC8769F27244EB73B92EED8862C
310
B7F13E0C179B3C8F979C8ECD82BBBABDAA2BAC924E9558448CBD9330242CFA08E3154B5651FCC6D215639C8EE5774DBE2B5F6CF2B5768B68963BB5F5588420E442FC700B1139D4CB01F450C1E918227C2E09DF070D8140C84E1E9AAB8F1340832A9CB13130A5F1376A908D57309505ECF2A0DF179C4E9D30F5B239B87E3823
310
7A79C6F31DE1A8A5AEC08474B03C7837EAE4938639B44E5932B833D2C6B6B279CDC613877FA26EE21F4A2A4C63EC7F29A2F301D1F9F7A0E37D145F504B0304140006080800CC70623B9C113CC27E0000009D0000000B0000006662782F636E782E786D6C4DCCDF0A83201C86E15B91DFB94BFB330DD428C8FB886521330DA7
310
6397BF1A1DECE883878F57749FCDA1B7892F1BBC047A23808C7F84D9FA55424E0BE6803A256208E9EF06C84F9B91703228B1C690F78B66B34CD9A5439DF5CF0BFBF65E35BCA1B8D6A5C6F540381E886698B5741C695F9503EBA150A2F8958E3DC3EA0B504B0304140006080800CC70623B7DF2F77C2A010000120200003100
310
00006662782F41393633353835312D344632462D344230382D423046372D3739314545314133324237412F636F72652E786D6C8D51DB8EC22014FC15C2939B0D2DB4B45643319AE817EC0F6041255A68B86CFCFC856D4D76DF7CE190393373060EDB3DC707F856CE6B6B7A480A0C81328395DA5C7B18C3057510EC3873D686
310
3F34088C18550F330C39BB3A1BA7051AAC09CA84841A2BD5020AEF55806078A44B0FFD7053A328440C89E1EFC52486BBB8AA8214A99D789CF9E05200300FC927E4FB4D5B375D43103D5527440FB843077C5AA3F5861C8F645F5787F59E95B390B318B55CE45AA638FAA2957BD7248B390B7A7CC51F9C124149C82B8C378810
310
84AB2F42B7B8DD56F413775B8C5999E9FF4471926F8AA236A1AE96B8B3CC434E5839373893369E1FAF30EA395917409EB7F26AF8801C171837A4A6AC9C89E9F9C9B1A58BA30FD6A5EF5DDDCF894B9AD9B6A59C957943A9FCAE2FD5BC4DFE03504B0304140006080800CC70623BAD7543B64E01000033030000300000006662
310
782F41393633353835312D344632462D344230382D423046372D3739314545314133324237412F636E782E786D6CD593CD6EC32010845F0571AD6CE3D48AD20813A9873E410FBD12D82434182C7EAAE6EDBB2424CD25871E7B41D6EC30B3FA84F9E67BB2E40B4234DE8DB46F1925E094D7C6ED479AD3AE5951B2113C789FEE
310
6C943839C1488B4C05DF079FE72A69D8C96C13AAD6B8631503449F83828872B949AC57D26200B826A308D316B4064D6E46FCDA41C05550DC9E483A00797BFD207EFB092A45DE9514C1BBD22178396BD39D891265658C238DEA00936C654E5E433CB65A26D9F6EDB5EBC14EBF49A45CB856E66048291F6939A9A81BB5C89177
310
38143CA680F4AA299D66A042CEB3354A2684DC9D8D178FE0D9B8B41CAAD720F880EE7EF93C0C18769E099ECC04D5A102C8049A8A05632F4DDF376CF1DE0F6BB65C2F8627B65A33C6BB62177CEBBDAD973006829F89F22E814B54F4BC2BE347F8AA8F681390B50FA73F804400B5F542E796F19FF974E7F78DB802FE05E20750
310
4B0304140006080800CC70623BE75B7789680500003C100000340000006662782F41393633353835312D344632462D344230382D423046372D3739314545314133324237412F6F626A656374732E786D6CAD575B8F9B3818FD2B887D06C22499CB8AA1CA655245D5B455A356FB305264C061D8018C6C3393D95FBFC7600890
310
A4CD5EF210B0B1BFEBF98E3F7B1FF6596ABC522E1296DF9BAE3D320D9A872C4AF2F8DE2CE5CEBA358D0FBEC719939D65A691938CDE9B6ADAF4BD98B3B2D05311DD91329583D9D5FC0F438434A7A611A644887B5384CF34233629258BA878B12322891DEFF6B66BD70BFB62634E8AE781D082709A4B588AF91C528CDA28B73F
310
1C998EEF39EABBEFA97FBD6A7C7E9553F9D3D79FE442923C3C523610337627CB87ABE99D359D4CC6D6E4FACAB5E6ABF9D2726FC6A3C5F56271377BB88362213924694B38DD99FE47C48627A1E7D49F5A8BB5E1A74C0A599ED3B0F21F1E56366B89112D681E218F0915D0D6F17AD41FBA2A369DCF6335D62ABBD39779D5DDD1
310
11D4D8DE3CBB96B2E04FB8202E41051754A1AA8E8F76B4C6DFE810B580B1547F4B84911149794252234D024EF8BBE963A95AE27B3D310A9D5C215C7960FAEE415ED75694C6AFB17BCACA5D99A60A9AA65F217B0BFC53292ACB92BF283FAD0D3621576592CB5BED907C2FA8E9DF794E35E97BEA31BED21FEB401ABB94C44839
310
DCACBF0E1C5DA8DA5B2F4DFFD32AD86F543D9E565E7056502E157C00AD2671CD534549AB752FCA9CDA00677A313F04E51B22FF19E57B300579E3C97EB29F682D92935CEC18CF901B7B54FD8C51F362B56FC72FE0B3C1EAE335EDCCBF5AEC39ADB17DC238973F804BA5E6F6BFE7AF1FB32E523BE9F3BD571418E3631DCA4D48
310
5250CF639223210A9446CA30052EDF057BD35F8329C1ECD84552BF0DC8D18BE7BCE23BFE6BD960AB4A7DE79923A103BEBD80F911CBAA2C60DB19B01CF164A5583B772EE6D3FFA56666CBCDA74DC97724A48F9A58967497E489C4D979006FD7A05E227A1EBDD0F737C623387A9C844D3709995625106D157315F8B8392CD4E0
310
A0B9A720C4BE9829CEF37EA1E13111214D53925356365ADA634861B52519DD27A00AEB808EAF0628E6F435519D446F45CF2C9CF5214F0A15B2F6D06B79DA3EE3CBF7F56780D2F4E7EF73A0F5E5B02A38D07DC852C6B7C1FBB6664213E0C39E3EBA7FF4E1AD23EA2829407C85E586727488B751B2DB9502BC7B228A3FD68B6E
310
A65A22397E690AA8D158D7E404EC8CDA235CC3B7D1898680131CEC2CDF2638C65196279577750F15884AEE19F94199155B92B13297978469D4F8D358DF0AEF7631E28DC8F0D9F437D5D39A83B2231A1D52D543813A824EF8D44BCFF2FA6A31BD1E8DAD87F1CCB526B3879935BF59CDADD5C37479BB1CDD4CA7B3556B516589
310
EF352754B706114D9C885EC9131DE6EFEB43D99AFE2391C2F958179413D7CFEF6B1B6DB1E7600F00DE6E5C67454A339A4BA2E0FBA85ED26F045D454F463DBFCE484C2F90F2E5E3666003662ED8F755951A7D1BECD5B30B550B2785C8E7320B7292A4838DDA71BBC863ED7613CAF659337A3354231D4FF4A182A54904C2898C
310
98B28C4AD0CE056CCF332A80986E571EE9DBC305BB5FEB7E509220A58D25CF042D712A806AC0AD0C657FDEF80D2D9CEAA2EE4D1C76F60BFE74219A06527D6F82DF6412526107381E55E353090704D085B52408A8913C4ED159D79BDA71BB4BC506F4831350EB6F975CD22D69BF7AC49B91A2C0A9DDA3D5CA36AD20FC478E37
310
E61844E2352865EBCB61A275A65283CAAA9DD27703B4102F5AF51EF5F573B75CBB5AD38BC845F7A49F82A0966A49C2E3EA5EA0ECD326CD965F1DB402C6FA8B51A4658C5C5E2EC9E214602E55810345408596591009A82E7E7FFACA19EEA299B14A0081A705CB3296EBC14CDF658DCD336EA6D1136881AAEB87B81AB9EE53D5
310
F5EB8BC8362082DA24122F98680A4E7930C01A0079749CEA14382A0783E5EBA5A10F8C098456A03D6A4AEB6BB881E2513747552A5DB22C7EDAF83BD5528081A365F7FF06504B0304140006080000CC70623B000000000000000000000000350000006662782F41393633353835312D344632462D344230382D423046372D37
310
39314545314133324237412F76657274696365732E62696E504B0304140006080800CC70623BF270F1330600000004000000360000006662782F41393633353835312D344632462D344230382D423046372D3739314545314133324237412F747269616E676C65732E62696E636660600000504B0304140006080000CC7062
310
3B000000000000000000000000370000006662782F41393633353835312D344632462D344230382D423046372D3739314545314133324237412F617474726962757465732E62696E504B0304140006080800CC70623B08DA0BD19000000041010000360000006662782F41393633353835312D344632462D344230382D4230
310
46372D3739314545314133324237412F6469726563746F72792E786D6C858F410AC3201045AF22B36F53E9A60B35CBEEBAE80D244E44489C6234F4F835464A48035D0DF398FF9F8AF63D0E6CC63039F212F8F9020C7D47C6792B21C5FE7403D62A1188E2E60C98D7234A5830286103A55745067B9D86B8A3CF9C7F90C11DE6
310
07FB144396D7B6A82D282E9A152AD114D5EF2CB866EEE831B8EEA07A7BB5A8D7D61A2BAAEB7FD5F70921FF497D00504B0304140006080800CC70623BEDD1DC58FD000000A00100003B0000006662782F41393633353835312D344632462D344230382D423046372D3739314545314133324237412F7265736F75726365732F
310
636F72652E786D6C8D504B6E833010BD0A9A6D65B00922041947112427E8052C33A156828DFCA97AFC9A40A576D7CDCCE87D344F8F9FBFE667F689CE6B6B3A6039850C8DB2A336530731DC4903D95970676DF82583CCC8193B5861107C72362E3BA4AC096842428D1D7107A5F7182053CF7474E0D507CE32973124857FE48B
310
540F3961CEF244279DE03EB81420DB9EAC1384436FA353E879B1B182C7A8C75DA3C7F453DF353A1075D537A7BA6464B8F535A99AE14A9A2BBD90E350DD183B5CFABE3AF262350B1EF4FC9351399401471025A527C218A1E53BAB5A5AB765F5469B96525EACF23FA6B88CFF34456DC2A1DCE36E360F82A5202F42F062ED2BAD
310
579969AFDD8A6F504B010214000A0000080000CC70623B3DEE336E79000000790000001B00000000000000000000000000000000006175746F6465736B2D64657369676E2D7061636B6167652E786D6C504B01021400140006080800CC70623BD486FD9CA0000000F40000001300000000000000000000000000B20000005B
310
436F6E74656E745F54797065735D2E786D6C504B01021400140006080800CC70623B853B8169EB0000007C010000080000000000000000000000000083010000636F72652E786D6C504B01021400140006080800CC70623B55019EA25F0000007C000000070000000000000000000000000094020000636E782E786D6C504B
310
01021400140006080800CC70623BDBABAAF470010000D40300000C00000000000000000000000000180300006662782F636F72652E786D6C504B01021400140006080800CC70623B9C113CC27E0000009D0000000B00000000000000000000000000B20400006662782F636E782E786D6C504B01021400140006080800CC70
310
623B7DF2F77C2A010000120200003100000000000000000000000000590500006662782F41393633353835312D344632462D344230382D423046372D3739314545314133324237412F636F72652E786D6C504B01021400140006080800CC70623BAD7543B64E010000330300003000000000000000000000000000D2060000
310
6662782F41393633353835312D344632462D344230382D423046372D3739314545314133324237412F636E782E786D6C504B01021400140006080800CC70623BE75B7789680500003C10000034000000000000000000000000006E0800006662782F41393633353835312D344632462D344230382D423046372D3739314545
310
314133324237412F6F626A656374732E786D6C504B01021400140006080000CC70623B0000000000000000000000003500000000000000000000000000280E00006662782F41393633353835312D344632462D344230382D423046372D3739314545314133324237412F76657274696365732E62696E504B01021400140006
310
080800CC70623BF270F133060000000400000036000000000000000000000000007B0E00006662782F41393633353835312D344632462D344230382D423046372D3739314545314133324237412F747269616E676C65732E62696E504B01021400140006080000CC70623B0000000000000000000000003700000000000000
310
000000000000D50E00006662782F41393633353835312D344632462D344230382D423046372D3739314545314133324237412F617474726962757465732E62696E504B01021400140006080800CC70623B08DA0BD1900000004101000036000000000000000000000000002A0F00006662782F41393633353835312D344632
310
462D344230382D423046372D3739314545314133324237412F6469726563746F72792E786D6C504B01021400140006080800CC70623BEDD1DC58FD000000A00100003B000000000000000000000000000E1000006662782F41393633353835312D344632462D344230382D423046372D3739314545314133324237412F7265
310
736F75726365732F636F72652E786D6C504B0506000000000E000E0080040000641100000000
  0
XRECORD
  5
1F8
102
{ACAD_REACTORS
330
1F7
102
}
330
1F7
100
AcDbXrecord
280
     1
 70
     1
 90
429727718
  1
30362254-06B7-45E0-A893-8CFA70E3D6BC
310
504B03040A0000080000CC70623B3DEE336E79000000790000001B0000006175746F6465736B2D64657369676E2D7061636B6167652E786D6C3C3F786D6C2076657273696F6E3D22312E302220656E636F64696E673D227574662D3822203F3E3C666F726D6174733E3C666F726D61743E687474703A2F2F736368656D612E
310
6175746F6465736B2E636F6D2F64657369676E2D7061636B6167652F323030393C2F666F726D61743E3C2F666F726D6174733E504B0304140006080800CC70623BD486FD9CA0000000F4000000130000005B436F6E74656E745F54797065735D2E786D6C7D8EC10E82300C865F65E91D8A1E8C310C0EEA1BF002731658846E
310
D98AC1B77784ABF1D8FE5FBFBF75BBCE937A534CCEB38643598122B6FEE978D0B0485F9C41B54DDD7D022595594E1A469170414C76A4D9A4D207E29CF43ECE46F218070CC6BECC4078ACAA135ACF422C856C0E68EA1BF5669944DDD7BCDE7B1F8E415D77AECB980613C2E4AC91FC167A2B244592486606FC29C8FD7F045B9A
310
EF7053A7E60B504B0304140006080800CC70623B1EC5D7A3EB0000007C01000008000000636F72652E786D6C8D90416EC3201045AF82665B6103C6756C6122AB4D4ED00B204C5C94182C03558F5F9C3852BBEB6A467FFE9B197D71FC9E6FE8CBACC17AD7032D0820E3B41FAD9B7A48F1820F808E52ACDEC75F36404ECDA687
310
4D0629A6D5A76597B477D1B89855E747B38B2A041301E95B6E7A08FAD3CCAA50296647B8168BD2573599823EBB0CA76447F43862C7BCCF5EAC59410E4DDD9C7973C2755553CCCFA4C603E3040F1565ED3B1FDE4E432BCA0D9622DAF9795FAF464533826484B498524CD807E51D79ED187F21878E10516EF63F505AC67F42C9
310
BA58B1FDDD071640D2FCC87D2045B96591CB3DA85CB7DCE40F504B0304140006080800CC70623B55019EA25F0000007C00000007000000636E782E786D6C4DCB3B0E80201045D1AD90E915ED2CF8AC45050C11660C8261F98AB1B07AC9C97D42D718D865D3E909258CFD00CCE24AC6E326A164D74DC0B4128928FF32603847
310
2BA13128B1252AC747C6BAB984FC68F0B87FE8960A5C09FE86CFB69FBA01504B0304140006080800CC70623B8C9102E971010000D40300000C0000006662782F636F72652E786D6CC5535B6E833010BC8AE5DF0A6C08340F1947A84D4ED00B38C6A128602363A31CBFCB234A53A551FA553EC09AD9F5CE8C31DB9E9B1AF5CA
310
7695D1198E428A91D2D214952E33ECDD315861B4E5CC1AE3BE9561A445A3323CC098B3D21ADFCE9034DA29ED00D5A6503328BA4E398C640D8B0C77F253352214DE4145770A5B214FA2546114020D759C75CE8200340D19DE981F0F6746269C33EFAB6266AB02A655C74A59CCF365BADC27CB5D902ED22848F6340DF238A141
310
BE88E2F57B92BFEDF23523433367AE6A2EEAA455C2A902F398D2751045018D3FA264435F3771F242571B4A1919CA6F9A7C5B3CD9E42BED16F12C776AEB308F40C848FC700B1139D4891EF410CEC810227CC6846F8386402064270EF5C5C709A05E49676C024C61FC95EA45ED154CA5211D1FF4FB8291A913A68E9B83EBBB33
310
E2A7673CDE118E5AE8124C0807CB8377834E366998436B950D7A7746DAD846D4CFD978E0F04FD455FC5D49D2D4C6FE9722321F10997F0F32DC47FE05504B0304140006080800CC70623BFFEA85907E0000009D0000000B0000006662782F636E782E786D6C4DCCD10A83201886E15B91FFDC95D95A811AB6F23E625948A6C3
310
E9D8E5AF46073BFAE0E1E365ED67B3E8ADC3CB78C7815C7240DA3DFC64DCC221C519D7805AC182F7F1EF06C88D9BE6703008B6049F9E274D7A1E938DBB5AE3D6131B2589BA0D3D965551E0B2EA732C9B9A624AAEB41E3A557677029960D9AFB4EF11165F504B0304140006080800CC70623B4FEEA4082C0100001202000031
310
0000006662782F39464131463745442D413632322D343644302D413938332D3331353338454246344243312F636F72652E786D6C8D515B6EC32010BC0AE2AB55850DD871ED0813254D72825EC00192A2C460F1A872FC42ED48ED5F7E00CDCECCCEB26C731F6FE05B39AFADE921293004CA082BB5B9F43086336A21D870E6AC
310
0D7F68109861543DCC30E4ECE26C9C164858139409093556AA051CBC570102714B8F1E7AF1A5C6A11862480C7F2DA6415C878B2A4891CA89C7990F2E050073937C42DE1DB7E4F87ED8A36D4329AA9B3D46DBAEAD504556557BD81DEBDD0761E52CE42C462D17B996298E3E6BE59E35C962CE821E1FF18553435012728A7187
310
0841987E927A8D9B35ADDF70BBC6989599FE4F1427F9A4286A132ABAC49D651EF234CD5CE04CDA78BA3DC2A8FB645D00B9DF8B57E215725C60BCA2A463E54C4CE327C7A65E1C7DB02E7DEFCBF594B864C5CA6CDBD49C957943E9FA5D5FBAF336F90F504B0304140006080800CC70623BAD7543B64E01000033030000300000
310
006662782F39464131463745442D413632322D343644302D413938332D3331353338454246344243312F636E782E786D6CD593CD6EC32010845F0571AD6CE3D48AD20813A9873E410FBD12D82434182C7EAAE6EDBB2424CD25871E7B41D6EC30B3FA84F9E67BB2E40B4234DE8DB46F1925E094D7C6ED479AD3AE5951B2113C
310
789FEE6C943839C1488B4C05DF079FE72A69D8C96C13AAD6B8631503449F83828872B949AC57D26200B826A308D316B4064D6E46FCDA41C05550DC9E483A00797BFD207EFB092A45DE9514C1BBD22178396BD39D891265658C238DEA00936C654E5E433CB65A26D9F6EDB5EBC14EBF49A45CB856E66048291F6939A9A81BB5
310
C8917738143CA680F4AA299D66A042CEB3354A2684DC9D8D178FE0D9B8B41CAAD720F880EE7EF93C0C18769E099ECC04D5A102C8049A8A05632F4DDF376CF1DE0F6BB65C2F8627B65A33C6BB62177CEBBDAD973006829F89F22E814B54F4BC2BE347F8AA8F681390B50FA73F804400B5F542E796F19FF974E7F78DB802FE05
310
E207504B0304140006080800CC70623B16AB87BA640500003C100000340000006662782F39464131463745442D413632322D343644302D413938332D3331353338454246344243312F6F626A656374732E786D6CAD575B6FA33818FD2B887DE6924B3BED8A326A92B68A663B534DD4D13E548A0C38942D60649B369D5FBFC7
310
600890A493BDE42160637FD7F31D7FF63E6FB3D478A55C242CBF3247B66B1A340F5994E4F19559CA8D75611A9F7D8F33263BCB4C232719BD32D5B4E97B316765A1A722BA21652A07B3B7B33F0D11D29C9A46981221AE4C113ED38CD8A4942CA2E2C58E882476BCD9DA23BB5ED8171B73523C0F841684D35CC252CCE79062D4
310
468DFA43D7747CCF51DF7D4FFDEB5593E3AB9CCA9FBEFE241792E4E19EB28198C968BAB8199F5D5A67D3E9C49A9E8F47D6EC76B6B0469F26EEFC7C3EBFBCBEB98462213924694B38DD98FE1D62C393D073EA4FADC5DAF04326852CCF6958F90F0F2B9BB5C48816348F90C7840A68EB78EDF68723159BCEE7891A6B95DDE9D3
310
BCEAEEE8086A6C6F9E5D4B59F0175C10A7A0820BAA5055C7473B5AE3CFDD452D602CD5DF12616444529E90D448938013FE6EFA58AA96F85E4F8C42275708571E98FE6827AF6B2B4AE3D7D83D64E5A64C53054DD3AF90BD06FEA9149565C94FCA0F6B834DC85599E4F2423B24DF0B6AFA979E534DFA9E7A4CC6FA631D486393
310
921829879BF5D781A373557BCB85E97FB90DB62B558F8795179C15944B051F40AB495CF35451D26A4727654E6D8033BD98EF82F21D91FF8AF2DD9982BCF1643BDD4EB516C9492E368C67C88DED563FC36D5EACF66DFF057C3658BDBFA69DF9578B3DA735B64F18C7F20770A9D45CFCF7FCF563D6456A277DBEF78A02637CA2
310
43B90A490AEAB94F72244481D24819A6C0E59B606BFA4B3025981DBB48EAB701D97BF19C577CC77F2D1B6C55A9EF3C732474C0B727303F625995056C3B02963D9EAC146BE78EC5FCEC7FA999EBC5EACBAAE41B12D27B4D2C0BBA49F244E2ECDC81B76B502F113D8F5EE8FB1BE3111CDD4FC2AA9B844CAB1288B68AB90A7CDC
310
1C166AB0D3DC5310625FCC14E779BFD0709F8890A629C9292B1B2DED31A4B0DA928CEE135085754027E3018A397D4D5427D15BD1330B677DC8934285AC3DF45A9EB68FF8F2B8FC0A509AFEECFD0FF2DE25CC6047F7214B195F07EFEB9A094D800F7BFAE8FED187B78EA8A3A400F115961BCAD1215E47C966530AF0EE8128FE
310
58CEBB996A8964FFA529A046635D9353B0336A8F700DDF46271A024E70B0B37C9DE01847591E54DED53D54202AB947E4076556AC49C6CA5C9E1226B7F1A7B1BE15DEED62C41B91E1B3E9AFAAA735036547343A925075041DF0A9979E893B391F8FCFA6967B3EFB644DCF6E5CEBFAE272625DCC6FAF3FB93793C5F90CE1EF57
310
407342756B10D1C489E8953CD1617E5CEECAD6F4EF8914CE5D5D504E5C3F1F9736DA62CFC11E00BCDDB8CC8A9466349744C1F75EBDA4DF09BA8A9E8C7A7E9991989E20E5DBDD6A6003664ED8F7A04A8DBE0DF6EAD9B9AA858342E47399053949D2C146EDB85DE4B176BB0965FBAC19BD19AA918E27FA50C1D22402E144464C
310
59462568E704B6E71915404CB72B8FF4EDE184DDAF753F284990D2C6926782963815403548A70C657FDEF80D2D9CEAA2AE4C1C76F60BFE74219A06527D6582DF6412526107381E55E353090704D085B52408D0933C4ED159D79BDA71BB4BC506F4831350EB6F979CD22D69BF7AC49B91A2C0A9DDA3D5CA36AD20FC478E37E6
310
1844E2352865EBCB6EA275A652E3836BE04EFB400BF1A2556F515F1FBB35B2AB35BD889C744FFA1004B5544B121E57F70215746DD2F5E2C1412B602CBF19455AC6C8E5E9922C4E01E65215385004546899059180EAFCF7A707CE7017CD8CDB0410789AB32C63B91E5CEBBBACB17AC6CD347A022D5075FD106377347AAABA7E
310
7D11590744509B44E205134DC1290F06580320F78E537D3D73540E06CB970B431F185308AD40BBD794D6D77003C5A36E8EAA54BA64597CD8F83BD552A080A365F7FF06504B0304140006080000CC70623B000000000000000000000000350000006662782F39464131463745442D413632322D343644302D413938332D3331
310
353338454246344243312F76657274696365732E62696E504B0304140006080800CC70623BF270F1330600000004000000360000006662782F39464131463745442D413632322D343644302D413938332D3331353338454246344243312F747269616E676C65732E62696E636660600000504B0304140006080000CC70623B
310
000000000000000000000000370000006662782F39464131463745442D413632322D343644302D413938332D3331353338454246344243312F617474726962757465732E62696E504B0304140006080800CC70623B08DA0BD19000000041010000360000006662782F39464131463745442D413632322D343644302D413938
310
332D3331353338454246344243312F6469726563746F72792E786D6C858F410AC3201045AF22B36F53E9A60B35CBEEBAE80D244E44489C6234F4F835464A48035D0DF398FF9F8AF63D0E6CC63039F212F8F9020C7D47C6792B21C5FE7403D62A1188E2E60C98D7234A5830286103A55745067B9D86B8A3CF9C7F90C11DE607
310
FB144396D7B6A82D282E9A152AD114D5EF2CB866EEE831B8EEA07A7BB5A8D7D61A2BAAEB7FD5F70921FF497D00504B0304140006080800CC70623B0D6EF93BFE000000A00100003B0000006662782F39464131463745442D413632322D343644302D413938332D3331353338454246344243312F7265736F75726365732F63
310
6F72652E786D6C8D50596E833010BD0A9ADFCA60B334011947A8694ED00B586642AC041B79A97AFC9A40A5F6AF3F33A3B7689E1E3F7DCD8FEC139DD7D6F4C0720A191A65476DA61E62B892236427C19DB5E1970C322367EC618541F0C9D9B8EC90B226A009093576C41D94DE63804C3DD2D18357379C652E63480A7FCF17A9
310
EE72C29CE5894E3AC17D702940B63D59270887DE46A7D0F36263058F518FBB468FE9A7BE6A7420864373B8D4873369AA8691FA421B3294352543C5CAF65C0F6FEF43CB8BD52C78D0F34F46E550061C419494B6843142CB0F5677F4B52BEB177AEC28E5C52AFF638ACBF84F53D42654E51E77B379102C05791282176B5F693D
310
CB4C7BED567C03504B010214000A0000080000CC70623B3DEE336E79000000790000001B00000000000000000000000000000000006175746F6465736B2D64657369676E2D7061636B6167652E786D6C504B01021400140006080800CC70623BD486FD9CA0000000F40000001300000000000000000000000000B20000005B
310
436F6E74656E745F54797065735D2E786D6C504B01021400140006080800CC70623B1EC5D7A3EB0000007C010000080000000000000000000000000083010000636F72652E786D6C504B01021400140006080800CC70623B55019EA25F0000007C000000070000000000000000000000000094020000636E782E786D6C504B
310
01021400140006080800CC70623B8C9102E971010000D40300000C00000000000000000000000000180300006662782F636F72652E786D6C504B01021400140006080800CC70623BFFEA85907E0000009D0000000B00000000000000000000000000B30400006662782F636E782E786D6C504B01021400140006080800CC70
310
623B4FEEA4082C0100001202000031000000000000000000000000005A0500006662782F39464131463745442D413632322D343644302D413938332D3331353338454246344243312F636F72652E786D6C504B01021400140006080800CC70623BAD7543B64E010000330300003000000000000000000000000000D5060000
310
6662782F39464131463745442D413632322D343644302D413938332D3331353338454246344243312F636E782E786D6C504B01021400140006080800CC70623B16AB87BA640500003C1000003400000000000000000000000000710800006662782F39464131463745442D413632322D343644302D413938332D3331353338
310
454246344243312F6F626A656374732E786D6C504B01021400140006080000CC70623B0000000000000000000000003500000000000000000000000000270E00006662782F39464131463745442D413632322D343644302D413938332D3331353338454246344243312F76657274696365732E62696E504B01021400140006
310
080800CC70623BF270F133060000000400000036000000000000000000000000007A0E00006662782F39464131463745442D413632322D343644302D413938332D3331353338454246344243312F747269616E676C65732E62696E504B01021400140006080000CC70623B0000000000000000000000003700000000000000
310
000000000000D40E00006662782F39464131463745442D413632322D343644302D413938332D3331353338454246344243312F617474726962757465732E62696E504B01021400140006080800CC70623B08DA0BD190000000410100003600000000000000000000000000290F00006662782F39464131463745442D413632
310
322D343644302D413938332D3331353338454246344243312F6469726563746F72792E786D6C504B01021400140006080800CC70623B0D6EF93BFE000000A00100003B000000000000000000000000000D1000006662782F39464131463745442D413632322D343644302D413938332D3331353338454246344243312F7265
310
736F75726365732F636F72652E786D6C504B0506000000000E000E0080040000641100000000
  0
XRECORD
  5
175
102
{ACAD_REACTORS
330
173
102
}
330
173
100
AcDbXrecord
280
     1
270
     1
271
     1
  0
XRECORD
  5
174
102
{ACAD_REACTORS
330
173
102
}
330
173
100
AcDbXrecord
280
     1
270
     1
271
     1
  0
XRECORD
  5
1FB
102
{ACAD_REACTORS
330
173
102
}
330
173
100
AcDbXrecord
280
     1
 70
     0
 90
1673772943
  1
ECE7A1D2-D628-4531-984C-D00F80459256
310
504B03040A0000080000CC70623B3DEE336E79000000790000001B0000006175746F6465736B2D64657369676E2D7061636B6167652E786D6C3C3F786D6C2076657273696F6E3D22312E302220656E636F64696E673D227574662D3822203F3E3C666F726D6174733E3C666F726D61743E687474703A2F2F736368656D612E
310
6175746F6465736B2E636F6D2F64657369676E2D7061636B6167652F323030393C2F666F726D61743E3C2F666F726D6174733E504B0304140006080800CC70623BD486FD9CA0000000F4000000130000005B436F6E74656E745F54797065735D2E786D6C7D8EC10E82300C865F65E91D8A1E8C310C0EEA1BF002731658846E
310
D98AC1B77784ABF1D8FE5FBFBF75BBCE937A534CCEB38643598122B6FEE978D0B0485F9C41B54DDD7D022595594E1A469170414C76A4D9A4D207E29CF43ECE46F218070CC6BECC4078ACAA135ACF422C856C0E68EA1BF5669944DDD7BCDE7B1F8E415D77AECB980613C2E4AC91FC167A2B244592486606FC29C8FD7F045B9A
310
EF7053A7E60B504B0304140006080800CC70623BD9DDAED0EC0000007C01000008000000636F72652E786D6C8D90416EC3201045AF82665B61836D9CD8C2444DD39CA01740405C94182C03558F5F9C3852BBEB6A467FFE9B197D7EF89E6EE8CB2CC17A37002D0820E394D7D68D03A478C17B4007C117EFE32F1B20272733C0
310
2A83E0E3E2D3BC49CABB685CCCAAF3DA6CA20CC14440EA969B0182FA34932C648AD911AEC52CD5558EA6A0CF2EC329598D1E47ACCEFBECC59A050463A7EA5833865FEBDD0E37353BE3EE8DBDE3F6786A48D375FBF6CC78B9C282473B3DEFABC5C86834888A900E538A49F5419B9EB47DD5BC907D4F082F57FB1F28CDFA9F50
310
B22ED6D5F6EE030B20687EE43E10BC5CB3C8E51E54AE6B6EE207504B0304140006080800CC70623B55019EA25F0000007C00000007000000636E782E786D6C4DCB3B0E80201045D1AD90E915ED2CF8AC45050C11660C8261F98AB1B07AC9C97D42D718D865D3E909258CFD00CCE24AC6E326A164D74DC0B4128928FF326038
310
472BA13128B1252AC747C6BAB984FC68F0B87FE8960A5C09FE86CFB69FBA01504B0304140006080800CC70623BA24EB22D72010000D40300000C0000006662782F636F72652E786D6CC5535B6E833010BC8AE5DF0A6C5E49888CA3A6694ED00B38E05014B091B1518EDFE511A5A9D228FD2A1F60CDEC7A67C6986DCE4D8D7A
310
69BA4AAB0C073EC548AA5C17952A33ECECD15B61B4E1CC686DBF9561A44423333CC098B3D268D7CE50AE9595CA02AA74216750749DB418E5352C32DCE59FB211BE70162ABA93DF8AFC244AE9073ED050C759670D0840D390E18DF9F1706664C23973AE2A66B62A605A75ACA4C13C4976E1364A12EF355A2EBD384AF65EFA96
310
BC7B8BED2EA6719AAE16FB8491A199335B351775B991C2CA02F390D2D40B028F861F41BCA68B7518BFD0D59A524686F29B26D7164F36B94AD9289CE54E6D1DE6010819891F6E21228B3AD1831EC219194284CF98F06DD01008846CC5A1BEF83801D4CBDC6A1303536877A57A513B0953A94FC707FDBE6064EA84A9E3E6E0FA
310
EE8CF0E9198F7784A316AA0413C2C2F2E0ECA0934D1AE6D05A69BCDE9E91D2A611F573361E38FC1375157F5752AE6B6DFE4B11990F88CCBF0719EE23FF02504B0304140006080800CC70623B408A7D3B7C0000009D0000000B0000006662782F636E782E786D6C4DCCD10A83201886E15B91FFDC552A92A0064DBC8F581632
310
D3703A76F9ABD1C18E3E78F878E5F0D9027ABBFCF2292AE86E2D20171F69F6715550CB827B40839639A5F2770314A7CD293819B45C73AAFB45B35BA61ACAA1C1C7E7855C58C15BC331339661262CC762340413D68D77DA5B42298546CBE6573AF60CEB2F504B0304140006080800CC70623B449FB9BD290100001202000031
310
0000006662782F36394639363044362D344446342D343946362D394244322D3234314243333846323333332F636F72652E786D6C8D515B6EC32010BC0AE22B55850D98B871848994463E412FE002495162B07854397EA176A4F62F3F2C9A9D991D587EB84F37F0AD7D30CEF6905418026DA553C65E7A98E219ED203808EE9D
310
8B7F6810D871D23D2C3014FCE25D9A57483A1BB58D19B54EE9151C43D0110279CB971E06F9A5A7B11A53CC8C70ADE6515EC78BAE4895DB992778883E0700CB907242D17643D7E2538BD869608875438BBAE38922CAC8F1BDD90DB4691A5E2F42C153326A951B95E398B3D1FE599322163C9AE9115F7A3D46ADA0A018778810
310
84E907617BDCEE297BC5BB3DC6BC2EF47FA234AB2745C9D8D8D035EE220B50105E2F0DC1954B9FB747187D9F9D8FA0CCDB042D5FA0C015C65B42DF78BD10F3F3B363CB56C7109DCFDFBBB97E662ED92EB62D13BC2E1BCAE5777DB9966D8A1F504B0304140006080800CC70623BAD7543B64E01000033030000300000006662
310
782F36394639363044362D344446342D343946362D394244322D3234314243333846323333332F636E782E786D6CD593CD6EC32010845F0571AD6CE3D48AD20813A9873E410FBD12D82434182C7EAAE6EDBB2424CD25871E7B41D6EC30B3FA84F9E67BB2E40B4234DE8DB46F1925E094D7C6ED479AD3AE5951B2113C789FEE
310
6C943839C1488B4C05DF079FE72A69D8C96C13AAD6B8631503449F83828872B949AC57D26200B826A308D316B4064D6E46FCDA41C05550DC9E483A00797BFD207EFB092A45DE9514C1BBD22178396BD39D891265658C238DEA00936C654E5E433CB65A26D9F6EDB5EBC14EBF49A45CB856E66048291F6939A9A81BB5C89177
310
38143CA680F4AA299D66A042CEB3354A2684DC9D8D178FE0D9B8B41CAAD720F880EE7EF93C0C18769E099ECC04D5A102C8049A8A05632F4DDF376CF1DE0F6BB65C2F8627B65A33C6BB62177CEBBDAD973006829F89F22E814B54F4BC2BE347F8AA8F681390B50FA73F804400B5F542E796F19FF974E7F78DB802FE05E20750
310
4B0304140006080800CC70623B8D05915C650500003B100000340000006662782F36394639363044362D344446342D343946362D394244322D3234314243333846323333332F6F626A656374732E786D6CAD575B6FA33814FE2B887D06429276DA1565D4266D158D3A339A6846FB502932E050B66023DB74D2FDF5FB190C01
310
9276B2973C046C8ECFF53B17071F77456EBD502133CEAE6CDF9DD81665314F32965ED995DA3A17B6F5310C04E7AA47665B8C14F4CAD6DB7618A48257A5D94AE89654B91AEDDEDDFC61C998326A5B714EA4BCB265FC440BE2924AF184CA6737218AB8E976E7FA6E4338649B0A523E8D98964450A6A029F619B8588D52FE7039
310
B1BD30F0F4F730D0FF866AF6369557DB33949F31A9088B0F848DD8CCFCF9F2767A76E99CCDE733677E3EF59D9BBB9BA5E37F984D16E78BC5E5F5ED25044B25C0C96822E8D60EEFE11B91C581D77CEA34368A1F5329E68CD1B8B61F16D63A1B8E092D294B10C78C4A48EB593D192E7DED9BDEE7995E1B91FDEDD3ACEA9FE831
310
6A756F9F7D4D79F4274C90A7A04248AA51D5F8C718DAE06FB2F75AC4796EBE65D22A88A22223B995679120E2D50E41AA49C260C046A35368846B0BECD0DFF3EBEB8AD4F835768F69B9ADF25C43D30E6B646F807FAA64AD59F61715C7A54127C4AACA98BA3006A9D792DAE165E0D59B61A01FB3A9F9D838D2DAE62445C86166
310
F37564E842E7DE6A69879FEEA2DD5AE7E371E1A5E025154AC307D06A03D73EB5978C58FFA4C8E9033066E0F3BD53BEC1F39F91BE7B55103791EDE6BBB991A2046172CB4581D8B893FA674DDA17A77B3B7C413D1B511FD2743BFF8A38F03A658705E3ADF8015C3A3417FF3D7E439FF591DA0B5F18BC20C1B8981957AE6392A3
310
F43C640C01D1A0B4728E2DD4F26DB4B3C3152A252A3B4E913CEC1C72F012782FF88EFF8637AA552DBEF76408E8A8DE9E50F9E1CB3A2DA0DB1B6039A893B56063DC5B3E3FFB5F72E67AB9FEB4AEC496C4F4C1149625DD662C53E89D7BF0F6151A046260D1337DFDC94502430F83B0EE07A130A224BCAD7DAE1D9FB6CD422FF6
310
920702629C4BB9AE79C12F243C6432A6794E18E5552BA56B431AAB5D91317302B2B071E86C3A42B1A02F999E24061403B5D0EB639195DA655DD3EBEAB4FB862DDF579F014AD0E73C22F99E28DA57FB98E75C6CA2D74D53086D600F4786E0FE3144B771A8A7B900F03594DB8A633CBC49B2EDB69228BB479CF863B5E807AAAB
310
23872F6DFEB4129B949CA33823F58830E86D65621E10047D9DB34D862E8EAC3C2ABC2F7B2C40D67CDFE01F5545B92105AF983AC54D93D69E56FB8E797F88913F898A9FEC705D3F9D1B54EC8426FB500D40A03BD0119B06E1B95DDC7EB8F6975367793EBD70E66733DFB9BC982F9CE564727731999F5D4ECFCE3B8D6A4DC2A0
310
6D50FD148437D110834A64C6CDDF57FBACB5C307A2A477DFE4939736CFEF2B175371E0E10CF0DD1D5C15654E0BCA14D1E87DD02FF93782A162C0A3D95F1524A52770F972BF1EE9809D13CE7DD599467F8ECE9ADD85CE85A34CD45355448C64F9E8A031DC2D596ACC6E5DD93D9B82DE2EF5CAF81363A8E47996A0DE24564A79
310
4115AACE09C55E14540231FDA13C319787134EBF34E3A022514E5B4D9E0826E25C02D5805B15ABE1BEF51B26383D445DD9E875EE33FE4C22DA16427D65A3BCA92CA6D28DD01DF5DC53330704308475351050232CCD31583787BA75774AFB06E5070DD0C8EF484E19968C5D83BA5B90B244D31E54D55A372320FE4786B7EA58
310
44E135AA5467CB7EA333A61683CC6A8C3257034C10CF46F40EF9F5BE59BE5BD30C3C72D235E95D10345C1D45445A5F0BB47E46A5EBE5570F9380B5FA629579952296A773720405982B9DE04011506178964401AA8BDF1FBF0A8EAB6861DD6580C0E38217056766716DAEB2D6FA0917D3E4116581EADB879C4E7CFFB11EFACD
310
3D641311495D92C8676CB409A72D18610D803CE8A626049E8EC1887CB5B44CC39883690DDA8399B4B9855B481E7D71D4A9D22F96E5BB73BF5793020C02137BF837504B0304140006080000CC70623B000000000000000000000000350000006662782F36394639363044362D344446342D343946362D394244322D32343142
310
43333846323333332F76657274696365732E62696E504B0304140006080800CC70623BF270F1330600000004000000360000006662782F36394639363044362D344446342D343946362D394244322D3234314243333846323333332F747269616E676C65732E62696E636660600000504B0304140006080000CC70623B0000
310
00000000000000000000370000006662782F36394639363044362D344446342D343946362D394244322D3234314243333846323333332F617474726962757465732E62696E504B0304140006080800CC70623B08DA0BD19000000041010000360000006662782F36394639363044362D344446342D343946362D394244322D
310
3234314243333846323333332F6469726563746F72792E786D6C858F410AC3201045AF22B36F53E9A60B35CBEEBAE80D244E44489C6234F4F835464A48035D0DF398FF9F8AF63D0E6CC63039F212F8F9020C7D47C6792B21C5FE7403D62A1188E2E60C98D7234A5830286103A55745067B9D86B8A3CF9C7F90C11DE607FB14
310
4396D7B6A82D282E9A152AD114D5EF2CB866EEE831B8EEA07A7BB5A8D7D61A2BAAEB7FD5F70921FF497D00504B0304140006080800CC70623BCA768048FE000000A00100003B0000006662782F36394639363044362D344446342D343946362D394244322D3234314243333846323333332F7265736F75726365732F636F72
310
652E786D6C8D50596E833010BD0A9ADFCA60D600328E9AA639412F609909B1126CE4A5EAF16B0295DABFFECC8CDEA2797AECF8353F924FB44E193D409E5248504B332A3D0D10FC95B4901C39B3C6F85F3248B49871801506CE266BC2B243D2688FDA47549B11775038871E12F988C7004EDE7016A9083E2ADC3D5D84BC8B09
310
D33C8D74D471E6BC8D0192EDC93A815B742658898E651BCB59086ADC356A8C3FD555A1055ED7E7E254D615792D0F075295F585746FF53B694EE78A565DD736979A65AB9933AFE69F8CD2A2F038022F28ED489E135A7CE4554F9BBEA85E68DB53CAB255FEC71496F19FA6A0B42F8B3DEE6673C0F318E4497096AD7DC5F52C33
310
EEB55BFE0D504B010214000A0000080000CC70623B3DEE336E79000000790000001B00000000000000000000000000000000006175746F6465736B2D64657369676E2D7061636B6167652E786D6C504B01021400140006080800CC70623BD486FD9CA0000000F40000001300000000000000000000000000B20000005B436F
310
6E74656E745F54797065735D2E786D6C504B01021400140006080800CC70623BD9DDAED0EC0000007C010000080000000000000000000000000083010000636F72652E786D6C504B01021400140006080800CC70623B55019EA25F0000007C000000070000000000000000000000000095020000636E782E786D6C504B0102
310
1400140006080800CC70623BA24EB22D72010000D40300000C00000000000000000000000000190300006662782F636F72652E786D6C504B01021400140006080800CC70623B408A7D3B7C0000009D0000000B00000000000000000000000000B50400006662782F636E782E786D6C504B01021400140006080800CC70623B
310
449FB9BD290100001202000031000000000000000000000000005A0500006662782F36394639363044362D344446342D343946362D394244322D3234314243333846323333332F636F72652E786D6C504B01021400140006080800CC70623BAD7543B64E010000330300003000000000000000000000000000D20600006662
310
782F36394639363044362D344446342D343946362D394244322D3234314243333846323333332F636E782E786D6C504B01021400140006080800CC70623B8D05915C650500003B10000034000000000000000000000000006E0800006662782F36394639363044362D344446342D343946362D394244322D32343142433338
310
46323333332F6F626A656374732E786D6C504B01021400140006080000CC70623B0000000000000000000000003500000000000000000000000000250E00006662782F36394639363044362D344446342D343946362D394244322D3234314243333846323333332F76657274696365732E62696E504B010214001400060808
310
00CC70623BF270F13306000000040000003600000000000000000000000000780E00006662782F36394639363044362D344446342D343946362D394244322D3234314243333846323333332F747269616E676C65732E62696E504B01021400140006080000CC70623B00000000000000000000000037000000000000000000
310
00000000D20E00006662782F36394639363044362D344446342D343946362D394244322D3234314243333846323333332F617474726962757465732E62696E504B01021400140006080800CC70623B08DA0BD190000000410100003600000000000000000000000000270F00006662782F36394639363044362D344446342D
310
343946362D394244322D3234314243333846323333332F6469726563746F72792E786D6C504B01021400140006080800CC70623BCA768048FE000000A00100003B000000000000000000000000000B1000006662782F36394639363044362D344446342D343946362D394244322D3234314243333846323333332F7265736F
310
75726365732F636F72652E786D6C504B0506000000000E000E0080040000621100000000
  0
XRECORD
  5
176
102
{ACAD_REACTORS
330
173
102
}
330
173
100
AcDbXrecord
280
     1
270
     1
271
     1
  0
XRECORD
  5
177
102
{ACAD_REACTORS
330
173
102
}
330
173
100
AcDbXrecord
280
     1
270
     1
271
     1
  0
XRECORD
  5
75B
102
{ACAD_REACTORS
330
75A
102
}
330
75A
100
AcDbXrecord
280
     1
102
DISPLAYNAME
  1
Metric50
102
FLAGS
 90
        0
  0
CELLSTYLEMAP
  5
757
102
{ACAD_REACTORS
330
162
102
}
330
162
100
AcDbCellStyleMap
 90
        3
300
CELLSTYLE
  1
TABLEFORMAT_BEGIN
 90
        5
170
     1
 91
        0
 92
    32768
 62
   257
 93
        1
300
CONTENTFORMAT
  1
CONTENTFORMAT_BEGIN
 90
        0
 91
        0
 92
      512
 93
        0
300

 40
0.0
140
1.0
 94
        5
 62
     0
340
11
144
6.0
309
CONTENTFORMAT_END
171
     1
301
MARGIN
  1
CELLMARGIN_BEGIN
 40
1.5
 40
1.5
 40
1.5
 40
1.5
 40
4.5
 40
4.5
309
CELLMARGIN_END
 94
        6
 95
        1
302
GRIDFORMAT
  1
GRIDFORMAT_BEGIN
 90
        0
 91
        1
 62
     0
 92
       -2
340
14
 93
        0
 40
1.125
309
GRIDFORMAT_END
 95
        2
302
GRIDFORMAT
  1
GRIDFORMAT_BEGIN
 90
        0
 91
        1
 62
     0
 92
       -2
340
14
 93
        0
 40
1.125
309
GRIDFORMAT_END
 95
        4
302
GRIDFORMAT
  1
GRIDFORMAT_BEGIN
 90
        0
 91
        1
 62
     0
 92
       -2
340
14
 93
        0
 40
1.125
309
GRIDFORMAT_END
 95
        8
302
GRIDFORMAT
  1
GRIDFORMAT_BEGIN
 90
        0
 91
        1
 62
     0
 92
       -2
340
14
 93
        0
 40
1.125
309
GRIDFORMAT_END
 95
       16
302
GRIDFORMAT
  1
GRIDFORMAT_BEGIN
 90
        0
 91
        1
 62
     0
 92
       -2
340
14
 93
        0
 40
1.125
309
GRIDFORMAT_END
 95
       32
302
GRIDFORMAT
  1
GRIDFORMAT_BEGIN
 90
        0
 91
        1
 62
     0
 92
       -2
340
14
 93
        0
 40
1.125
309
GRIDFORMAT_END
309
TABLEFORMAT_END
  1
CELLSTYLE_BEGIN
 90
        1
 91
        1
300
_TITLE
309
CELLSTYLE_END
300
CELLSTYLE
  1
TABLEFORMAT_BEGIN
 90
        5
170
     1
 91
        0
 92
        0
 62
   257
 93
        1
300
CONTENTFORMAT
  1
CONTENTFORMAT_BEGIN
 90
        0
 91
        0
 92
      512
 93
        0
300

 40
0.0
140
1.0
 94
        5
 62
     0
340
11
144
4.5
309
CONTENTFORMAT_END
171
     1
301
MARGIN
  1
CELLMARGIN_BEGIN
 40
1.5
 40
1.5
 40
1.5
 40
1.5
 40
4.5
 40
4.5
309
CELLMARGIN_END
 94
        6
 95
        1
302
GRIDFORMAT
  1
GRIDFORMAT_BEGIN
 90
        0
 91
        1
 62
     0
 92
       -2
340
14
 93
        0
 40
1.125
309
GRIDFORMAT_END
 95
        2
302
GRIDFORMAT
  1
GRIDFORMAT_BEGIN
 90
        0
 91
        1
 62
     0
 92
       -2
340
14
 93
        0
 40
1.125
309
GRIDFORMAT_END
 95
        4
302
GRIDFORMAT
  1
GRIDFORMAT_BEGIN
 90
        0
 91
        1
 62
     0
 92
       -2
340
14
 93
        0
 40
1.125
309
GRIDFORMAT_END
 95
        8
302
GRIDFORMAT
  1
GRIDFORMAT_BEGIN
 90
        0
 91
        1
 62
     0
 92
       -2
340
14
 93
        0
 40
1.125
309
GRIDFORMAT_END
 95
       16
302
GRIDFORMAT
  1
GRIDFORMAT_BEGIN
 90
        0
 91
        1
 62
     0
 92
       -2
340
14
 93
        0
 40
1.125
309
GRIDFORMAT_END
 95
       32
302
GRIDFORMAT
  1
GRIDFORMAT_BEGIN
 90
        0
 91
        1
 62
     0
 92
       -2
340
14
 93
        0
 40
1.125
309
GRIDFORMAT_END
309
TABLEFORMAT_END
  1
CELLSTYLE_BEGIN
 90
        2
 91
        1
300
_HEADER
309
CELLSTYLE_END
300
CELLSTYLE
  1
TABLEFORMAT_BEGIN
 90
        5
170
     1
 91
        0
 92
        0
 62
   257
 93
        1
300
CONTENTFORMAT
  1
CONTENTFORMAT_BEGIN
 90
        0
 91
        0
 92
      512
 93
        0
300

 40
0.0
140
1.0
 94
        2
 62
     0
340
11
144
4.5
309
CONTENTFORMAT_END
171
     1
301
MARGIN
  1
CELLMARGIN_BEGIN
 40
1.5
 40
1.5
 40
1.5
 40
1.5
 40
4.5
 40
4.5
309
CELLMARGIN_END
 94
        6
 95
        1
302
GRIDFORMAT
  1
GRIDFORMAT_BEGIN
 90
        0
 91
        1
 62
     0
 92
       -2
340
14
 93
        0
 40
1.125
309
GRIDFORMAT_END
 95
        2
302
GRIDFORMAT
  1
GRIDFORMAT_BEGIN
 90
        0
 91
        1
 62
     0
 92
       -2
340
14
 93
        0
 40
1.125
309
GRIDFORMAT_END
 95
        4
302
GRIDFORMAT
  1
GRIDFORMAT_BEGIN
 90
        0
 91
        1
 62
     0
 92
       -2
340
14
 93
        0
 40
1.125
309
GRIDFORMAT_END
 95
        8
302
GRIDFORMAT
  1
GRIDFORMAT_BEGIN
 90
        0
 91
        1
 62
     0
 92
       -2
340
14
 93
        0
 40
1.125
309
GRIDFORMAT_END
 95
       16
302
GRIDFORMAT
  1
GRIDFORMAT_BEGIN
 90
        0
 91
        1
 62
     0
 92
       -2
340
14
 93
        0
 40
1.125
309
GRIDFORMAT_END
 95
       32
302
GRIDFORMAT
  1
GRIDFORMAT_BEGIN
 90
        0
 91
        1
 62
     0
 92
       -2
340
14
 93
        0
 40
1.125
309
GRIDFORMAT_END
309
TABLEFORMAT_END
  1
CELLSTYLE_BEGIN
 90
        3
 91
        2
300
_DATA
309
CELLSTYLE_END
  0
ENDSEC
  0
SECTION
  2
ACDSDATA
 70
     2
 71
     8
  0
ACDSSCHEMA
 90
        0
  1
AcDb_Thumbnail_Schema
  2
AcDbDs::ID
280
    10
 91
        8
  2
Thumbnail_Data
280
    15
 91
        0
101
ACDSRECORD
 95
        0
 90
        1
  2
AcDbDs::TreatedAsObjectData
280
     1
291
     1
101
ACDSRECORD
 95
        0
 90
        2
  2
AcDbDs::Legacy
280
     1
291
     1
101
ACDSRECORD
  1
AcDbDs::ID
 90
        3
  2
AcDs:Indexable
280
     1
291
     1
101
ACDSRECORD
  1
AcDbDs::ID
 90
        4
  2
AcDbDs::HandleAttribute
280
     7
282
     1
  0
ACDSSCHEMA
 90
        1
  1
AcDbDs::TreatedAsObjectDataSchema
  2
AcDbDs::TreatedAsObjectData
280
     1
 91
        0
  0
ACDSSCHEMA
 90
        2
  1
AcDbDs::LegacySchema
  2
AcDbDs::Legacy
280
     1
 91
        0
  0
ACDSSCHEMA
 90
        3
  1
AcDbDs::IndexedPropertySchema
  2
AcDs:Indexable
280
     1
 91
        0
  0
ACDSSCHEMA
 90
        4
  1
AcDbDs::HandleAttributeSchema
  2
AcDbDs::HandleAttribute
280
     7
 91
        1
284
     1
  0
ACDSRECORD
 90
        0
  2
AcDbDs::ID
280
    10
320
22
  2
Thumbnail_Data
280
    15
 94
     1139
310
89504E470D0A1A0A0000000D494844520000010000000084080300000048FA052E00000300504C5445212830000000C8C8C80000000000000000000000000000000000000000000000000000330000660000990000CC0000FF0033000033330033660033990033CC0033FF0066000066330066660066990066CC0066FF0099
310
000099330099660099990099CC0099FF00CC0000CC3300CC6600CC9900CCCC00CCFF00FF0000FF3300FF6600FF9900FFCC00FFFF3300003300333300663300993300CC3300FF3333003333333333663333993333CC3333FF3366003366333366663366993366CC3366FF3399003399333399663399993399CC3399FF33CC00
310
33CC3333CC6633CC9933CCCC33CCFF33FF0033FF3333FF6633FF9933FFCC33FFFF6600006600336600666600996600CC6600FF6633006633336633666633996633CC6633FF6666006666336666666666996666CC6666FF6699006699336699666699996699CC6699FF66CC0066CC3366CC6666CC9966CCCC66CCFF66FF0066
310
FF3366FF6666FF9966FFCC66FFFF9900009900339900669900999900CC9900FF9933009933339933669933999933CC9933FF9966009966339966669966999966CC9966FF9999009999339999669999999999CC9999FF99CC0099CC3399CC6699CC9999CCCC99CCFF99FF0099FF3399FF6699FF9999FFCC99FFFFCC0000CC00
310
33CC0066CC0099CC00CCCC00FFCC3300CC3333CC3366CC3399CC33CCCC33FFCC6600CC6633CC6666CC6699CC66CCCC66FFCC9900CC9933CC9966CC9999CC99CCCC99FFCCCC00CCCC33CCCC66CCCC99CCCCCCCCCCFFCCFF00CCFF33CCFF66CCFF99CCFFCCCCFFFFFF0000FF0033FF0066FF0099FF00CCFF00FFFF3300FF3333
310
FF3366FF3399FF33CCFF33FFFF6600FF6633FF6666FF6699FF66CCFF66FFFF9900FF9933FF9966FF9999FF99CCFF99FFFFCC00FFCC33FFCC66FFCC99FFCCCCFFCCFFFFFF00FFFF33FFFF66FFFF99FFFFCCFFFFFF0000000D0D0D1A1A1A2828283535354343435050505D5D5D6B6B6B787878868686939393A1A1A1AEAEAEBB
310
BBBBC9C9C9D6D6D6E4E4E4F1F1F1FFFFFF000000000000000000000000000000000000000000000000000000000000B21171F60000012E4944415478DAEDDBD16EC2300C05D0FCFFFFFA7D9A90188CA682CAD992F89CC74A48E4CA4DDD605A030000000000000000006022115176E12F5480000028DE07DC1F0A9B3F1DA277
310
A97A003F6DC1E60D8200DC02021080005E2F3D1C0B084000AB7CF15201449AF34D70DA43C2DF6F2CA39E02F306D0049074279CBF0B4C1A40D2117EACD908A5FD8A11BD00D26B6AC0EE777221A902DA941570B8DACB112C174077A59722B855EB4AB740E43686FD0026AD80486E8D370BE0F3EFB95A00D15A7A09BCB709C612
310
EBBF5402C503F8FEC41BFB78B49D035867446644004B1140F500063C0605B055020586DCCA0790FD36B8530265A63C3B0BAD34E47A1041B521DFA766BDEA707BEDC97E00000000E0C85F9D19FED3E1E4D03F4C4C3D2BAC0204000040ADDE2ED6A102040050D8177FA7A54949628BF40000000049454E44AE426082
  0
ENDSEC
  0
EOF
